  0
SECTION
  2
HEADER
  9
$ACADVER
  1
AC1021
  9
$ACADMAINTVER
 70
    25
  9
$DWGCODEPAGE
  3
ANSI_1252
  9
$LASTSAVEDBY
  1
Nick Zweigel
  9
$INSBASE
 10
0.0
 20
0.0
 30
0.0
  9
$EXTMIN
 10
0.0
 20
0.0
 30
0.0
  9
$EXTMAX
 10
210.0
 20
297.0
 30
0.0
  9
$LIMMIN
 10
0.0
 20
0.0
  9
$LIMMAX
 10
210.0
 20
297.0
  9
$ORTHOMODE
 70
     0
  9
$REGENMODE
 70
     1
  9
$FILLMODE
 70
     1
  9
$QTEXTMODE
 70
     0
  9
$MIRRTEXT
 70
     1
  9
$LTSCALE
 40
1.0
  9
$ATTMODE
 70
     1
  9
$TEXTSIZE
 40
3.0
  9
$TRACEWID
 40
1.0
  9
$TEXTSTYLE
  7
Standard
  9
$CLAYER
  8
0
  9
$CELTYPE
  6
ByLayer
  9
$CECOLOR
 62
   256
  9
$CELTSCALE
 40
1.0
  9
$DISPSILH
 70
     0
  9
$DIMSCALE
 40
1.0
  9
$DIMASZ
 40
2.5
  9
$DIMEXO
 40
0.625
  9
$DIMDLI
 40
3.75
  9
$DIMRND
 40
0.0
  9
$DIMDLE
 40
0.0
  9
$DIMEXE
 40
1.25
  9
$DIMTP
 40
0.0
  9
$DIMTM
 40
0.0
  9
$DIMTXT
 40
2.5
  9
$DIMCEN
 40
2.5
  9
$DIMTSZ
 40
0.0
  9
$DIMTOL
 70
     0
  9
$DIMLIM
 70
     0
  9
$DIMTIH
 70
     0
  9
$DIMTOH
 70
     0
  9
$DIMSE1
 70
     0
  9
$DIMSE2
 70
     0
  9
$DIMTAD
 70
     1
  9
$DIMZIN
 70
     8
  9
$DIMBLK
  1

  9
$DIMASO
 70
     1
  9
$DIMSHO
 70
     1
  9
$DIMPOST
  1

  9
$DIMAPOST
  1

  9
$DIMALT
 70
     0
  9
$DIMALTD
 70
     3
  9
$DIMALTF
 40
0.0393700787
  9
$DIMLFAC
 40
1.0
  9
$DIMTOFL
 70
     1
  9
$DIMTVP
 40
0.0
  9
$DIMTIX
 70
     0
  9
$DIMSOXD
 70
     0
  9
$DIMSAH
 70
     0
  9
$DIMBLK1
  1

  9
$DIMBLK2
  1

  9
$DIMSTYLE
  2
ISO-25
  9
$DIMCLRD
 70
     0
  9
$DIMCLRE
 70
     0
  9
$DIMCLRT
 70
     0
  9
$DIMTFAC
 40
1.0
  9
$DIMGAP
 40
0.625
  9
$DIMJUST
 70
     0
  9
$DIMSD1
 70
     0
  9
$DIMSD2
 70
     0
  9
$DIMTOLJ
 70
     0
  9
$DIMTZIN
 70
     8
  9
$DIMALTZ
 70
     0
  9
$DIMALTTZ
 70
     0
  9
$DIMUPT
 70
     0
  9
$DIMDEC
 70
     2
  9
$DIMTDEC
 70
     2
  9
$DIMALTU
 70
     2
  9
$DIMALTTD
 70
     3
  9
$DIMTXSTY
  7
Standard
  9
$DIMAUNIT
 70
     0
  9
$DIMADEC
 70
     0
  9
$DIMALTRND
 40
0.0
  9
$DIMAZIN
 70
     0
  9
$DIMDSEP
 70
    44
  9
$DIMATFIT
 70
     3
  9
$DIMFRAC
 70
     0
  9
$DIMLDRBLK
  1

  9
$DIMLUNIT
 70
     2
  9
$DIMLWD
 70
    -2
  9
$DIMLWE
 70
    -2
  9
$DIMTMOVE
 70
     0
  9
$DIMFXL
 40
1.0
  9
$DIMFXLON
 70
     0
  9
$DIMJOGANG
 40
0.7853981634
  9
$DIMTFILL
 70
     0
  9
$DIMTFILLCLR
 70
     0
  9
$DIMARCSYM
 70
     0
  9
$DIMLTYPE
  6

  9
$DIMLTEX1
  6

  9
$DIMLTEX2
  6

  9
$LUNITS
 70
     2
  9
$LUPREC
 70
     4
  9
$SKETCHINC
 40
1.0
  9
$FILLETRAD
 40
0.0
  9
$AUNITS
 70
     0
  9
$AUPREC
 70
     0
  9
$MENU
  1
.
  9
$ELEVATION
 40
0.0
  9
$PELEVATION
 40
0.0
  9
$THICKNESS
 40
0.0
  9
$LIMCHECK
 70
     0
  9
$CHAMFERA
 40
0.0
  9
$CHAMFERB
 40
0.0
  9
$CHAMFERC
 40
0.0
  9
$CHAMFERD
 40
0.0
  9
$SKPOLY
 70
     0
  9
$TDCREATE
 40
2460264.474414364
  9
$TDUCREATE
 40
2460264.432747697
  9
$TDUPDATE
 40
2460264.474431968
  9
$TDUUPDATE
 40
2460264.432765301
  9
$TDINDWG
 40
0.0000000116
  9
$TDUSRTIMER
 40
0.0000000116
  9
$USRTIMER
 70
     1
  9
$ANGBASE
 50
0.0
  9
$ANGDIR
 70
     0
  9
$PDMODE
 70
     0
  9
$PDSIZE
 40
0.0
  9
$PLINEWID
 40
0.0
  9
$SPLFRAME
 70
     0
  9
$SPLINETYPE
 70
     6
  9
$SPLINESEGS
 70
     8
  9
$HANDSEED
  5
234
  9
$SURFTAB1
 70
     6
  9
$SURFTAB2
 70
     6
  9
$SURFTYPE
 70
     6
  9
$SURFU
 70
     6
  9
$SURFV
 70
     6
  9
$UCSBASE
  2

  9
$UCSNAME
  2

  9
$UCSORG
 10
0.0
 20
0.0
 30
0.0
  9
$UCSXDIR
 10
1.0
 20
0.0
 30
0.0
  9
$UCSYDIR
 10
0.0
 20
1.0
 30
0.0
  9
$UCSORTHOREF
  2

  9
$UCSORTHOVIEW
 70
     0
  9
$UCSORGTOP
 10
0.0
 20
0.0
 30
0.0
  9
$UCSORGBOTTOM
 10
0.0
 20
0.0
 30
0.0
  9
$UCSORGLEFT
 10
0.0
 20
0.0
 30
0.0
  9
$UCSORGRIGHT
 10
0.0
 20
0.0
 30
0.0
  9
$UCSORGFRONT
 10
0.0
 20
0.0
 30
0.0
  9
$UCSORGBACK
 10
0.0
 20
0.0
 30
0.0
  9
$PUCSBASE
  2

  9
$PUCSNAME
  2

  9
$PUCSORG
 10
0.0
 20
0.0
 30
0.0
  9
$PUCSXDIR
 10
1.0
 20
0.0
 30
0.0
  9
$PUCSYDIR
 10
0.0
 20
1.0
 30
0.0
  9
$PUCSORTHOREF
  2

  9
$PUCSORTHOVIEW
 70
     0
  9
$PUCSORGTOP
 10
0.0
 20
0.0
 30
0.0
  9
$PUCSORGBOTTOM
 10
0.0
 20
0.0
 30
0.0
  9
$PUCSORGLEFT
 10
0.0
 20
0.0
 30
0.0
  9
$PUCSORGRIGHT
 10
0.0
 20
0.0
 30
0.0
  9
$PUCSORGFRONT
 10
0.0
 20
0.0
 30
0.0
  9
$PUCSORGBACK
 10
0.0
 20
0.0
 30
0.0
  9
$USERI1
 70
     0
  9
$USERI2
 70
     0
  9
$USERI3
 70
     0
  9
$USERI4
 70
     0
  9
$USERI5
 70
     0
  9
$USERR1
 40
0.0
  9
$USERR2
 40
0.0
  9
$USERR3
 40
0.0
  9
$USERR4
 40
0.0
  9
$USERR5
 40
0.0
  9
$WORLDVIEW
 70
     1
  9
$SHADEDGE
 70
     3
  9
$SHADEDIF
 70
    70
  9
$TILEMODE
 70
     1
  9
$MAXACTVP
 70
    64
  9
$PINSBASE
 10
0.0
 20
0.0
 30
0.0
  9
$PLIMCHECK
 70
     0
  9
$PEXTMIN
 10
0.0
 20
0.0
 30
0.0
  9
$PEXTMAX
 10
210.0
 20
297.0
 30
0.0
  9
$PLIMMIN
 10
0.0
 20
0.0
  9
$PLIMMAX
 10
210.0
 20
297.0
  9
$UNITMODE
 70
     0
  9
$VISRETAIN
 70
     1
  9
$PLINEGEN
 70
     0
  9
$PSLTSCALE
 70
     1
  9
$TREEDEPTH
 70
  3020
  9
$CMLSTYLE
  2
Standard
  9
$CMLJUST
 70
     0
  9
$CMLSCALE
 40
20.0
  9
$PROXYGRAPHICS
 70
     1
  9
$MEASUREMENT
 70
     1
  9
$CELWEIGHT
370
    -1
  9
$ENDCAPS
280
     0
  9
$JOINSTYLE
280
     0
  9
$LWDISPLAY
290
     0
  9
$INSUNITS
 70
     4
  9
$HYPERLINKBASE
  1

  9
$STYLESHEET
  1

  9
$XEDIT
290
     1
  9
$CEPSNTYPE
380
     0
  9
$PSTYLEMODE
290
     1
  9
$FINGERPRINTGUID
  2
{635c363d-a85a-490f-a467-f6c4ba1d4399}
  9
$VERSIONGUID
  2
{FAEB1C32-E019-11D5-929B-00C0DF256EC4}
  9
$EXTNAMES
290
     1
  9
$PSVPSCALE
 40
0.0
  9
$OLESTARTUP
290
     0
  9
$SORTENTS
280
   127
  9
$INDEXCTL
280
     0
  9
$HIDETEXT
280
     1
  9
$XCLIPFRAME
290
     0
  9
$HALOGAP
280
     0
  9
$OBSCOLOR
 70
   257
  9
$OBSLTYPE
280
     0
  9
$INTERSECTIONDISPLAY
280
     0
  9
$INTERSECTIONCOLOR
 70
   257
  9
$DIMASSOC
280
     2
  9
$PROJECTNAME
  1

  9
$CAMERADISPLAY
290
     0
  9
$LENSLENGTH
 40
50.0
  9
$CAMERAHEIGHT
 40
0.0
  9
$STEPSPERSEC
 40
2.0
  9
$STEPSIZE
 40
6.0
  9
$3DDWFPREC
 40
2.0
  9
$PSOLWIDTH
 40
5.0
  9
$PSOLHEIGHT
 40
80.0
  9
$LOFTANG1
 40
1.5707963268
  9
$LOFTANG2
 40
1.5707963268
  9
$LOFTMAG1
 40
0.0
  9
$LOFTMAG2
 40
0.0
  9
$LOFTPARAM
 70
     7
  9
$LOFTNORMALS
280
     1
  9
$LATITUDE
 40
37.795
  9
$LONGITUDE
 40
-122.394
  9
$NORTHDIRECTION
 40
0.0
  9
$TIMEZONE
 70
 -8000
  9
$LIGHTGLYPHDISPLAY
280
     1
  9
$TILEMODELIGHTSYNCH
280
     1
  9
$CMATERIAL
347
44
  9
$SOLIDHIST
280
     0
  9
$SHOWHIST
280
     1
  9
$DWFFRAME
280
     2
  9
$DGNFRAME
280
     2
  9
$REALWORLDSCALE
290
     1
  9
$INTERFERECOLOR
 62
   256
  9
$CSHADOW
280
     0
  9
$SHADOWPLANELOCATION
 40
0.0
  0
ENDSEC
  0
SECTION
  2
CLASSES
  0
CLASS
  1
ACDBDICTIONARYWDFLT
  2
AcDbDictionaryWithDefault
  3
ObjectDBX Classes
 90
        0
 91
        3
280
     0
281
     0
  0
CLASS
  1
VISUALSTYLE
  2
AcDbVisualStyle
  3
ObjectDBX Classes
 90
     4095
 91
        3
280
     0
281
     0
  0
CLASS
  1
MATERIAL
  2
AcDbMaterial
  3
ObjectDBX Classes
 90
     1153
 91
        3
280
     0
281
     0
  0
CLASS
  1
SCALE
  2
AcDbScale
  3
ObjectDBX Classes
 90
     1153
 91
        3
280
     0
281
     0
  0
CLASS
  1
TABLESTYLE
  2
AcDbTableStyle
  3
ObjectDBX Classes
 90
     4095
 91
        3
280
     0
281
     0
  0
CLASS
  1
MLEADERSTYLE
  2
AcDbMLeaderStyle
  3
ACDB_MLEADERSTYLE_CLASS
 90
     4095
 91
        3
280
     0
281
     0
  0
CLASS
  1
SUN
  2
AcDbSun
  3
SCENEOE
 90
     1153
 91
        3
280
     0
281
     0
  0
CLASS
  1
RASTERVARIABLES
  2
AcDbRasterVariables
  3
ISM
 90
        0
 91
        3
280
     0
281
     0
  0
CLASS
  1
IMAGEDEF
  2
AcDbRasterImageDef
  3
ISM
 90
        0
 91
        3
280
     0
281
     0
  0
CLASS
  1
IMAGE
  2
AcDbRasterImage
  3
ISM
 90
      127
 91
        4
280
     0
281
     1
  0
CLASS
  1
IMAGEDEF_REACTOR
  2
AcDbRasterImageDefReactor
  3
ISM
 90
        1
 91
        3
280
     0
281
     0
  0
CLASS
  1
DICTIONARYVAR
  2
AcDbDictionaryVar
  3
ObjectDBX Classes
 90
        0
 91
        3
280
     0
281
     0
  0
CLASS
  1
CELLSTYLEMAP
  2
AcDbCellStyleMap
  3
ObjectDBX Classes
 90
     1152
 91
        3
280
     0
281
     0
  0
ENDSEC
  0
SECTION
  2
TABLES
  0
TABLE
  2
VPORT
  5
8
330
0
100
AcDbSymbolTable
 70
     1
  0
VPORT
  5
29
330
8
100
AcDbSymbolTableRecord
100
AcDbViewportTableRecord
  2
*Active
 70
     0
 10
0.0
 20
0.0
 11
1.0
 21
1.0
 12
344.1869158879
 22
148.5
 13
0.0
 23
0.0
 14
10.0
 24
10.0
 15
10.0
 25
10.0
 16
0.0
 26
0.0
 36
1.0
 17
0.0
 27
0.0
 37
0.0
 40
297.0
 41
1.9729729729
 42
50.0
 43
0.0
 44
0.0
 50
0.0
 51
0.0
 71
     0
 72
   100
 73
     1
 74
     3
 75
     0
 76
     0
 77
     0
 78
     0
281
     0
 65
     1
110
0.0
120
0.0
130
0.0
111
1.0
121
0.0
131
0.0
112
0.0
122
1.0
132
0.0
 79
     0
146
0.0
348
2F
 60
     3
 61
     5
292
     1
282
     1
141
0.0
142
0.0
 63
   250
361
5D
  0
ENDTAB
  0
TABLE
  2
LTYPE
  5
5
330
0
100
AcDbSymbolTable
 70
     2
  0
LTYPE
  5
14
330
5
100
AcDbSymbolTableRecord
100
AcDbLinetypeTableRecord
  2
ByBlock
 70
     0
  3

 72
    65
 73
     0
 40
0.0
  0
LTYPE
  5
15
330
5
100
AcDbSymbolTableRecord
100
AcDbLinetypeTableRecord
  2
ByLayer
 70
     0
  3

 72
    65
 73
     0
 40
0.0
  0
LTYPE
  5
16
330
5
100
AcDbSymbolTableRecord
100
AcDbLinetypeTableRecord
  2
Continuous
 70
     0
  3
Solid line
 72
    65
 73
     0
 40
0.0
  0
LTYPE
  5
FF
330
5
100
AcDbSymbolTableRecord
100
AcDbLinetypeTableRecord
  2
CENTER2
 70
     0
  3
Center (.5x) ___ _ ___ _ ___ _ ___ _ ___ _ ___
 72
    65
 73
     4
 40
28.575
 49
19.05
 74
     4
 75
     0
340
0
 46
0.0
 50
0.0
 44
0.0
 45
0.0
 49
-3.175
 74
     4
 75
     0
340
0
 46
0.0
 50
0.0
 44
0.0
 45
0.0
 49
3.175
 74
     4
 75
     0
340
0
 46
0.0
 50
0.0
 44
0.0
 45
0.0
 49
-3.175
 74
     4
 75
     0
340
0
 46
0.0
 50
0.0
 44
0.0
 45
0.0
  0
ENDTAB
  0
TABLE
  2
LAYER
  5
2
330
0
100
AcDbSymbolTable
 70
    11
  0
LAYER
  5
10
330
2
100
AcDbSymbolTableRecord
100
AcDbLayerTableRecord
  2
0
 70
     0
 62
     7
  6
Continuous
370
    -3
390
F
347
46
  0
LAYER
  5
5E
330
2
100
AcDbSymbolTableRecord
100
AcDbLayerTableRecord
  2
Standard
 70
     0
 62
     7
  6
Continuous
370
    -3
390
F
347
46
  0
LAYER
  5
61
330
2
100
AcDbSymbolTableRecord
100
AcDbLayerTableRecord
  2
DV1_Füllung
 70
     1
 62
    -7
  6
Continuous
370
    -3
390
F
347
46
  0
LAYER
  5
74
330
2
100
AcDbSymbolTableRecord
100
AcDbLayerTableRecord
  2
D000121
 70
     0
 62
     7
  6
Continuous
370
    -3
390
F
347
46
  0
LAYER
  5
9F
330
2
100
AcDbSymbolTableRecord
100
AcDbLayerTableRecord
  2
D000122
 70
     0
 62
     7
  6
Continuous
370
    -3
390
F
347
46
  0
LAYER
  5
BA
330
2
100
AcDbSymbolTableRecord
100
AcDbLayerTableRecord
  2
D000134
 70
     0
 62
     7
  6
Continuous
370
    -3
390
F
347
46
  0
LAYER
  5
FE
330
2
100
AcDbSymbolTableRecord
100
AcDbLayerTableRecord
  2
DV1_Standard
 70
     0
 62
     7
  6
Continuous
370
    -3
390
F
347
46
  0
LAYER
  5
135
330
2
100
AcDbSymbolTableRecord
100
AcDbLayerTableRecord
  2
DV2_Füllung
 70
     1
 62
    -7
  6
Continuous
370
    -3
390
F
347
46
  0
LAYER
  5
1CF
330
2
100
AcDbSymbolTableRecord
100
AcDbLayerTableRecord
  2
DV2_Standard
 70
     0
 62
     7
  6
Continuous
370
    -3
390
F
347
46
  0
LAYER
  5
1D3
330
2
100
AcDbSymbolTableRecord
100
AcDbLayerTableRecord
  2
Default
 70
     0
 62
     7
  6
Continuous
370
    -3
390
F
347
46
  0
LAYER
  5
1EA
330
2
100
AcDbSymbolTableRecord
100
AcDbLayerTableRecord
  2
Skizziergeometrie(DIN)
 70
     0
 62
     7
  6
Continuous
370
    -3
390
F
347
46
  0
ENDTAB
  0
TABLE
  2
STYLE
  5
3
330
0
100
AcDbSymbolTable
 70
     2
  0
STYLE
  5
11
330
3
100
AcDbSymbolTableRecord
100
AcDbTextStyleTableRecord
  2
Standard
 70
     0
 40
0.0
 41
1.0
 50
0.0
 71
     0
 42
3.0
  3
txt
  4

  0
STYLE
  5
113
330
3
100
AcDbSymbolTableRecord
100
AcDbTextStyleTableRecord
  2
SEACAD_Arial
 70
     0
 40
0.0
 41
1.0
 50
0.0
 71
     0
 42
2.5
  3
arial.ttf
  4

1001
ACAD
1000
Arial
1071
        0
  0
ENDTAB
  0
TABLE
  2
VIEW
  5
6
330
0
100
AcDbSymbolTable
 70
     0
  0
ENDTAB
  0
TABLE
  2
UCS
  5
7
330
0
100
AcDbSymbolTable
 70
     0
  0
ENDTAB
  0
TABLE
  2
APPID
  5
9
330
0
100
AcDbSymbolTable
 70
     2
  0
APPID
  5
12
330
9
100
AcDbSymbolTableRecord
100
AcDbRegAppTableRecord
  2
ACAD
 70
     0
  0
APPID
  5
22A
330
9
100
AcDbSymbolTableRecord
100
AcDbRegAppTableRecord
  2
ACAD_MLEADERVER
 70
     0
  0
ENDTAB
  0
TABLE
  2
DIMSTYLE
  5
A
330
0
100
AcDbSymbolTable
 70
     3
100
AcDbDimStyleTable
  0
DIMSTYLE
105
27
330
A
100
AcDbSymbolTableRecord
100
AcDbDimStyleTableRecord
  2
ISO-25
 70
     0
 41
2.5
 42
0.625
 43
3.75
 44
1.25
 73
     0
 74
     0
 77
     1
 78
     8
140
2.5
141
2.5
143
0.0393700787
147
0.625
171
     3
172
     1
178
     0
271
     2
272
     2
274
     3
278
    44
283
     0
284
     8
340
11
  0
DIMSTYLE
105
103
330
A
100
AcDbSymbolTableRecord
100
AcDbDimStyleTableRecord
  2
Standard
 70
     0
178
     0
340
11
  0
DIMSTYLE
105
114
102
{ACAD_REACTORS
330
115
330
11F
330
127
102
}
330
A
100
AcDbSymbolTableRecord
100
AcDbDimStyleTableRecord
  2
E-Katalog
 70
     0
 41
3.75
 42
0.75
 44
1.25
 73
     0
 74
     0
 77
     1
 78
     8
140
2.5
141
1.25
143
0.0393700787
146
0.7
147
0.625
172
     1
173
     1
178
     0
271
     0
272
     3
278
    44
283
     0
284
     8
340
113
343
10D
344
10D
  0
ENDTAB
  0
TABLE
  2
BLOCK_RECORD
  5
1
330
0
100
AcDbSymbolTable
 70
     8
  0
BLOCK_RECORD
  5
1F
330
1
100
AcDbSymbolTableRecord
100
AcDbBlockTableRecord
  2
*Model_Space
340
22
 70
     0
280
     1
281
     0
  0
BLOCK_RECORD
  5
1B
330
1
100
AcDbSymbolTableRecord
100
AcDbBlockTableRecord
  2
*Paper_Space
340
1E
 70
     0
280
     1
281
     0
  0
BLOCK_RECORD
  5
5F
330
1
100
AcDbSymbolTableRecord
100
AcDbBlockTableRecord
  2
SE
340
0
102
{BLKREFS
331
60
102
}
 70
     0
280
     1
281
     0
  0
BLOCK_RECORD
  5
104
330
1
100
AcDbSymbolTableRecord
100
AcDbBlockTableRecord
  2
_Oblique
340
0
 70
     0
280
     1
281
     0
  0
BLOCK_RECORD
  5
108
330
1
100
AcDbSymbolTableRecord
100
AcDbBlockTableRecord
  2
_Dot
340
0
 70
     0
280
     1
281
     0
  0
BLOCK_RECORD
  5
10D
330
1
100
AcDbSymbolTableRecord
100
AcDbBlockTableRecord
  2
_SE_OPEN
340
0
 70
     0
280
     1
281
     0
  0
BLOCK_RECORD
  5
116
330
1
100
AcDbSymbolTableRecord
100
AcDbBlockTableRecord
  2
DMBLK418
340
0
 70
     0
280
     1
281
     0
  0
BLOCK_RECORD
  5
120
330
1
100
AcDbSymbolTableRecord
100
AcDbBlockTableRecord
  2
DMBLK419
340
0
 70
     0
280
     1
281
     0
  0
BLOCK_RECORD
  5
128
330
1
100
AcDbSymbolTableRecord
100
AcDbBlockTableRecord
  2
DMBLK420
340
0
 70
     0
280
     1
281
     0
  0
BLOCK_RECORD
  5
133
330
1
100
AcDbSymbolTableRecord
100
AcDbBlockTableRecord
  2
SE1
340
0
102
{BLKREFS
331
134
102
}
 70
     0
280
     1
281
     0
  0
ENDTAB
  0
ENDSEC
  0
SECTION
  2
BLOCKS
  0
BLOCK
  5
20
330
1F
100
AcDbEntity
  8
0
100
AcDbBlockBegin
  2
*Model_Space
 70
     0
 10
0.0
 20
0.0
 30
0.0
  3
*Model_Space
  1

  0
ENDBLK
  5
21
330
1F
100
AcDbEntity
  8
0
100
AcDbBlockEnd
  0
BLOCK
  5
1C
330
1B
100
AcDbEntity
 67
     1
  8
0
100
AcDbBlockBegin
  2
*Paper_Space
 70
     0
 10
0.0
 20
0.0
 30
0.0
  3
*Paper_Space
  1

  0
ENDBLK
  5
1D
330
1B
100
AcDbEntity
 67
     1
  8
0
100
AcDbBlockEnd
  0
BLOCK
  5
101
330
5F
100
AcDbEntity
  8
0
100
AcDbBlockBegin
  2
SE
 70
     0
 10
0.0
 20
0.0
 30
0.0
  3
SE
  1

  0
HATCH
  5
62
330
5F
100
AcDbEntity
  8
DV1_Füllung
  6
Continuous
 62
     7
100
AcDbHatch
 10
0.0
 20
0.0
 30
0.0
210
0.0
220
0.0
230
1.0
  2
SOLID
 70
     1
 71
     0
 91
        1
 92
        1
 93
       67
 72
     2
 10
75.45436617777551
 20
174.3553621910793
 40
11.29528702178934
 50
232.3484444615629
 51
269.9998486943615
 73
     0
 72
     2
 10
75.45430613500476
 20
174.3553621910785
 40
11.2952870217907
 50
270.0001532636344
 51
307.6515555384316
 73
     0
 72
     2
 10
82.04869173965518
 20
182.9024260366356
 40
0.4999999999985146
 50
307.6515555384501
 51
380.0000000000105
 73
     0
 72
     1
 10
82.5185380500467
 20
182.7314159649732
 11
80.6478074877987
 21
177.5916259873107
 72
     2
 10
80.17796117740622
 20
177.7626360589734
 40
0.4999999999995162
 50
20.0000000000068
 51
90.01258713125536
 73
     0
 72
     1
 10
80.17785133396521
 20
177.2626360710395
 11
78.56612231831696
 21
177.2629901467703
 72
     2
 10
78.55437374781421
 20
176.6631051936882
 40
0.5999999882027063
 50
88.87802243136599
 51
90.00000328015852
 73
     1
 72
     2
 10
78.55428226351829
 20
176.6631021877855
 40
0.6000030010745527
 50
89.99126721705747
 51
269.9844737305907
 73
     1
 72
     1
 10
78.55411967199399
 20
176.0630992087409
 11
80.35510603448529
 21
176.0626111735088
 72
     2
 10
80.35497055188017
 20
175.562646817857
 40
0.4999643740086429
 50
270.0155262694121
 51
389.4261894141666
 73
     0
 72
     1
 10
80.79043418811139
 20
175.3170133575994
 11
80.30403319207166
 21
174.4744699132214
 72
     2
 10
80.82365956497445
 20
174.174489193696
 40
0.5999999995858931
 50
150.0021259309571
 51
329.4653160855416
 73
     1
 72
     1
 10
81.34045262361808
 20
173.8696532803905
 11
82.02809968208408
 21
175.0606942731414
 72
     2
 10
81.85489455222323
 20
175.1606941880914
 40
0.2000000000003172
 50
330.0000281343546
 51
360.0
 73
     1
 72
     1
 10
82.05489455222353
 20
175.1606941880914
 11
82.05489455222342
 21
177.8608371534729
 72
     2
 10
82.55489455222359
 20
177.8608371534728
 40
0.500000000000167
 50
180.0000000000032
 51
199.9999999998367
 73
     0
 72
     1
 10
82.08504824182998
 20
178.0318472251344
 11
82.99569676058383
 21
180.5338334674932
 72
     2
 10
83.93538938137829
 20
180.1918133241675
 40
1.000000000008058
 50
199.9999999998355
 51
325.4653074897847
 73
     0
 72
     1
 10
84.75917246081053
 20
180.758718464431
 11
85.00431573793291
 21
180.3870141611923
 72
     2
 10
84.15882951128711
 20
179.8530169322167
 40
0.9999999999995511
 50
327.7240685187358
 51
332.6498760123716
 73
     0
 72
     2
 10
75.45432073414953
 20
175.3506370093114
 40
10.7999947970106
 50
332.6498760123723
 51
394.9268929999874
 73
     0
 72
     2
 10
83.81712974780913
 20
169.5108231936883
 40
0.5999947970162156
 50
34.9268929999871
 51
134.6358519358689
 73
     0
 72
     1
 10
83.3955743306329
 20
169.0838749688461
 11
82.49512834716022
 21
169.9842997874522
 72
     2
 10
82.35370807517411
 20
169.8428773469724
 40
0.1999999999997303
 50
45.00043927431295
 51
90.0
 73
     1
 72
     1
 10
82.35370807517411
 20
170.0428773469721
 11
81.46379696176103
 21
170.0428773469724
 72
     2
 10
81.46379696176082
 20
169.7428773469724
 40
0.299999999999967
 50
89.99999999995929
 51
224.9985362155205
 73
     1
 72
     1
 10
81.25165950795487
 20
169.530750732205
 11
81.64892397350448
 21
169.1334659676234
 72
     2
 10
81.3660797478099
 20
168.8506361936883
 40
0.3999919212095952
 50
315.0014637844787
 51
404.9985362156019
 73
     0
 72
     1
 10
81.64892397350405
 20
168.5678064197527
 11
81.04508556475356
 21
167.9639371566588
 72
     2
 10
81.25432474780942
 20
167.7489511936884
 40
0.3000000000003137
 50
134.2238883075762
 51
180.5124707396951
 73
     1
 72
     1
 10
80.95433674780911
 20
167.7462679389474
 11
80.95433674780912
 21
163.9452756841862
 72
     2
 10
81.55431274780928
 20
163.9506421936873
 40
0.6000000000003561
 50
180.5124707415057
 51
359.998166144628
 73
     1
 72
     1
 10
82.1543127475023
 20
163.9506229895988
 11
82.15434874780931
 21
165.0754026841974
 72
     2
 10
82.75432474780925
 20
165.0807691936884
 40
0.6000000000000437
 50
179.4875292594548
 51
234.5941679637706
 73
     0
 72
     2
 10
75.45433556497034
 20
175.3506361936884
 40
12.00000040743075
 50
305.4058366394434
 51
594.5941679637713
 73
     1
 72
     2
 10
68.15434756497012
 20
165.0807691936881
 40
0.5999997221363922
 50
305.4058320362307
 51
360.5124707415207
 73
     0
 72
     1
 10
68.75432328711744
 20
165.0754026866722
 11
68.75435956558506
 21
163.9506229896008
 72
     2
 10
69.35435956497032
 20
163.9506421936893
 40
0.5999999996926036
 50
180.001833855373
 51
359.487529260894
 73
     1
 72
     1
 10
69.95433556466297
 20
163.9452756842162
 11
69.95433556497049
 21
167.7462679389631
 72
     2
 10
69.65434756497018
 20
167.7489511936887
 40
0.3000000000001758
 50
359.4875292632631
 51
405.7761116949019
 73
     1
 72
     1
 10
69.86358674801666
 20
167.963937156668
 11
69.25974833927522
 21
168.5678064197517
 72
     2
 10
69.54259256497014
 20
168.8506361936885
 40
0.3999919212110144
 50
135.0014637843521
 51
224.998536215635
 73
     0
 72
     1
 10
69.25974833927515
 20
169.1334659676252
 11
69.65701280482433
 21
169.5307507322043
 72
     2
 10
69.44487535101834
 20
169.7428773469724
 40
0.3000000000004433
 50
315.001463784397
 51
450.0000000000136
 73
     1
 72
     1
 10
69.44487535101827
 20
170.0428773469729
 11
68.55496423760614
 21
170.0428773469721
 72
     2
 10
68.55496423760616
 20
169.8428773469722
 40
0.199999999999978
 50
90.0
 51
134.9995607257418
 73
     1
 72
     1
 10
68.41354396561975
 20
169.984299787452
 11
67.51310163776714
 21
169.0838712664845
 72
     2
 10
67.09154256497024
 20
169.5108231936883
 40
0.6000000000003635
 50
45.36414806251723
 51
145.0731070000143
 73
     0
 72
     2
 10
75.45435157863028
 20
175.3506370093114
 40
10.80000000000504
 50
145.073107000014
 51
207.3501239876257
 73
     0
 72
     2
 10
66.74984280149226
 20
179.8530169322165
 40
0.9999999999993363
 50
207.350123987629
 51
212.2759314812544
 73
     0
 72
     1
 10
65.90435657484726
 20
180.3870141611914
 11
66.14949985196992
 21
180.7587184644306
 72
     2
 10
66.97328293140131
 20
180.1918133241677
 40
1.000000000007727
 50
214.5346925102143
 51
339.9999999999962
 73
     0
 72
     1
 10
67.91297555219445
 20
180.5338334674961
 11
68.82362407094939
 21
178.0318472251354
 72
     2
 10
68.35377776055645
 20
177.8608371534726
 40
0.4999999999999508
 50
340.000000000008
 51
360.0
 73
     0
 72
     1
 10
68.8537777605564
 20
177.8608371534726
 11
68.8537777605564
 21
175.1606941880914
 72
     2
 10
69.05377776055637
 20
175.1606941880912
 40
0.199999999999978
 50
179.9999999999349
 51
209.999971865664
 73
     1
 72
     1
 10
68.88057263069585
 20
175.0606942731413
 11
69.56821968880439
 21
173.8696532801817
 72
     2
 10
70.08501274780737
 20
174.1744891936913
 40
0.5999999999990737
 50
210.5346839138095
 51
389.9978740690048
 73
     1
 72
     1
 10
70.6046391210682
 20
174.4744699134229
 11
70.11823811984883
 21
175.3170133548562
 72
     2
 10
70.5537017608992
 20
175.5626468178572
 40
0.4999643795539036
 50
150.5738105833325
 51
269.9844737305631
 73
     0
 72
     1
 10
70.55356627829234
 20
176.0626111790543
 11
72.35455264078499
 21
176.0630992129493
 72
     2
 10
72.35439004926131
 20
176.6631021877855
 40
0.6000029968661299
 50
270.0155262694598
 51
450.0087335871689
 73
     1
 72
     2
 10
72.35429856496516
 20
176.6631051936886
 40
0.5999999882019448
 50
89.99999752404992
 51
91.12197756705693
 73
     1
 72
     1
 10
72.34254999447894
 20
177.2629901467703
 11
70.73082097881418
 21
177.2626360710392
 72
     2
 10
70.73071113537316
 20
177.7626360589734
 40
0.4999999999998448
 50
89.98741286874464
 51
160.0000000000138
 73
     0
 72
     1
 10
70.26086482498032
 20
177.5916259873107
 11
68.39013426273276
 21
182.7314159649735
 72
     2
 10
68.8599805731242
 20
182.9024260366356
 40
0.4999999999983561
 50
160.0000000000112
 51
232.3484444615627
 73
     0
 97
        0
 75
     0
 76
     1
 98
        0
  0
HATCH
  5
63
330
5F
100
AcDbEntity
  8
DV1_Füllung
  6
Continuous
 62
     7
100
AcDbHatch
 10
0.0
 20
0.0
 30
0.0
210
0.0
220
0.0
230
1.0
  2
SOLID
 70
     1
 71
     0
 91
        1
 92
        1
 93
       24
 72
     1
 10
70.28044033645797
 20
172.350642193687
 11
73.90433615638969
 21
172.350642193687
 72
     1
 10
73.90433615638969
 20
172.350642193687
 11
74.17735499584334
 21
172.350642193687
 72
     1
 10
74.17735499584336
 20
172.350642193687
 11
74.27253420792366
 21
172.2147121916712
 72
     3
 10
74.16646819074566
 20
172.0632342206554
 11
-2.168404344971009E-15
 21
0.214222201011317
 40
0.7002075382097086
 50
35.00000000000605
 51
90.00000000000058
 73
     0
 72
     1
 10
74.31646819074565
 20
172.0632342206554
 11
74.31646819074565
 21
171.729426064505
 72
     1
 10
74.31646819074565
 20
171.729426064505
 11
76.59220412203373
 21
171.729426064505
 72
     1
 10
76.59220412203372
 20
171.729426064505
 11
76.59220412203373
 21
172.0632342284884
 72
     3
 10
76.74220412203374
 20
172.0632342206554
 11
-2.168404344971009E-16
 21
-0.2142222010113179
 40
0.7002075382097077
 50
89.99999999999991
 51
144.9999999999941
 73
     0
 72
     1
 10
76.63613810485576
 20
172.2147121916712
 11
76.73131731693603
 21
172.350642193687
 72
     1
 10
76.73131731693603
 20
172.350642193687
 11
77.00433615638968
 21
172.350642193687
 72
     1
 10
77.00433615638968
 20
172.350642193687
 11
80.6282319763214
 21
172.350642193687
 72
     1
 10
80.6282319763214
 20
172.350642193687
 11
79.4740786976778
 21
175.5216522653498
 72
     2
 10
79.00423238728484
 20
175.350642193687
 40
0.5000000000000022
 50
19.99999999999953
 51
90.0
 73
     1
 72
     1
 10
79.00423238728484
 20
175.850642193687
 11
76.36902396261058
 21
175.850642193687
 72
     3
 10
76.3690239626106
 20
175.350642193687
 11
1.084202172485504E-16
 21
0.5000000000000022
 40
0.3057306814586604
 50
0.0
 51
40.02986098536152
 73
     1
 72
     1
 10
76.22537752995333
 20
175.5216522653498
 11
76.26637237633072
 21
175.8900562940149
 72
     3
 10
76.46747738205092
 20
175.650642193687
 11
-2.168404344971009E-16
 21
-0.6999999999999992
 40
0.3057306814586611
 50
139.9701390146378
 51
180.0
 73
     0
 72
     1
 10
76.46747738205092
 20
176.350642193687
 11
74.4411949307285
 21
176.350642193687
 72
     3
 10
74.4411949307285
 20
175.650642193687
 11
1.517883041479706E-15
 21
0.7000000000000079
 40
0.3057306814586578
 50
0.0
 51
40.02986098535838
 73
     0
 72
     1
 10
74.64229993644868
 20
175.890056294015
 11
74.68329478282608
 21
175.5216522653498
 72
     3
 10
74.53964835016879
 20
175.350642193687
 11
2.168404344971009E-16
 21
-0.5000000000000004
 40
0.3057306814586597
 50
139.9701390146387
 51
180.0
 73
     1
 72
     1
 10
74.53964835016879
 20
175.850642193687
 11
71.90443992549453
 21
175.850642193687
 72
     2
 10
71.90443992549454
 20
175.350642193687
 40
0.5000000000000022
 50
90.0
 51
159.9999999999999
 73
     1
 72
     1
 10
71.43459361510159
 20
175.5216522653498
 11
70.28044033645797
 21
172.350642193687
 97
        0
 75
     0
 76
     1
 98
        0
  0
HATCH
  5
64
330
5F
100
AcDbEntity
  8
DV1_Füllung
  6
Continuous
 62
     7
100
AcDbHatch
 10
0.0
 20
0.0
 30
0.0
210
0.0
220
0.0
230
1.0
  2
SOLID
 70
     1
 71
     0
 91
        1
 92
        1
 93
        4
 72
     1
 10
74.31646819074565
 20
171.729426064505
 11
74.31646819074565
 21
169.350642193687
 72
     1
 10
74.31646819074565
 20
169.350642193687
 11
76.59220412203373
 21
169.350642193687
 72
     1
 10
76.59220412203373
 20
169.350642193687
 11
76.59220412203373
 21
171.729426064505
 72
     1
 10
76.59220412203373
 20
171.729426064505
 11
74.31646819074564
 21
171.729426064505
 97
        0
 75
     0
 76
     1
 98
        0
  0
HATCH
  5
65
330
5F
100
AcDbEntity
  8
DV1_Füllung
  6
Continuous
 62
     7
100
AcDbHatch
 10
0.0
 20
0.0
 30
0.0
210
0.0
220
0.0
230
1.0
  2
SOLID
 70
     1
 71
     0
 91
        1
 92
        1
 93
       10
 72
     1
 10
76.59220412203373
 20
169.350642193687
 11
74.31646819074565
 21
169.350642193687
 72
     1
 10
74.31646819074567
 20
169.350642193687
 11
74.31646819074565
 21
169.0632342206554
 72
     3
 10
74.16646819074566
 20
169.0632342206554
 11
0.0
 21
0.2142222010113174
 40
0.7002075382097097
 50
90.0
 51
145.0000000000043
 73
     0
 72
     1
 10
74.27253420792364
 20
168.9117562496396
 11
73.9043361563897
 21
168.3859149362551
 72
     1
 10
73.90433615638969
 20
168.3859149362551
 11
73.90433615638969
 21
166.350642193687
 72
     1
 10
73.90433615638969
 20
166.350642193687
 11
77.0043361563897
 21
166.350642193687
 72
     1
 10
77.0043361563897
 20
166.350642193687
 11
77.0043361563897
 21
168.385914936255
 72
     1
 10
77.0043361563897
 20
168.385914936255
 11
76.63613810485575
 21
168.9117562496396
 72
     3
 10
76.74220412203374
 20
169.0632342206554
 11
2.168404344971009E-16
 21
-0.2142222010113174
 40
0.7002075382097079
 50
34.99999999999567
 51
90.0000147247815
 73
     0
 72
     1
 10
76.59220412203373
 20
169.0632342592048
 11
76.59220412203373
 21
169.350642193687
 97
        0
 75
     0
 76
     1
 98
        0
  0
HATCH
  5
68
330
5F
100
AcDbEntity
  8
DV1_Füllung
  6
Continuous
 62
     7
100
AcDbHatch
 10
0.0
 20
0.0
 30
0.0
210
0.0
220
0.0
230
1.0
  2
SOLID
 70
     1
 71
     0
 91
        1
 92
        1
 93
        6
 72
     1
 10
76.3690239498011
 20
175.850642193687
 11
77.4543361563897
 21
175.850642193687
 72
     1
 10
77.45433615638969
 20
175.850642193687
 11
77.45433615638969
 21
176.350642193687
 72
     1
 10
77.45433615638969
 20
176.350642193687
 11
76.46747738205089
 21
176.350642193687
 72
     3
 10
76.46747738205092
 20
175.650642193687
 11
2.168404344971009E-16
 21
0.6999999999999992
 40
0.3057306814586611
 50
0.0
 51
40.02986098536218
 73
     1
 72
     1
 10
76.26637237633074
 20
175.890056294015
 11
76.22537752995332
 21
175.5216522653498
 72
     3
 10
76.3690239626106
 20
175.350642193687
 11
-1.084202172485504E-16
 21
-0.5000000000000022
 40
0.3057306814586604
 50
139.9701390146385
 51
180.0
 73
     0
 97
        0
 75
     0
 76
     1
 98
        0
  0
HATCH
  5
69
330
5F
100
AcDbEntity
  8
DV1_Füllung
  6
Continuous
 62
     7
100
AcDbHatch
 10
0.0
 20
0.0
 30
0.0
210
0.0
220
0.0
230
1.0
  2
SOLID
 70
     1
 71
     0
 91
        1
 92
        1
 93
        6
 72
     1
 10
73.4543361563897
 20
175.850642193687
 11
74.53964835016879
 21
175.850642193687
 72
     3
 10
74.53964835016879
 20
175.350642193687
 11
-2.168404344971009E-16
 21
0.5000000000000004
 40
0.3057306814586597
 50
0.0
 51
40.02986098536132
 73
     0
 72
     1
 10
74.68329478282607
 20
175.5216522653498
 11
74.64229993644868
 21
175.8900562940149
 72
     3
 10
74.4411949307285
 20
175.650642193687
 11
-1.517883041479706E-15
 21
-0.7000000000000079
 40
0.3057306814586578
 50
139.9701390146416
 51
180.0
 73
     1
 72
     1
 10
74.4411949307285
 20
176.350642193687
 11
73.4543361563897
 21
176.350642193687
 72
     1
 10
73.4543361563897
 20
176.350642193687
 11
73.4543361563897
 21
175.850642193687
 97
        0
 75
     0
 76
     1
 98
        0
  0
HATCH
  5
6A
330
5F
100
AcDbEntity
  8
DV1_Füllung
  6
Continuous
 62
     7
100
AcDbHatch
 10
0.0
 20
0.0
 30
0.0
210
0.0
220
0.0
230
1.0
  2
SOLID
 70
     1
 71
     0
 91
        1
 92
        1
 93
       24
 72
     1
 10
73.90433615638969
 20
172.350642193687
 11
70.05433615638968
 21
172.350642193687
 72
     1
 10
70.05433615638968
 20
172.350642193687
 11
70.05433615638968
 21
163.9902775391604
 72
     1
 10
70.05433615638968
 20
163.9902775391604
 11
70.0543361563897
 21
163.350642193687
 72
     1
 10
70.0543361563897
 20
163.350642193687
 11
73.88687347505929
 21
163.350642193687
 72
     1
 10
73.88687347505929
 20
163.350642193687
 11
73.8980383515449
 21
163.9902775391604
 72
     1
 10
73.8980383515449
 20
163.9902775391604
 11
73.9043285399875
 21
164.3506421936869
 72
     1
 10
73.9043285399875
 20
164.3506421936869
 11
77.00434377279188
 21
164.350642193687
 72
     1
 10
77.00434377279188
 20
164.350642193687
 11
77.01063396123449
 21
163.9902775391604
 72
     1
 10
77.01063396123449
 20
163.9902775391604
 11
77.02179883772011
 21
163.350642193687
 72
     1
 10
77.02179883772011
 20
163.350642193687
 11
80.85433615638969
 21
163.350642193687
 72
     1
 10
80.85433615638969
 20
163.350642193687
 11
80.85433615638969
 21
163.9902775391604
 72
     1
 10
80.85433615638969
 20
163.9902775391604
 11
80.8543361563897
 21
172.350642193687
 72
     1
 10
80.8543361563897
 20
172.350642193687
 11
77.0043361563897
 21
172.350642193687
 72
     1
 10
77.0043361563897
 20
172.350642193687
 11
77.0043361563897
 21
169.7405535050557
 72
     1
 10
77.0043361563897
 20
169.7405535050557
 11
76.63613810485575
 21
169.2147121916712
 72
     3
 10
76.74220412203374
 20
169.0632342206554
 11
-2.168404344971009E-16
 21
0.2142222010113174
 40
0.7002075382097079
 50
34.99999999999561
 51
145.0000000000043
 73
     1
 72
     1
 10
76.63613810485576
 20
168.9117562496396
 11
77.00433615638968
 21
168.385914936255
 72
     1
 10
77.00433615638968
 20
168.385914936255
 11
77.0043361563897
 21
166.350642193687
 72
     1
 10
77.0043361563897
 20
166.350642193687
 11
73.90433615638969
 21
166.350642193687
 72
     1
 10
73.90433615638969
 20
166.350642193687
 11
73.90433615638969
 21
168.3859149362551
 72
     1
 10
73.90433615638969
 20
168.3859149362551
 11
74.27253420792361
 21
168.9117562496396
 72
     3
 10
74.16646819074566
 20
169.0632342206554
 11
0.0
 21
-0.2142222010113174
 40
0.7002075382097097
 50
34.99999999999571
 51
145.0000000000043
 73
     1
 72
     1
 10
74.27253420792363
 20
169.2147121916712
 11
73.90433615638972
 21
169.7405535050557
 72
     1
 10
73.9043361563897
 20
169.7405535050557
 11
73.90433615638969
 21
172.350642193687
 97
        0
 75
     0
 76
     1
 98
        0
  0
HATCH
  5
6B
330
5F
100
AcDbEntity
  8
DV1_Füllung
  6
Continuous
 62
     7
100
AcDbHatch
 10
0.0
 20
0.0
 30
0.0
210
0.0
220
0.0
230
1.0
  2
SOLID
 70
     1
 71
     0
 91
        1
 92
        1
 93
       24
 72
     1
 10
73.90433615638969
 20
169.7405535050558
 11
73.90433615638969
 21
172.350642193687
 72
     1
 10
73.90433615638969
 20
172.350642193687
 11
70.05433615638968
 21
172.350642193687
 72
     1
 10
70.05433615638968
 20
172.350642193687
 11
70.05433615638968
 21
163.9902775391604
 72
     1
 10
70.05433615638968
 20
163.9902775391604
 11
70.0543361563897
 21
163.350642193687
 72
     1
 10
70.0543361563897
 20
163.350642193687
 11
73.88687347505929
 21
163.350642193687
 72
     1
 10
73.88687347505929
 20
163.350642193687
 11
73.8980383515449
 21
163.9902775391604
 72
     1
 10
73.8980383515449
 20
163.9902775391604
 11
73.9043285399875
 21
164.3506421936869
 72
     1
 10
73.9043285399875
 20
164.3506421936869
 11
77.00434377279188
 21
164.350642193687
 72
     1
 10
77.00434377279188
 20
164.350642193687
 11
77.01063396123449
 21
163.9902775391604
 72
     1
 10
77.01063396123449
 20
163.9902775391604
 11
77.02179883772011
 21
163.350642193687
 72
     1
 10
77.02179883772011
 20
163.350642193687
 11
80.85433615638969
 21
163.350642193687
 72
     1
 10
80.85433615638969
 20
163.350642193687
 11
80.85433615638969
 21
163.9902775391604
 72
     1
 10
80.85433615638969
 20
163.9902775391604
 11
80.8543361563897
 21
172.350642193687
 72
     1
 10
80.8543361563897
 20
172.350642193687
 11
77.0043361563897
 21
172.350642193687
 72
     1
 10
77.0043361563897
 20
172.350642193687
 11
77.0043361563897
 21
169.7405535050557
 72
     1
 10
77.0043361563897
 20
169.7405535050557
 11
76.63613810485575
 21
169.2147121916712
 72
     3
 10
76.74220412203374
 20
169.0632342206554
 11
-2.168404344971009E-16
 21
0.2142222010113174
 40
0.7002075382097079
 50
34.99999999999561
 51
145.0000000000043
 73
     1
 72
     1
 10
76.63613810485576
 20
168.9117562496396
 11
77.00433615638968
 21
168.385914936255
 72
     1
 10
77.00433615638968
 20
168.385914936255
 11
77.0043361563897
 21
166.350642193687
 72
     1
 10
77.0043361563897
 20
166.350642193687
 11
73.90433615638969
 21
166.350642193687
 72
     1
 10
73.90433615638969
 20
166.350642193687
 11
73.90433615638969
 21
168.3859149362551
 72
     1
 10
73.90433615638969
 20
168.3859149362551
 11
74.27253420792361
 21
168.9117562496396
 72
     3
 10
74.16646819074566
 20
169.0632342206554
 11
0.0
 21
-0.2142222010113174
 40
0.7002075382097097
 50
34.99999999999571
 51
145.0000000000043
 73
     1
 72
     1
 10
74.27253420792363
 20
169.2147121916712
 11
73.90433615638972
 21
169.7405535050557
 97
        0
 75
     0
 76
     1
 98
        0
  0
HATCH
  5
6C
330
5F
100
AcDbEntity
  8
DV1_Füllung
  6
Continuous
 62
     7
100
AcDbHatch
 10
0.0
 20
0.0
 30
0.0
210
0.0
220
0.0
230
1.0
  2
SOLID
 70
     1
 71
     0
 91
        1
 92
        1
 93
       24
 72
     1
 10
73.90433615638969
 20
169.7405535050558
 11
73.90433615638969
 21
172.350642193687
 72
     1
 10
73.90433615638969
 20
172.350642193687
 11
70.05433615638968
 21
172.350642193687
 72
     1
 10
70.05433615638968
 20
172.350642193687
 11
70.05433615638968
 21
163.9902775391604
 72
     1
 10
70.05433615638968
 20
163.9902775391604
 11
70.0543361563897
 21
163.350642193687
 72
     1
 10
70.0543361563897
 20
163.350642193687
 11
73.88687347505929
 21
163.350642193687
 72
     1
 10
73.88687347505929
 20
163.350642193687
 11
73.8980383515449
 21
163.9902775391604
 72
     1
 10
73.8980383515449
 20
163.9902775391604
 11
73.9043285399875
 21
164.3506421936869
 72
     1
 10
73.9043285399875
 20
164.3506421936869
 11
77.00434377279188
 21
164.350642193687
 72
     1
 10
77.00434377279188
 20
164.350642193687
 11
77.01063396123449
 21
163.9902775391604
 72
     1
 10
77.01063396123449
 20
163.9902775391604
 11
77.02179883772011
 21
163.350642193687
 72
     1
 10
77.02179883772011
 20
163.350642193687
 11
80.85433615638969
 21
163.350642193687
 72
     1
 10
80.85433615638969
 20
163.350642193687
 11
80.85433615638969
 21
163.9902775391604
 72
     1
 10
80.85433615638969
 20
163.9902775391604
 11
80.8543361563897
 21
172.350642193687
 72
     1
 10
80.8543361563897
 20
172.350642193687
 11
77.0043361563897
 21
172.350642193687
 72
     1
 10
77.0043361563897
 20
172.350642193687
 11
77.0043361563897
 21
169.7405535050557
 72
     1
 10
77.0043361563897
 20
169.7405535050557
 11
76.63613810485575
 21
169.2147121916712
 72
     3
 10
76.74220412203374
 20
169.0632342206554
 11
-2.168404344971009E-16
 21
0.2142222010113174
 40
0.7002075382097079
 50
34.99999999999561
 51
145.0000000000043
 73
     1
 72
     1
 10
76.63613810485576
 20
168.9117562496396
 11
77.00433615638968
 21
168.385914936255
 72
     1
 10
77.00433615638968
 20
168.385914936255
 11
77.0043361563897
 21
166.350642193687
 72
     1
 10
77.0043361563897
 20
166.350642193687
 11
73.90433615638969
 21
166.350642193687
 72
     1
 10
73.90433615638969
 20
166.350642193687
 11
73.90433615638969
 21
168.3859149362551
 72
     1
 10
73.90433615638969
 20
168.3859149362551
 11
74.27253420792361
 21
168.9117562496396
 72
     3
 10
74.16646819074566
 20
169.0632342206554
 11
0.0
 21
-0.2142222010113174
 40
0.7002075382097097
 50
34.99999999999571
 51
145.0000000000043
 73
     1
 72
     1
 10
74.27253420792363
 20
169.2147121916712
 11
73.90433615638972
 21
169.7405535050557
 97
        0
 75
     0
 76
     1
 98
        0
  0
HATCH
  5
6D
330
5F
100
AcDbEntity
  8
DV1_Füllung
  6
Continuous
 62
     7
100
AcDbHatch
 10
0.0
 20
0.0
 30
0.0
210
0.0
220
0.0
230
1.0
  2
SOLID
 70
     1
 71
     0
 91
        1
 92
        1
 93
        7
 72
     1
 10
73.90433615638969
 20
172.350642193687
 11
73.90433615638969
 21
169.7405535050557
 72
     1
 10
73.90433615638969
 20
169.7405535050557
 11
74.27253420792364
 21
169.2147121916712
 72
     3
 10
74.16646819074566
 20
169.0632342206554
 11
0.0
 21
0.2142222010113174
 40
0.7002075382097097
 50
34.99999999999569
 51
90.0
 73
     0
 72
     1
 10
74.31646819074565
 20
169.0632342206554
 11
74.31646819074565
 21
172.0632342206554
 72
     3
 10
74.16646819074566
 20
172.0632342206554
 11
2.168404344971009E-15
 21
-0.214222201011317
 40
0.7002075382097086
 50
89.99999999999942
 51
144.9999999999939
 73
     1
 72
     1
 10
74.27253420792364
 20
172.2147121916712
 11
74.17735499584337
 21
172.350642193687
 72
     1
 10
74.17735499584337
 20
172.350642193687
 11
73.90433615638973
 21
172.350642193687
 97
        0
 75
     0
 76
     1
 98
        0
  0
HATCH
  5
6E
330
5F
100
AcDbEntity
  8
DV1_Füllung
  6
Continuous
 62
     7
100
AcDbHatch
 10
0.0
 20
0.0
 30
0.0
210
0.0
220
0.0
230
1.0
  2
SOLID
 70
     1
 71
     0
 91
        1
 92
        1
 93
        9
 72
     1
 10
70.05433615638968
 20
163.9902775391604
 11
70.05433615638968
 21
169.350642193687
 72
     1
 10
70.05433615638968
 20
169.350642193687
 11
69.90433615638969
 21
169.350642193687
 72
     1
 10
69.90433615638969
 20
169.350642193687
 11
69.90433615638969
 21
167.9147996310048
 72
     2
 10
69.65434756497018
 20
167.7489511936887
 40
0.3000000000001758
 50
326.4387487031229
 51
360.5124707367369
 73
     0
 72
     1
 10
69.95433556497049
 20
167.7462679389631
 11
69.95433556497026
 21
163.9452756842134
 72
     2
 10
69.35435956497032
 20
163.9506421936893
 40
0.5999999996926036
 50
0.5124707391059629
 51
23.56205686009064
 73
     0
 72
     1
 10
69.90433615638968
 20
163.7107969341534
 11
69.90433615638969
 21
163.350642193687
 72
     1
 10
69.90433615638969
 20
163.350642193687
 11
70.0543361563897
 21
163.350642193687
 72
     1
 10
70.0543361563897
 20
163.350642193687
 11
70.0543361563897
 21
163.9902775391604
 97
        0
 75
     0
 76
     1
 98
        0
  0
HATCH
  5
6F
330
5F
100
AcDbEntity
  8
DV1_Füllung
  6
Continuous
 62
     7
100
AcDbHatch
 10
0.0
 20
0.0
 30
0.0
210
0.0
220
0.0
230
1.0
  2
SOLID
 70
     1
 71
     0
 91
        1
 92
        1
 93
        4
 72
     1
 10
70.0043361563897
 20
169.9183500188901
 11
70.0043361563897
 21
169.350642193687
 72
     1
 10
70.0043361563897
 20
169.350642193687
 11
70.0543361563897
 21
169.350642193687
 72
     1
 10
70.05433615638968
 20
169.350642193687
 11
70.05433615638968
 21
169.94722780366
 72
     2
 10
70.65433615638969
 20
168.850642193687
 40
1.25
 50
118.6854020141188
 51
121.3322514975943
 73
     1
 97
        0
 75
     0
 76
     1
 98
        0
  0
HATCH
  5
70
330
5F
100
AcDbEntity
  8
DV1_Füllung
  6
Continuous
 62
     7
100
AcDbHatch
 10
0.0
 20
0.0
 30
0.0
210
0.0
220
0.0
230
1.0
  2
SOLID
 70
     1
 71
     0
 91
        1
 92
        1
 93
        7
 72
     1
 10
76.59220412203373
 20
172.0632342206554
 11
76.59220412203373
 21
169.0632342206554
 72
     3
 10
76.74220412203374
 20
169.0632342206554
 11
2.168404344971009E-16
 21
-0.2142222010113174
 40
0.7002075382097079
 50
90.00001472478151
 51
145.0000000000044
 73
     0
 72
     1
 10
76.63613810485577
 20
169.2147121916712
 11
77.00433615638968
 21
169.7405535050557
 72
     1
 10
77.00433615638968
 20
169.7405535050557
 11
77.0043361563897
 21
172.350642193687
 72
     1
 10
77.0043361563897
 20
172.350642193687
 11
76.73131731693606
 21
172.350642193687
 72
     1
 10
76.73131731693606
 20
172.350642193687
 11
76.63613810485576
 21
172.2147121916712
 72
     3
 10
76.74220412203374
 20
172.0632342206554
 11
2.168404344971009E-16
 21
0.2142222010113179
 40
0.7002075382097077
 50
35.00000000000588
 51
90.00000000000006
 73
     1
 97
        0
 75
     0
 76
     1
 98
        0
  0
HATCH
  5
71
330
5F
100
AcDbEntity
  8
DV1_Füllung
  6
Continuous
 62
     7
100
AcDbHatch
 10
0.0
 20
0.0
 30
0.0
210
0.0
220
0.0
230
1.0
  2
SOLID
 70
     1
 71
     0
 91
        1
 92
        1
 93
        6
 72
     1
 10
73.88687347505929
 20
163.350642193687
 11
77.02179883772011
 21
163.350642193687
 72
     1
 10
77.02179883772011
 20
163.350642193687
 11
77.01063396123449
 21
163.9902775391604
 72
     1
 10
77.01063396123449
 20
163.9902775391604
 11
77.00434377279188
 21
164.3506421936869
 72
     1
 10
77.00434377279188
 20
164.3506421936869
 11
73.90432853998749
 21
164.350642193687
 72
     1
 10
73.90432853998749
 20
164.350642193687
 11
73.8980383515449
 21
163.9902775391604
 72
     1
 10
73.8980383515449
 20
163.9902775391604
 11
73.88687347505928
 21
163.350642193687
 97
        0
 75
     0
 76
     1
 98
        0
  0
HATCH
  5
72
330
5F
100
AcDbEntity
  8
DV1_Füllung
  6
Continuous
 62
     7
100
AcDbHatch
 10
0.0
 20
0.0
 30
0.0
210
0.0
220
0.0
230
1.0
  2
SOLID
 70
     1
 71
     0
 91
        1
 92
        1
 93
        9
 72
     1
 10
80.8543361563897
 20
169.350642193687
 11
80.8543361563897
 21
163.9902775391604
 72
     1
 10
80.8543361563897
 20
163.9902775391604
 11
80.85433615638969
 21
163.350642193687
 72
     1
 10
80.85433615638969
 20
163.350642193687
 11
81.0043361563897
 21
163.350642193687
 72
     1
 10
81.0043361563897
 20
163.350642193687
 11
81.0043361563897
 21
163.710796933382
 72
     2
 10
81.55431274780928
 20
163.9506421936873
 40
0.6000000000003561
 50
156.437943072576
 51
179.4875292584943
 73
     0
 72
     1
 10
80.95433674780911
 20
163.9452756841863
 11
80.95433674780911
 21
167.7462679389474
 72
     2
 10
81.25432474780942
 20
167.7489511936884
 40
0.3000000000003137
 50
179.4875292603049
 51
213.5612512968455
 73
     0
 72
     1
 10
81.0043361563897
 20
167.9147996310045
 11
81.0043361563897
 21
169.350642193687
 72
     1
 10
81.0043361563897
 20
169.350642193687
 11
80.8543361563897
 21
169.350642193687
 97
        0
 75
     0
 76
     1
 98
        0
  0
HATCH
  5
73
330
5F
100
AcDbEntity
  8
DV1_Füllung
  6
Continuous
 62
     7
100
AcDbHatch
 10
0.0
 20
0.0
 30
0.0
210
0.0
220
0.0
230
1.0
  2
SOLID
 70
     1
 71
     0
 91
        1
 92
        1
 93
        4
 72
     1
 10
80.8543361563897
 20
169.94722780366
 11
80.8543361563897
 21
169.350642193687
 72
     1
 10
80.8543361563897
 20
169.350642193687
 11
80.9043361563897
 21
169.350642193687
 72
     1
 10
80.9043361563897
 20
169.350642193687
 11
80.9043361563897
 21
169.9183500188901
 72
     2
 10
80.25433615638968
 20
168.850642193687
 40
1.25
 50
58.66774850240459
 51
61.31459798588065
 73
     1
 97
        0
 75
     0
 76
     1
 98
        0
  0
LINE
  5
75
330
5F
100
AcDbEntity
  8
D000121
  6
Continuous
 62
     7
100
AcDbLine
 10
80.8543361564
 20
172.3506421937
 30
0.0
 11
80.8543361564
 21
163.9902775392
 31
0.0
  0
LINE
  5
76
330
5F
100
AcDbEntity
  8
D000121
  6
Continuous
 62
     7
100
AcDbLine
 10
80.8543361564
 20
163.9902775392
 30
0.0
 11
80.8543361564
 21
163.3506421937
 31
0.0
  0
LINE
  5
77
330
5F
100
AcDbEntity
  8
D000121
  6
Continuous
 62
     7
100
AcDbLine
 10
73.90432854
 20
164.3506421937
 30
0.0
 11
77.0043437728
 21
164.3506421937
 31
0.0
  0
LINE
  5
78
330
5F
100
AcDbEntity
  8
D000121
  6
Continuous
 62
     7
100
AcDbLine
 10
77.0043361564
 20
166.3506421937
 30
0.0
 11
73.9043361564
 21
166.3506421937
 31
0.0
  0
LINE
  5
79
330
5F
100
AcDbEntity
  8
D000121
  6
Continuous
 62
     7
100
AcDbLine
 10
70.0543361564
 20
163.3506421937
 30
0.0
 11
70.0543361564
 21
163.9902775392
 31
0.0
  0
LINE
  5
7A
330
5F
100
AcDbEntity
  8
D000121
  6
Continuous
 62
     7
100
AcDbLine
 10
70.0543361564
 20
172.3506421937
 30
0.0
 11
70.0543361564
 21
163.9902775392
 31
0.0
  0
LINE
  5
7B
330
5F
100
AcDbEntity
  8
D000121
  6
Continuous
 62
     7
100
AcDbLine
 10
69.9043361564
 20
163.3506421937
 30
0.0
 11
70.0543361564
 21
163.3506421937
 31
0.0
  0
LINE
  5
7C
330
5F
100
AcDbEntity
  8
D000121
  6
Continuous
 62
     7
100
AcDbLine
 10
80.8543361564
 20
163.3506421937
 30
0.0
 11
81.0043361564
 21
163.3506421937
 31
0.0
  0
LINE
  5
7D
330
5F
100
AcDbEntity
  8
D000121
  6
Continuous
 62
     7
100
AcDbLine
 10
80.8543361564
 20
163.3506421937
 30
0.0
 11
77.0217988377
 21
163.3506421937
 31
0.0
  0
LINE
  5
7E
330
5F
100
AcDbEntity
  8
D000121
  6
Continuous
 62
     7
100
AcDbLine
 10
77.0217988377
 20
163.3506421937
 30
0.0
 11
73.8868734751
 21
163.3506421937
 31
0.0
  0
LINE
  5
7F
330
5F
100
AcDbEntity
  8
D000121
  6
Continuous
 62
     7
100
AcDbLine
 10
73.8868734751
 20
163.3506421937
 30
0.0
 11
70.0543361564
 21
163.3506421937
 31
0.0
  0
LINE
  5
80
330
5F
100
AcDbEntity
  8
D000121
  6
Continuous
 62
     7
100
AcDbLine
 10
73.9043361564
 20
172.3506421937
 30
0.0
 11
74.1773549958
 21
172.3506421937
 31
0.0
  0
LINE
  5
81
330
5F
100
AcDbEntity
  8
D000121
  6
Continuous
 62
     7
100
AcDbLine
 10
73.9043361564
 20
172.3506421937
 30
0.0
 11
70.0543361564
 21
172.3506421937
 31
0.0
  0
LINE
  5
82
330
5F
100
AcDbEntity
  8
D000121
  6
Continuous
 62
     7
100
AcDbLine
 10
74.2725342079
 20
169.2147121917
 30
0.0
 11
73.9043361564
 21
169.7405535051
 31
0.0
  0
LINE
  5
83
330
5F
100
AcDbEntity
  8
D000121
  6
Continuous
 62
     7
100
AcDbLine
 10
74.2725342079
 20
172.2147121917
 30
0.0
 11
74.1773549958
 21
172.3506421937
 31
0.0
  0
LINE
  5
84
330
5F
100
AcDbEntity
  8
D000121
  6
Continuous
 62
     7
100
AcDbLine
 10
73.9043361564
 20
168.3859149363
 30
0.0
 11
74.2725342079
 21
168.9117562496
 31
0.0
  0
ELLIPSE
  5
85
330
5F
100
AcDbEntity
  8
D000121
  6
Continuous
 62
     7
100
AcDbEllipse
 10
74.1664681907
 20
169.0632342207
 30
0.0
 11
0.0
 21
-0.2142222010113174
 31
0.0
210
0.0
220
0.0
230
1.0
 40
0.7002075382
 41
0.7853981633973683
 42
2.356194490192425
  0
ELLIPSE
  5
86
330
5F
100
AcDbEntity
  8
D000121
  6
Continuous
 62
     7
100
AcDbEllipse
 10
74.1664681907
 20
172.0632342207
 30
0.0
 11
2.168404344971009E-15
 21
-0.214222201011317
 31
0.0
210
0.0
220
0.0
230
1.0
 40
0.7002075382
 41
1.570796326794889
 42
2.356194490192232
  0
LINE
  5
87
330
5F
100
AcDbEntity
  8
D000121
  6
Continuous
 62
     7
100
AcDbLine
 10
73.9043361564
 20
169.7405535051
 30
0.0
 11
73.9043361564
 21
172.3506421937
 31
0.0
  0
LINE
  5
88
330
5F
100
AcDbEntity
  8
D000121
  6
Continuous
 62
     7
100
AcDbLine
 10
76.7313173169
 20
172.3506421937
 30
0.0
 11
77.0043361564
 21
172.3506421937
 31
0.0
  0
LINE
  5
89
330
5F
100
AcDbEntity
  8
D000121
  6
Continuous
 62
     7
100
AcDbLine
 10
80.8543361564
 20
172.3506421937
 30
0.0
 11
77.0043361564
 21
172.3506421937
 31
0.0
  0
LINE
  5
8A
330
5F
100
AcDbEntity
  8
D000121
  6
Continuous
 62
     7
100
AcDbLine
 10
77.0043361564
 20
169.7405535051
 30
0.0
 11
76.6361381049
 21
169.2147121917
 31
0.0
  0
LINE
  5
8B
330
5F
100
AcDbEntity
  8
D000121
  6
Continuous
 62
     7
100
AcDbLine
 10
76.7313173169
 20
172.3506421937
 30
0.0
 11
76.6361381049
 21
172.2147121917
 31
0.0
  0
LINE
  5
8C
330
5F
100
AcDbEntity
  8
D000121
  6
Continuous
 62
     7
100
AcDbLine
 10
76.6361381049
 20
168.9117562496
 30
0.0
 11
77.0043361564
 21
168.3859149363
 31
0.0
  0
ELLIPSE
  5
8D
330
5F
100
AcDbEntity
  8
D000121
  6
Continuous
 62
     7
100
AcDbEllipse
 10
76.742204122
 20
169.0632342207
 30
0.0
 11
-2.168404344971009E-16
 21
0.2142222010113174
 31
0.0
210
0.0
220
0.0
230
1.0
 40
0.7002075382
 41
0.7853981633973683
 42
2.356194490192424
  0
ELLIPSE
  5
8E
330
5F
100
AcDbEntity
  8
D000121
  6
Continuous
 62
     7
100
AcDbEllipse
 10
76.742204122
 20
172.0632342207
 30
0.0
 11
2.168404344971009E-16
 21
0.2142222010113179
 31
0.0
210
0.0
220
0.0
230
1.0
 40
0.7002075382
 41
0.7853981633975593
 42
1.570796326794897
  0
LINE
  5
8F
330
5F
100
AcDbEntity
  8
D000121
  6
Continuous
 62
     7
100
AcDbLine
 10
77.0043361564
 20
172.3506421937
 30
0.0
 11
77.0043361564
 21
169.7405535051
 31
0.0
  0
LINE
  5
90
330
5F
100
AcDbEntity
  8
D000121
  6
Continuous
 62
     7
100
AcDbLine
 10
77.0106339612
 20
163.9902775392
 30
0.0
 11
77.0043437728
 21
164.3506421937
 31
0.0
  0
LINE
  5
91
330
5F
100
AcDbEntity
  8
D000121
  6
Continuous
 62
     7
100
AcDbLine
 10
77.0043361564
 20
168.3859149363
 30
0.0
 11
77.0043361564
 21
166.3506421937
 31
0.0
  0
LINE
  5
92
330
5F
100
AcDbEntity
  8
D000121
  6
Continuous
 62
     7
100
AcDbLine
 10
73.9043361564
 20
166.3506421937
 30
0.0
 11
73.9043361564
 21
168.3859149363
 31
0.0
  0
LINE
  5
93
330
5F
100
AcDbEntity
  8
D000121
  6
Continuous
 62
     7
100
AcDbLine
 10
73.90432854
 20
164.3506421937
 30
0.0
 11
73.8980383515
 21
163.9902775392
 31
0.0
  0
LINE
  5
94
330
5F
100
AcDbEntity
  8
D000121
  6
Continuous
 62
     7
100
AcDbLine
 10
73.8980383515
 20
163.9902775392
 30
0.0
 11
73.8868734751
 21
163.3506421937
 31
0.0
  0
LINE
  5
95
330
5F
100
AcDbEntity
  8
D000121
  6
Continuous
 62
     7
100
AcDbLine
 10
77.0217988377
 20
163.3506421937
 30
0.0
 11
77.0106339612
 21
163.9902775392
 31
0.0
  0
LINE
  5
96
330
5F
100
AcDbEntity
  8
D000121
  6
Continuous
 62
     7
100
AcDbLine
 10
74.3164681907
 20
169.3506421937
 30
0.0
 11
76.592204122
 21
169.3506421937
 31
0.0
  0
LINE
  5
97
330
5F
100
AcDbEntity
  8
D000121
  6
Continuous
 62
     7
100
AcDbLine
 10
69.9043361564
 20
169.3506421937
 30
0.0
 11
70.0543361564
 21
169.3506421937
 31
0.0
  0
LINE
  5
98
330
5F
100
AcDbEntity
  8
D000121
  6
Continuous
 62
     7
100
AcDbLine
 10
80.8543361564
 20
169.3506421937
 30
0.0
 11
81.0043361564
 21
169.3506421937
 31
0.0
  0
LINE
  5
99
330
5F
100
AcDbEntity
  8
D000121
  6
Continuous
 62
     7
100
AcDbLine
 10
81.0043361564
 20
169.3506421937
 30
0.0
 11
81.0043361564
 21
167.914799631
 31
0.0
  0
LINE
  5
9A
330
5F
100
AcDbEntity
  8
D000121
  6
Continuous
 62
     7
100
AcDbLine
 10
81.0043361564
 20
163.7107969334
 30
0.0
 11
81.0043361564
 21
163.3506421937
 31
0.0
  0
LINE
  5
9B
330
5F
100
AcDbEntity
  8
D000121
  6
Continuous
 62
     7
100
AcDbLine
 10
69.9043361564
 20
169.3506421937
 30
0.0
 11
69.9043361564
 21
167.914799631
 31
0.0
  0
LINE
  5
9C
330
5F
100
AcDbEntity
  8
D000121
  6
Continuous
 62
     7
100
AcDbLine
 10
69.9043361564
 20
163.7107969334
 30
0.0
 11
69.9043361564
 21
163.3506421937
 31
0.0
  0
LINE
  5
9D
330
5F
100
AcDbEntity
  8
D000121
  6
Continuous
 62
     7
100
AcDbLine
 10
74.3164681907
 20
169.0632342207
 30
0.0
 11
74.3164681907
 21
172.0632342207
 31
0.0
  0
LINE
  5
9E
330
5F
100
AcDbEntity
  8
D000121
  6
Continuous
 62
     7
100
AcDbLine
 10
76.592204122
 20
172.0632342207
 30
0.0
 11
76.592204122
 21
169.0632342207
 31
0.0
  0
LINE
  5
A0
330
5F
100
AcDbEntity
  8
D000122
  6
Continuous
 62
     7
100
AcDbLine
 10
73.4543361564
 20
175.8506421937
 30
0.0
 11
73.4543361564
 21
176.3506421937
 31
0.0
  0
LINE
  5
A1
330
5F
100
AcDbEntity
  8
D000122
  6
Continuous
 62
     7
100
AcDbLine
 10
77.4543361564
 20
176.3506421937
 30
0.0
 11
77.4543361564
 21
175.8506421937
 31
0.0
  0
ELLIPSE
  5
A2
330
5F
100
AcDbEntity
  8
D000122
  6
Continuous
 62
     7
100
AcDbEllipse
 10
74.5396483502
 20
175.3506421937
 30
0.0
 11
2.168404344971009E-16
 21
-0.5000000000000004
 31
0.0
210
0.0
220
0.0
230
1.0
 40
0.3057306815
 41
1.919862177193763
 42
3.141592653589793
  0
LINE
  5
A3
330
5F
100
AcDbEntity
  8
D000122
  6
Continuous
 62
     7
100
AcDbLine
 10
71.9044399255
 20
175.8506421937
 30
0.0
 11
74.5396483502
 21
175.8506421937
 31
0.0
  0
ARC
  5
A4
330
5F
100
AcDbEntity
  8
D000122
  6
Continuous
 62
     7
100
AcDbCircle
 10
71.9044399255
 20
175.3506421937
 30
0.0
 40
0.5000000000000022
100
AcDbArc
 50
90.0
 51
160.0
  0
LINE
  5
A5
330
5F
100
AcDbEntity
  8
D000122
  6
Continuous
 62
     7
100
AcDbLine
 10
74.6422999364
 20
175.890056294
 30
0.0
 11
74.6832947828
 21
175.5216522653
 31
0.0
  0
ELLIPSE
  5
A6
330
5F
100
AcDbEntity
  8
D000122
  6
Continuous
 62
     7
100
AcDbEllipse
 10
74.4411949307
 20
175.6506421937
 30
0.0
 11
-1.517883041479706E-15
 21
-0.7000000000000079
 31
0.0
210
0.0
220
0.0
230
1.0
 40
0.3057306815
 41
1.919862177193794
 42
3.141592653589793
  0
LINE
  5
A7
330
5F
100
AcDbEntity
  8
D000122
  6
Continuous
 62
     7
100
AcDbLine
 10
74.4411949307
 20
176.3506421937
 30
0.0
 11
73.4543361564
 21
176.3506421937
 31
0.0
  0
LINE
  5
A8
330
5F
100
AcDbEntity
  8
D000122
  6
Continuous
 62
     7
100
AcDbLine
 10
74.4411949307
 20
176.3506421937
 30
0.0
 11
76.4674773821
 21
176.3506421937
 31
0.0
  0
LINE
  5
A9
330
5F
100
AcDbEntity
  8
D000122
  6
Continuous
 62
     7
100
AcDbLine
 10
77.4543361564
 20
176.3506421937
 30
0.0
 11
76.4674773821
 21
176.3506421937
 31
0.0
  0
LINE
  5
AA
330
5F
100
AcDbEntity
  8
D000122
  6
Continuous
 62
     7
100
AcDbLine
 10
76.3690239626
 20
175.8506421937
 30
0.0
 11
79.0042323873
 21
175.8506421937
 31
0.0
  0
LINE
  5
AB
330
5F
100
AcDbEntity
  8
D000122
  6
Continuous
 62
     7
100
AcDbLine
 10
80.9043361564
 20
169.3506421937
 30
0.0
 11
80.9043361564
 21
169.9183500189
 31
0.0
  0
ARC
  5
AC
330
5F
100
AcDbEntity
  8
D000122
  6
Continuous
 62
     7
100
AcDbCircle
 10
80.2543361564
 20
168.8506421937
 30
0.0
 40
1.25
100
AcDbArc
 50
58.6677485024
 51
61.3145979859
  0
LINE
  5
AD
330
5F
100
AcDbEntity
  8
D000122
  6
Continuous
 62
     7
100
AcDbLine
 10
76.592204122
 20
171.7294260645
 30
0.0
 11
74.3164681907
 21
171.7294260645
 31
0.0
  0
ARC
  5
AE
330
5F
100
AcDbEntity
  8
D000122
  6
Continuous
 62
     7
100
AcDbCircle
 10
70.6543361564
 20
168.8506421937
 30
0.0
 40
1.25
100
AcDbArc
 50
118.6854020141
 51
121.3322514976
  0
LINE
  5
AF
330
5F
100
AcDbEntity
  8
D000122
  6
Continuous
 62
     7
100
AcDbLine
 10
70.0043361564
 20
169.9183500189
 30
0.0
 11
70.0043361564
 21
169.3506421937
 31
0.0
  0
ELLIPSE
  5
B0
330
5F
100
AcDbEntity
  8
D000122
  6
Continuous
 62
     7
100
AcDbEllipse
 10
76.3690239626
 20
175.3506421937
 30
0.0
 11
1.084202172485504E-16
 21
0.5000000000000022
 31
0.0
210
0.0
220
0.0
230
1.0
 40
0.3057306815
 41
0.0
 42
1.221730476396032
  0
ARC
  5
B1
330
5F
100
AcDbEntity
  8
D000122
  6
Continuous
 62
     7
100
AcDbCircle
 10
79.0042323873
 20
175.3506421937
 30
0.0
 40
0.5000000000000022
100
AcDbArc
 50
20.0
 51
90.0
  0
LINE
  5
B2
330
5F
100
AcDbEntity
  8
D000122
  6
Continuous
 62
     7
100
AcDbLine
 10
76.2663723763
 20
175.890056294
 30
0.0
 11
76.22537753
 21
175.5216522653
 31
0.0
  0
LINE
  5
B3
330
5F
100
AcDbEntity
  8
D000122
  6
Continuous
 62
     7
100
AcDbLine
 10
71.4345936151
 20
175.5216522653
 30
0.0
 11
70.2804403365
 21
172.3506421937
 31
0.0
  0
LINE
  5
B4
330
5F
100
AcDbEntity
  8
D000122
  6
Continuous
 62
     7
100
AcDbLine
 10
80.6282319763
 20
172.3506421937
 30
0.0
 11
79.4740786977
 21
175.5216522653
 31
0.0
  0
ARC
  5
B5
330
5F
100
AcDbEntity
  8
D000122
  6
Continuous
 62
     7
100
AcDbCircle
 10
70.6543361564
 20
168.8506421937
 30
0.0
 40
1.25
100
AcDbArc
 50
121.3322514976
 51
136.8374222197
  0
ARC
  5
B6
330
5F
100
AcDbEntity
  8
D000122
  6
Continuous
 62
     7
100
AcDbCircle
 10
70.6543361564
 20
168.8506421937
 30
0.0
 40
1.25
100
AcDbArc
 50
153.3964997245
 51
206.6047327852
  0
ARC
  5
B7
330
5F
100
AcDbEntity
  8
D000122
  6
Continuous
 62
     7
100
AcDbCircle
 10
80.2543361564
 20
168.8506421937
 30
0.0
 40
1.25
100
AcDbArc
 50
333.3952672148
 51
26.6035002754
  0
ARC
  5
B8
330
5F
100
AcDbEntity
  8
D000122
  6
Continuous
 62
     7
100
AcDbCircle
 10
80.2543361564
 20
168.8506421937
 30
0.0
 40
1.25
100
AcDbArc
 50
43.1625777803
 51
58.6677485024
  0
ELLIPSE
  5
B9
330
5F
100
AcDbEntity
  8
D000122
  6
Continuous
 62
     7
100
AcDbEllipse
 10
76.4674773821
 20
175.6506421937
 30
0.0
 11
2.168404344971009E-16
 21
0.6999999999999993
 31
0.0
210
0.0
220
0.0
230
1.0
 40
0.3057306815
 41
0.0
 42
1.221730476396039
  0
ARC
  5
BB
330
5F
100
AcDbEntity
  8
D000134
  6
Continuous
 62
     7
100
AcDbCircle
 10
75.454335565
 20
175.3506361937
 30
0.0
 40
12.00000040743075
100
AcDbArc
 50
305.4058366394
 51
234.5941679638
  0
ARC
  5
BC
330
5F
100
AcDbEntity
  8
D000134
  6
Continuous
 62
     7
100
AcDbCircle
 10
82.7543247478
 20
165.0807691937
 30
0.0
 40
0.6000000000000437
100
AcDbArc
 50
125.4058320362
 51
180.5124707405
  0
LINE
  5
BD
330
5F
100
AcDbEntity
  8
D000134
  6
Continuous
 62
     7
100
AcDbLine
 10
82.1543127475
 20
163.9506229896
 30
0.0
 11
82.1543487478
 21
165.0754026842
 31
0.0
  0
ARC
  5
BE
330
5F
100
AcDbEntity
  8
D000134
  6
Continuous
 62
     7
100
AcDbCircle
 10
81.5543127478
 20
163.9506421937
 30
0.0
 40
0.6000000000003561
100
AcDbArc
 50
180.5124707415
 51
359.9981661446
  0
LINE
  5
BF
330
5F
100
AcDbEntity
  8
D000134
  6
Continuous
 62
     7
100
AcDbLine
 10
80.9543367478
 20
167.7462679389
 30
0.0
 11
80.9543367478
 21
163.9452756842
 31
0.0
  0
ARC
  5
C0
330
5F
100
AcDbEntity
  8
D000134
  6
Continuous
 62
     7
100
AcDbCircle
 10
81.2543247478
 20
167.7489511937
 30
0.0
 40
0.3000000000003137
100
AcDbArc
 50
134.2238883076
 51
180.5124707397
  0
LINE
  5
C1
330
5F
100
AcDbEntity
  8
D000134
  6
Continuous
 62
     7
100
AcDbLine
 10
81.6489296862
 20
168.5678007073
 30
0.0
 11
81.0450855648
 21
167.9639371567
 31
0.0
  0
ARC
  5
C2
330
5F
100
AcDbEntity
  8
D000134
  6
Continuous
 62
     7
100
AcDbCircle
 10
81.3660797478
 20
168.8506361937
 30
0.0
 40
0.3999919212095952
100
AcDbArc
 50
315.0014637844
 51
44.9985362155
  0
LINE
  5
C3
330
5F
100
AcDbEntity
  8
D000134
  6
Continuous
 62
     7
100
AcDbLine
 10
81.251659508
 20
169.5307507322
 30
0.0
 11
81.6489239735
 21
169.1334659676
 31
0.0
  0
ARC
  5
C4
330
5F
100
AcDbEntity
  8
D000134
  6
Continuous
 62
     7
100
AcDbCircle
 10
81.4637969618
 20
169.742877347
 30
0.0
 40
0.299999999999967
100
AcDbArc
 50
90.0
 51
224.9985362155
  0
LINE
  5
C5
330
5F
100
AcDbEntity
  8
D000134
  6
Continuous
 62
     7
100
AcDbLine
 10
82.3537080752
 20
170.042877347
 30
0.0
 11
81.4637969618
 21
170.042877347
 31
0.0
  0
ARC
  5
C6
330
5F
100
AcDbEntity
  8
D000134
  6
Continuous
 62
     7
100
AcDbCircle
 10
82.3537080752
 20
169.842877347
 30
0.0
 40
0.1999999999997303
100
AcDbArc
 50
45.0004392743
 51
90.0
  0
LINE
  5
C7
330
5F
100
AcDbEntity
  8
D000134
  6
Continuous
 62
     7
100
AcDbLine
 10
83.395570675
 20
169.0838712665
 30
0.0
 11
82.4951283472
 21
169.9842997875
 31
0.0
  0
ARC
  5
C8
330
5F
100
AcDbEntity
  8
D000134
  6
Continuous
 62
     7
100
AcDbCircle
 10
83.8171297478
 20
169.5108231937
 30
0.0
 40
0.5999947970162156
100
AcDbArc
 50
225.3641480641
 51
325.073107
  0
ARC
  5
C9
330
5F
100
AcDbEntity
  8
D000134
  6
Continuous
 62
     7
100
AcDbCircle
 10
75.4543207341
 20
175.3506370093
 30
0.0
 40
10.7999947970106
100
AcDbArc
 50
325.073107
 51
27.3501239876
  0
ARC
  5
CA
330
5F
100
AcDbEntity
  8
D000134
  6
Continuous
 62
     7
100
AcDbCircle
 10
84.1588295113
 20
179.8530169322
 30
0.0
 40
0.9999999999995511
100
AcDbArc
 50
27.3501239876
 51
32.2759314813
  0
ARC
  5
CB
330
5F
100
AcDbEntity
  8
D000134
  6
Continuous
 62
     7
100
AcDbCircle
 10
75.454306135
 20
174.3553621911
 30
0.0
 40
11.29528702178913
100
AcDbArc
 50
32.2759314813
 51
34.5346925102
  0
ARC
  5
CC
330
5F
100
AcDbEntity
  8
D000134
  6
Continuous
 62
     7
100
AcDbCircle
 10
83.9353893814
 20
180.1918133242
 30
0.0
 40
1.000000000008058
100
AcDbArc
 50
34.5346925102
 51
160.0000000002
  0
LINE
  5
CD
330
5F
100
AcDbEntity
  8
D000134
  6
Continuous
 62
     7
100
AcDbLine
 10
82.0850482418
 20
178.0318472251
 30
0.0
 11
82.9956967606
 21
180.5338334675
 31
0.0
  0
ARC
  5
CE
330
5F
100
AcDbEntity
  8
D000134
  6
Continuous
 62
     7
100
AcDbCircle
 10
82.5548945522
 20
177.8608371535
 30
0.0
 40
0.500000000000167
100
AcDbArc
 50
160.0000000002
 51
180.0
  0
LINE
  5
CF
330
5F
100
AcDbEntity
  8
D000134
  6
Continuous
 62
     7
100
AcDbLine
 10
82.0548945522
 20
175.1606941881
 30
0.0
 11
82.0548945522
 21
177.8608371535
 31
0.0
  0
ARC
  5
D0
330
5F
100
AcDbEntity
  8
D000134
  6
Continuous
 62
     7
100
AcDbCircle
 10
81.8548945522
 20
175.1606941881
 30
0.0
 40
0.2000000000003172
100
AcDbArc
 50
330.0000281344
 51
0.0
  0
LINE
  5
D1
330
5F
100
AcDbEntity
  8
D000134
  6
Continuous
 62
     7
100
AcDbLine
 10
81.340452624
 20
173.8696532802
 30
0.0
 11
82.0280996821
 21
175.0606942731
 31
0.0
  0
ARC
  5
D2
330
5F
100
AcDbEntity
  8
D000134
  6
Continuous
 62
     7
100
AcDbCircle
 10
80.823659565
 20
174.1744891937
 30
0.0
 40
0.5999999995858931
100
AcDbArc
 50
150.002125931
 51
329.4653160855
  0
LINE
  5
D3
330
5F
100
AcDbEntity
  8
D000134
  6
Continuous
 62
     7
100
AcDbLine
 10
80.7904341929
 20
175.3170133549
 30
0.0
 11
80.3040331921
 21
174.4744699132
 31
0.0
  0
ARC
  5
D4
330
5F
100
AcDbEntity
  8
D000134
  6
Continuous
 62
     7
100
AcDbCircle
 10
80.3549705519
 20
175.5626468179
 30
0.0
 40
0.4999643740086429
100
AcDbArc
 50
330.5738105858
 51
89.9844737306
  0
LINE
  5
D5
330
5F
100
AcDbEntity
  8
D000134
  6
Continuous
 62
     7
100
AcDbLine
 10
78.554119672
 20
176.0630992087
 30
0.0
 11
80.3551060345
 21
176.0626111735
 31
0.0
  0
ARC
  5
D6
330
5F
100
AcDbEntity
  8
D000134
  6
Continuous
 62
     7
100
AcDbCircle
 10
78.5542822635
 20
176.6631021878
 30
0.0
 40
0.6000030010745527
100
AcDbArc
 50
89.9912672171
 51
269.9844737306
  0
ARC
  5
D7
330
5F
100
AcDbEntity
  8
D000134
  6
Continuous
 62
     7
100
AcDbCircle
 10
78.5543737478
 20
176.6631051937
 30
0.0
 40
0.5999999882027063
100
AcDbArc
 50
88.8780224314
 51
90.0000032802
  0
LINE
  5
D8
330
5F
100
AcDbEntity
  8
D000134
  6
Continuous
 62
     7
100
AcDbLine
 10
80.177851334
 20
177.262636071
 30
0.0
 11
78.5661223183
 21
177.2629901468
 31
0.0
  0
ARC
  5
D9
330
5F
100
AcDbEntity
  8
D000134
  6
Continuous
 62
     7
100
AcDbCircle
 10
80.1779611774
 20
177.762636059
 30
0.0
 40
0.4999999999995162
100
AcDbArc
 50
269.9874128687
 51
340.0
  0
LINE
  5
DA
330
5F
100
AcDbEntity
  8
D000134
  6
Continuous
 62
     7
100
AcDbLine
 10
82.51853805
 20
182.731415965
 30
0.0
 11
80.6478074878
 21
177.5916259873
 31
0.0
  0
ARC
  5
DB
330
5F
100
AcDbEntity
  8
D000134
  6
Continuous
 62
     7
100
AcDbCircle
 10
82.0486917397
 20
182.9024260366
 30
0.0
 40
0.4999999999985146
100
AcDbArc
 50
340.0
 51
52.3484444615
  0
ARC
  5
DC
330
5F
100
AcDbEntity
  8
D000134
  6
Continuous
 62
     7
100
AcDbCircle
 10
75.454306135
 20
174.3553621911
 30
0.0
 40
11.2952870217907
100
AcDbArc
 50
52.3484444616
 51
89.9998467364
  0
ARC
  5
DD
330
5F
100
AcDbEntity
  8
D000134
  6
Continuous
 62
     7
100
AcDbCircle
 10
75.4543661778
 20
174.3553621911
 30
0.0
 40
11.29528702178934
100
AcDbArc
 50
90.0001513056
 51
127.6515555384
  0
ARC
  5
DE
330
5F
100
AcDbEntity
  8
D000134
  6
Continuous
 62
     7
100
AcDbCircle
 10
68.8599805731
 20
182.9024260366
 30
0.0
 40
0.4999999999983561
100
AcDbArc
 50
127.6515555384
 51
200.0
  0
LINE
  5
DF
330
5F
100
AcDbEntity
  8
D000134
  6
Continuous
 62
     7
100
AcDbLine
 10
70.260864825
 20
177.5916259873
 30
0.0
 11
68.3901342627
 21
182.731415965
 31
0.0
  0
ARC
  5
E0
330
5F
100
AcDbEntity
  8
D000134
  6
Continuous
 62
     7
100
AcDbCircle
 10
70.7307111354
 20
177.762636059
 30
0.0
 40
0.4999999999998448
100
AcDbArc
 50
200.0
 51
270.0125871313
  0
LINE
  5
E1
330
5F
100
AcDbEntity
  8
D000134
  6
Continuous
 62
     7
100
AcDbLine
 10
72.3425499945
 20
177.2629901468
 30
0.0
 11
70.7308209788
 21
177.262636071
 31
0.0
  0
ARC
  5
E2
330
5F
100
AcDbEntity
  8
D000134
  6
Continuous
 62
     7
100
AcDbCircle
 10
72.354298565
 20
176.6631051937
 30
0.0
 40
0.5999999882019448
100
AcDbArc
 50
89.999997524
 51
91.1219775671
  0
ARC
  5
E3
330
5F
100
AcDbEntity
  8
D000134
  6
Continuous
 62
     7
100
AcDbCircle
 10
72.3543900493
 20
176.6631021878
 30
0.0
 40
0.6000029968661299
100
AcDbArc
 50
270.0155262695
 51
90.0087335872
  0
LINE
  5
E4
330
5F
100
AcDbEntity
  8
D000134
  6
Continuous
 62
     7
100
AcDbLine
 10
70.5535662783
 20
176.0626111791
 30
0.0
 11
72.3545526408
 21
176.0630992129
 31
0.0
  0
ARC
  5
E5
330
5F
100
AcDbEntity
  8
D000134
  6
Continuous
 62
     7
100
AcDbCircle
 10
70.5537017609
 20
175.5626468179
 30
0.0
 40
0.4999643795539036
100
AcDbArc
 50
90.0155262694
 51
209.4261894167
  0
LINE
  5
E6
330
5F
100
AcDbEntity
  8
D000134
  6
Continuous
 62
     7
100
AcDbLine
 10
70.6046391211
 20
174.4744699134
 30
0.0
 11
70.1182381198
 21
175.3170133549
 31
0.0
  0
ARC
  5
E7
330
5F
100
AcDbEntity
  8
D000134
  6
Continuous
 62
     7
100
AcDbCircle
 10
70.0850127478
 20
174.1744891937
 30
0.0
 40
0.5999999999990737
100
AcDbArc
 50
210.5346839138
 51
29.997874069
  0
LINE
  5
E8
330
5F
100
AcDbEntity
  8
D000134
  6
Continuous
 62
     7
100
AcDbLine
 10
68.8805726307
 20
175.0606942731
 30
0.0
 11
69.5682196888
 21
173.8696532802
 31
0.0
  0
ARC
  5
E9
330
5F
100
AcDbEntity
  8
D000134
  6
Continuous
 62
     7
100
AcDbCircle
 10
69.0537777606
 20
175.1606941881
 30
0.0
 40
0.199999999999978
100
AcDbArc
 50
179.9999999999
 51
209.9999718657
  0
LINE
  5
EA
330
5F
100
AcDbEntity
  8
D000134
  6
Continuous
 62
     7
100
AcDbLine
 10
68.8537777606
 20
177.8608371535
 30
0.0
 11
68.8537777606
 21
175.1606941881
 31
0.0
  0
ARC
  5
EB
330
5F
100
AcDbEntity
  8
D000134
  6
Continuous
 62
     7
100
AcDbCircle
 10
68.3537777606
 20
177.8608371535
 30
0.0
 40
0.4999999999999508
100
AcDbArc
 50
0.0
 51
20.0
  0
LINE
  5
EC
330
5F
100
AcDbEntity
  8
D000134
  6
Continuous
 62
     7
100
AcDbLine
 10
67.9129755522
 20
180.5338334675
 30
0.0
 11
68.8236240709
 21
178.0318472251
 31
0.0
  0
ARC
  5
ED
330
5F
100
AcDbEntity
  8
D000134
  6
Continuous
 62
     7
100
AcDbCircle
 10
66.9732829314
 20
180.1918133242
 30
0.0
 40
1.000000000007727
100
AcDbArc
 50
20.0
 51
145.4653074898
  0
ARC
  5
EE
330
5F
100
AcDbEntity
  8
D000134
  6
Continuous
 62
     7
100
AcDbCircle
 10
75.4543661778
 20
174.3553621911
 30
0.0
 40
11.29528702178826
100
AcDbArc
 50
145.4653074898
 51
147.7240685187
  0
ARC
  5
EF
330
5F
100
AcDbEntity
  8
D000134
  6
Continuous
 62
     7
100
AcDbCircle
 10
66.7498428015
 20
179.8530169322
 30
0.0
 40
0.9999999999993363
100
AcDbArc
 50
147.7240685187
 51
152.6498760124
  0
ARC
  5
F0
330
5F
100
AcDbEntity
  8
D000134
  6
Continuous
 62
     7
100
AcDbCircle
 10
75.4543515786
 20
175.3506370093
 30
0.0
 40
10.80000000000504
100
AcDbArc
 50
152.6498760124
 51
214.926893
  0
ARC
  5
F1
330
5F
100
AcDbEntity
  8
D000134
  6
Continuous
 62
     7
100
AcDbCircle
 10
67.091542565
 20
169.5108231937
 30
0.0
 40
0.6000000000003635
100
AcDbArc
 50
214.926893
 51
314.6358519375
  0
LINE
  5
F2
330
5F
100
AcDbEntity
  8
D000134
  6
Continuous
 62
     7
100
AcDbLine
 10
68.4135439656
 20
169.9842997875
 30
0.0
 11
67.5131016378
 21
169.0838712665
 31
0.0
  0
ARC
  5
F3
330
5F
100
AcDbEntity
  8
D000134
  6
Continuous
 62
     7
100
AcDbCircle
 10
68.5549642376
 20
169.842877347
 30
0.0
 40
0.199999999999978
100
AcDbArc
 50
90.0
 51
134.9995607257
  0
LINE
  5
F4
330
5F
100
AcDbEntity
  8
D000134
  6
Continuous
 62
     7
100
AcDbLine
 10
69.444875351
 20
170.042877347
 30
0.0
 11
68.5549642376
 21
170.042877347
 31
0.0
  0
ARC
  5
F5
330
5F
100
AcDbEntity
  8
D000134
  6
Continuous
 62
     7
100
AcDbCircle
 10
69.444875351
 20
169.742877347
 30
0.0
 40
0.3000000000004433
100
AcDbArc
 50
315.0014637844
 51
90.0
  0
LINE
  5
F6
330
5F
100
AcDbEntity
  8
D000134
  6
Continuous
 62
     7
100
AcDbLine
 10
69.2597426266
 20
169.13347168
 30
0.0
 11
69.6570128048
 21
169.5307507322
 31
0.0
  0
ARC
  5
F7
330
5F
100
AcDbEntity
  8
D000134
  6
Continuous
 62
     7
100
AcDbCircle
 10
69.542592565
 20
168.8506361937
 30
0.0
 40
0.3999919212110144
100
AcDbArc
 50
135.0014637844
 51
224.9985362156
  0
LINE
  5
F8
330
5F
100
AcDbEntity
  8
D000134
  6
Continuous
 62
     7
100
AcDbLine
 10
69.863586748
 20
167.9639371567
 30
0.0
 11
69.2597483393
 21
168.5678064198
 31
0.0
  0
ARC
  5
F9
330
5F
100
AcDbEntity
  8
D000134
  6
Continuous
 62
     7
100
AcDbCircle
 10
69.654347565
 20
167.7489511937
 30
0.0
 40
0.3000000000001758
100
AcDbArc
 50
359.4875292633
 51
45.7761116949
  0
LINE
  5
FA
330
5F
100
AcDbEntity
  8
D000134
  6
Continuous
 62
     7
100
AcDbLine
 10
69.954335565
 20
163.9452756842
 30
0.0
 11
69.954335565
 21
167.746267939
 31
0.0
  0
ARC
  5
FB
330
5F
100
AcDbEntity
  8
D000134
  6
Continuous
 62
     7
100
AcDbCircle
 10
69.354359565
 20
163.9506421937
 30
0.0
 40
0.5999999996926036
100
AcDbArc
 50
180.0018338554
 51
359.4875292609
  0
LINE
  5
FC
330
5F
100
AcDbEntity
  8
D000134
  6
Continuous
 62
     7
100
AcDbLine
 10
68.754323565
 20
165.0754026842
 30
0.0
 11
68.7543595656
 21
163.9506229896
 31
0.0
  0
ARC
  5
FD
330
5F
100
AcDbEntity
  8
D000134
  6
Continuous
 62
     7
100
AcDbCircle
 10
68.154347565
 20
165.0807691937
 30
0.0
 40
0.5999997221363922
100
AcDbArc
 50
359.4875292585
 51
54.5941679638
  0
LINE
  5
100
330
5F
100
AcDbEntity
  8
DV1_Standard
  6
CENTER2
 62
     7
100
AcDbLine
 10
75.4543361564
 20
159.8506421937
 30
0.0
 11
75.4543361564
 21
169.8506421937
 31
0.0
  0
ENDBLK
  5
102
330
5F
100
AcDbEntity
  8
0
100
AcDbBlockEnd
  0
BLOCK
  5
105
330
104
100
AcDbEntity
  8
0
100
AcDbBlockBegin
  2
_Oblique
 70
     0
 10
0.0
 20
0.0
 30
0.0
  3
_Oblique
  1

  0
LINE
  5
107
330
104
100
AcDbEntity
  8
0
  6
ByBlock
 62
     0
370
    -2
100
AcDbLine
 10
-0.5
 20
-0.5
 30
0.0
 11
0.5
 21
0.5
 31
0.0
  0
ENDBLK
  5
106
330
104
100
AcDbEntity
  8
0
100
AcDbBlockEnd
  0
BLOCK
  5
109
330
108
100
AcDbEntity
  8
0
100
AcDbBlockBegin
  2
_Dot
 70
     0
 10
0.0
 20
0.0
 30
0.0
  3
_Dot
  1

  0
LWPOLYLINE
  5
10B
330
108
100
AcDbEntity
  8
0
  6
ByBlock
 62
     0
100
AcDbPolyline
 90
        2
 70
     1
 43
0.5
 10
-0.25
 20
0.0
 42
1.0
 10
0.25
 20
0.0
 42
1.0
  0
LINE
  5
10C
330
108
100
AcDbEntity
  8
0
  6
ByBlock
 62
     0
370
    -2
100
AcDbLine
 10
-0.5
 20
0.0
 30
0.0
 11
-1.0
 21
0.0
 31
0.0
  0
ENDBLK
  5
10A
330
108
100
AcDbEntity
  8
0
100
AcDbBlockEnd
  0
BLOCK
  5
111
330
10D
100
AcDbEntity
  8
0
100
AcDbBlockBegin
  2
_SE_OPEN
 70
     0
 10
0.0
 20
0.0
 30
0.0
  3
_SE_OPEN
  1

  0
LINE
  5
10E
330
10D
100
AcDbEntity
  8
0
 62
     0
100
AcDbLine
 10
0.0
 20
0.0
 30
0.0
 11
-1.0
 21
-0.1665
 31
0.0
  0
LINE
  5
10F
330
10D
100
AcDbEntity
  8
0
 62
     0
100
AcDbLine
 10
-1.0
 20
0.1665
 30
0.0
 11
0.0
 21
0.0
 31
0.0
  0
LINE
  5
110
330
10D
100
AcDbEntity
  8
0
 62
     0
100
AcDbLine
 10
0.0
 20
0.0
 30
0.0
 11
-1.0
 21
0.0
 31
0.0
  0
ENDBLK
  5
112
330
10D
100
AcDbEntity
  8
0
100
AcDbBlockEnd
  0
BLOCK
  5
11D
330
116
100
AcDbEntity
  8
0
100
AcDbBlockBegin
  2
DMBLK418
 70
     0
 10
0.0
 20
0.0
 30
0.0
  3
DMBLK418
  1

  0
LWPOLYLINE
  5
117
330
116
100
AcDbEntity
  8
Standard
  6
Continuous
 62
     7
100
AcDbPolyline
 90
        3
 70
     0
 43
0.0
 10
72.5043414815
 20
156.0762115756
 10
68.7543415653
 20
155.4512115896
 10
72.5043414815
 20
154.8262116036
  0
LWPOLYLINE
  5
118
330
116
100
AcDbEntity
  8
Standard
  6
Continuous
 62
     7
100
AcDbPolyline
 90
        3
 70
     0
 43
0.0
 10
78.4043309933
 20
156.0762115756
 10
82.1543309095
 20
155.4512115896
 10
78.4043309933
 20
154.8262116036
  0
LINE
  5
119
330
116
100
AcDbEntity
  8
Standard
  6
Continuous
 62
     7
100
AcDbLine
 10
68.7543415653
 20
163.7630128304
 30
0.0
 11
68.7543415653
 21
154.2012116175
 31
0.0
  0
LINE
  5
11A
330
116
100
AcDbEntity
  8
Standard
  6
Continuous
 62
     7
100
AcDbLine
 10
82.1543307477
 20
163.7630128304
 30
0.0
 11
82.1543307477
 21
154.2012116175
 31
0.0
  0
LINE
  5
11B
330
116
100
AcDbEntity
  8
Standard
  6
Continuous
 62
     7
100
AcDbLine
 10
68.7543415653
 20
155.4512115896
 30
0.0
 11
82.1543309095
 21
155.4512115896
 31
0.0
  0
TEXT
  5
11C
330
116
100
AcDbEntity
  8
Standard
  6
Continuous
 62
     7
100
AcDbText
 10
73.4978144982
 20
156.0762115896
 30
0.0
 40
2.5
  1
13
  7
SEACAD_Arial
 11
73.4978144982
 21
158.5762115896
 31
0.0
100
AcDbText
 73
     3
  0
ENDBLK
  5
11E
330
116
100
AcDbEntity
  8
0
100
AcDbBlockEnd
  0
BLOCK
  5
125
330
120
100
AcDbEntity
  8
0
100
AcDbBlockBegin
  2
DMBLK419
 70
     0
 10
0.0
 20
0.0
 30
0.0
  3
DMBLK419
  1

  0
LINE
  5
121
330
120
100
AcDbEntity
  8
Standard
  6
Continuous
 62
     7
100
AcDbLine
 10
75.454335565
 20
175.3506361937
 30
0.0
 11
95.3801113046
 21
191.1995662654
 31
0.0
  0
LWPOLYLINE
  5
122
330
120
100
AcDbEntity
  8
Standard
  6
Continuous
 62
     7
100
AcDbPolyline
 90
        3
 70
     0
 43
0.0
 10
88.1696999999
 20
184.6658196305
 10
84.8458054329
 20
182.8205962671
 10
87.3915792028
 20
185.6440976867
  0
TEXT
  5
123
330
120
100
AcDbEntity
  8
Standard
  6
Continuous
 62
     7
100
AcDbText
 10
88.1133306193
 20
186.2181776239
 30
0.0
 40
2.5
  1
R
 50
38.4986833073
  7
SEACAD_Arial
 11
86.5570889902
 21
188.17473378
 31
0.0
100
AcDbText
 73
     3
  0
TEXT
  5
124
330
120
100
AcDbEntity
  8
Standard
  6
Continuous
 62
     7
100
AcDbText
 10
91.243820469
 20
188.7081642305
 30
0.0
 40
2.5
  1
12
 50
38.4986833073
  7
SEACAD_Arial
 11
89.6875788398
 21
190.6647203866
 31
0.0
100
AcDbText
 73
     3
  0
ENDBLK
  5
126
330
120
100
AcDbEntity
  8
0
100
AcDbBlockEnd
  0
BLOCK
  5
131
330
128
100
AcDbEntity
  8
0
100
AcDbBlockBegin
  2
DMBLK420
 70
     0
 10
0.0
 20
0.0
 30
0.0
  3
DMBLK420
  1

  0
LWPOLYLINE
  5
129
330
128
100
AcDbEntity
  8
Standard
  6
Continuous
 62
     7
100
AcDbPolyline
 90
        3
 70
     0
 43
0.0
 10
57.9656551825
 20
167.1006480673
 10
57.3406551965
 20
163.3506481512
 10
56.7156552104
 20
167.1006480673
  0
LWPOLYLINE
  5
12A
330
128
100
AcDbEntity
  8
Standard
  6
Continuous
 62
     7
100
AcDbPolyline
 90
        3
 70
     0
 43
0.0
 10
57.9656551825
 20
183.6006372677
 10
57.3406551965
 20
187.3506371839
 10
56.7156552104
 20
183.6006372677
  0
LINE
  5
12B
330
128
100
AcDbEntity
  8
Standard
  6
Continuous
 62
     7
100
AcDbLine
 10
68.6016858788
 20
163.3506481512
 30
0.0
 11
56.0906552244
 21
163.3506481512
 31
0.0
  0
LINE
  5
12C
330
128
100
AcDbEntity
  8
Standard
  6
Continuous
 62
     7
100
AcDbLine
 10
74.7043350764
 20
187.3506366011
 30
0.0
 11
56.0906552244
 21
187.3506366011
 31
0.0
  0
LINE
  5
12D
330
128
100
AcDbEntity
  8
Standard
  6
Continuous
 62
     7
100
AcDbLine
 10
57.3406551965
 20
163.3506481512
 30
0.0
 11
57.3406551965
 21
187.3506371839
 31
0.0
  0
TEXT
  5
12E
330
128
100
AcDbEntity
  8
Standard
  6
Continuous
 62
     7
100
AcDbText
 10
56.7156551965
 20
171.3805339719
 30
0.0
 40
2.5
  1
24
 50
90.0
  7
SEACAD_Arial
 11
54.2156551965
 21
171.3805339719
 31
0.0
100
AcDbText
 73
     3
  0
TEXT
  5
12F
330
128
100
AcDbEntity
  8
Standard
  6
Continuous
 62
     7
100
AcDbText
 10
53.7156551965
 20
176.5435774501
 30
0.0
 40
1.75
  1
+4
 50
90.0
  7
SEACAD_Arial
 11
51.9656551965
 21
176.5435774501
 31
0.0
100
AcDbText
 73
     3
  0
TEXT
  5
130
330
128
100
AcDbEntity
  8
Standard
  6
Continuous
 62
     7
100
AcDbText
 10
56.7156551965
 20
177.9511861458
 30
0.0
 40
1.75
  1
0
 50
90.0
  7
SEACAD_Arial
 11
54.9656551965
 21
177.9511861458
 31
0.0
100
AcDbText
 73
     3
  0
ENDBLK
  5
132
330
128
100
AcDbEntity
  8
0
100
AcDbBlockEnd
  0
BLOCK
  5
1D1
330
133
100
AcDbEntity
  8
0
100
AcDbBlockBegin
  2
SE1
 70
     0
 10
0.0
 20
0.0
 30
0.0
  3
SE1
  1

  0
HATCH
  5
136
330
133
100
AcDbEntity
  8
DV2_Füllung
  6
Continuous
 62
     7
100
AcDbHatch
 10
0.0
 20
0.0
 30
0.0
210
0.0
220
0.0
230
1.0
  2
SOLID
 70
     1
 71
     0
 91
        1
 92
        1
 93
       67
 72
     2
 10
137.0944712543587
 20
174.3553621910793
 40
11.29528702178934
 50
232.348444461563
 51
269.9998486943617
 73
     0
 72
     2
 10
137.094411211588
 20
174.3553621910785
 40
11.2952870217907
 50
270.0001532636344
 51
307.6515555384314
 73
     0
 72
     2
 10
143.6887968162384
 20
182.9024260366356
 40
0.4999999999985146
 50
307.6515555384501
 51
380.0000000000094
 73
     0
 72
     1
 10
144.1586431266299
 20
182.7314159649732
 11
142.2879125643819
 21
177.5916259873107
 72
     2
 10
141.8180662539894
 20
177.7626360589734
 40
0.4999999999995162
 50
20.00000000000624
 51
90.01258713125536
 73
     0
 72
     1
 10
141.8179564105484
 20
177.2626360710395
 11
140.2062273949001
 21
177.2629901467703
 72
     2
 10
140.1944788243974
 20
176.6631051936882
 40
0.5999999882027063
 50
88.87802243136466
 51
90.00000328016124
 73
     1
 72
     2
 10
140.1943873401015
 20
176.6631021877855
 40
0.6000030010745527
 50
89.99126721706017
 51
269.9844737305893
 73
     1
 72
     1
 10
140.1942247485772
 20
176.0630992087409
 11
141.9952111110685
 21
176.0626111735088
 72
     2
 10
141.9950756284634
 20
175.562646817857
 40
0.4999643740086429
 50
270.0155262694121
 51
389.426189414165
 73
     0
 72
     1
 10
142.4305392646946
 20
175.3170133575994
 11
141.9441382686549
 21
174.4744699132214
 72
     2
 10
142.4637646415577
 20
174.174489193696
 40
0.5999999995858931
 50
150.0021259309564
 51
329.4653160855416
 73
     1
 72
     1
 10
142.9805577002013
 20
173.8696532803905
 11
143.6682047586673
 21
175.0606942731414
 72
     2
 10
143.4949996288064
 20
175.1606941880914
 40
0.2000000000003172
 50
330.0000281343566
 51
360.0
 73
     1
 72
     1
 10
143.6949996288068
 20
175.1606941880914
 11
143.6949996288066
 21
177.8608371534729
 72
     2
 10
144.1949996288068
 20
177.8608371534728
 40
0.500000000000167
 50
180.0000000000032
 51
199.9999999998373
 73
     0
 72
     1
 10
143.7251533184132
 20
178.0318472251344
 11
144.6358018371671
 21
180.5338334674932
 72
     2
 10
145.5754944579615
 20
180.1918133241675
 40
1.000000000008058
 50
199.9999999998355
 51
325.4653074897851
 73
     0
 72
     1
 10
146.3992775373937
 20
180.758718464431
 11
146.6444208145161
 21
180.3870141611923
 72
     2
 10
145.7989345878703
 20
179.8530169322167
 40
0.9999999999995511
 50
327.7240685187362
 51
332.649876012372
 73
     0
 72
     2
 10
137.0944258107328
 20
175.3506370093114
 40
10.7999947970106
 50
332.6498760123721
 51
394.9268929999873
 73
     0
 72
     2
 10
145.4572348243923
 20
169.5108231936883
 40
0.5999947970162156
 50
34.92689299998628
 51
134.6358519358679
 73
     0
 72
     1
 10
145.0356794072161
 20
169.0838749688461
 11
144.1352334237434
 21
169.9842997874522
 72
     2
 10
143.9938131517573
 20
169.8428773469724
 40
0.1999999999997303
 50
45.00043927431295
 51
90.0
 73
     1
 72
     1
 10
143.9938131517573
 20
170.0428773469721
 11
143.1039020383442
 21
170.0428773469724
 72
     2
 10
143.103902038344
 20
169.7428773469724
 40
0.299999999999967
 50
89.99999999995657
 51
224.9985362155243
 73
     1
 72
     1
 10
142.8917645845381
 20
169.530750732205
 11
143.2890290500877
 21
169.1334659676234
 72
     2
 10
143.0061848243931
 20
168.8506361936883
 40
0.3999919212095952
 50
315.0014637844773
 51
404.9985362156033
 73
     0
 72
     1
 10
143.2890290500873
 20
168.5678064197527
 11
142.6851906413368
 21
167.9639371566588
 72
     2
 10
142.8944298243926
 20
167.7489511936884
 40
0.3000000000003137
 50
134.2238883075686
 51
180.5124707396951
 73
     1
 72
     1
 10
142.5944418243923
 20
167.7462679389474
 11
142.5944418243923
 21
163.9452756841862
 72
     2
 10
143.1944178243925
 20
163.9506421936873
 40
0.6000000000003561
 50
180.5124707415057
 51
359.998166144628
 73
     1
 72
     1
 10
143.7944178240855
 20
163.9506229895988
 11
143.7944538243925
 21
165.0754026841974
 72
     2
 10
144.3944298243925
 20
165.0807691936884
 40
0.6000000000000437
 50
179.4875292594548
 51
234.5941679637706
 73
     0
 72
     2
 10
137.0944406415535
 20
175.3506361936884
 40
12.00000040743075
 50
305.4058366394434
 51
594.5941679637713
 73
     1
 72
     2
 10
129.7944526415533
 20
165.0807691936881
 40
0.5999997221363922
 50
305.4058320362295
 51
360.5124707415207
 73
     0
 72
     1
 10
130.3944283637007
 20
165.0754026866722
 11
130.3944646421683
 21
163.9506229896008
 72
     2
 10
130.9944646415535
 20
163.9506421936893
 40
0.5999999996926036
 50
180.001833855373
 51
359.487529260894
 73
     1
 72
     1
 10
131.5944406412462
 20
163.9452756842162
 11
131.5944406415537
 21
167.7462679389631
 72
     2
 10
131.2944526415534
 20
167.7489511936887
 40
0.3000000000001758
 50
359.4875292632632
 51
405.7761116949039
 73
     1
 72
     1
 10
131.5036918245999
 20
167.963937156668
 11
130.8998534158584
 21
168.5678064197517
 72
     2
 10
131.1826976415533
 20
168.8506361936885
 40
0.3999919212110144
 50
135.0014637843506
 51
224.998536215635
 73
     0
 72
     1
 10
130.8998534158584
 20
169.1334659676252
 11
131.2971178814076
 21
169.5307507322043
 72
     2
 10
131.0849804276016
 20
169.7428773469724
 40
0.3000000000004433
 50
315.0014637843989
 51
450.0000000000109
 73
     1
 72
     1
 10
131.0849804276015
 20
170.0428773469729
 11
130.1950693141894
 21
170.0428773469721
 72
     2
 10
130.1950693141894
 20
169.8428773469722
 40
0.199999999999978
 50
90.0
 51
134.9995607257446
 73
     1
 72
     1
 10
130.0536490422029
 20
169.984299787452
 11
129.1532067143504
 21
169.0838712664845
 72
     2
 10
128.7316476415535
 20
169.5108231936883
 40
0.6000000000003635
 50
45.36414806251723
 51
145.0731070000159
 73
     0
 72
     2
 10
137.0944566552135
 20
175.3506370093114
 40
10.80000000000504
 50
145.0731070000141
 51
207.3501239876257
 73
     0
 72
     2
 10
128.3899478780755
 20
179.8530169322165
 40
0.9999999999993363
 50
207.350123987629
 51
212.2759314812549
 73
     0
 72
     1
 10
127.5444616514305
 20
180.3870141611914
 11
127.7896049285531
 21
180.7587184644306
 72
     2
 10
128.6133880079845
 20
180.1918133241677
 40
1.000000000007727
 50
214.5346925102148
 51
339.9999999999966
 73
     0
 72
     1
 10
129.5530806287777
 20
180.5338334674961
 11
130.4637291475326
 21
178.0318472251354
 72
     2
 10
129.9938828371397
 20
177.8608371534726
 40
0.4999999999999508
 50
340.0000000000086
 51
360.0000000000001
 73
     0
 72
     1
 10
130.4938828371396
 20
177.8608371534726
 11
130.4938828371396
 21
175.1606941880914
 72
     2
 10
130.6938828371396
 20
175.1606941880912
 40
0.199999999999978
 50
179.9999999999349
 51
209.999971865664
 73
     1
 72
     1
 10
130.5206777072791
 20
175.0606942731413
 11
131.2083247653876
 21
173.8696532801817
 72
     2
 10
131.7251178243906
 20
174.1744891936913
 40
0.5999999999990737
 50
210.5346839138081
 51
389.9978740690054
 73
     1
 72
     1
 10
132.2447441976514
 20
174.4744699134229
 11
131.758343196432
 21
175.3170133548562
 72
     2
 10
132.1938068374824
 20
175.5626468178572
 40
0.4999643795539036
 50
150.5738105833334
 51
269.9844737305647
 73
     0
 72
     1
 10
132.1936713548756
 20
176.0626111790543
 11
133.9946577173682
 21
176.0630992129493
 72
     2
 10
133.9944951258445
 20
176.6631021877855
 40
0.6000029968661299
 50
270.0155262694598
 51
450.0087335871689
 73
     1
 72
     2
 10
133.9944036415484
 20
176.6631051936886
 40
0.5999999882019448
 50
89.999997524054
 51
91.12197756705693
 73
     1
 72
     1
 10
133.9826550710622
 20
177.2629901467703
 11
132.3709260553974
 21
177.2626360710392
 72
     2
 10
132.3708162119564
 20
177.7626360589734
 40
0.4999999999998448
 50
89.98741286874464
 51
160.0000000000144
 73
     0
 72
     1
 10
131.9009699015635
 20
177.5916259873107
 11
130.030239339316
 21
182.7314159649735
 72
     2
 10
130.5000856497074
 20
182.9024260366356
 40
0.4999999999983561
 50
160.0000000000107
 51
232.348444461564
 73
     0
 97
        0
 75
     0
 76
     1
 98
        0
  0
HATCH
  5
137
330
133
100
AcDbEntity
  8
DV2_Füllung
  6
Continuous
 62
     7
100
AcDbHatch
 10
0.0
 20
0.0
 30
0.0
210
0.0
220
0.0
230
1.0
  2
SOLID
 70
     1
 71
     0
 91
        1
 92
        1
 93
       24
 72
     1
 10
131.9205454130412
 20
172.350642193687
 11
135.5444412329729
 21
172.350642193687
 72
     1
 10
135.5444412329729
 20
172.350642193687
 11
135.8174600724266
 21
172.350642193687
 72
     1
 10
135.8174600724266
 20
172.350642193687
 11
135.9126392845069
 21
172.2147121916712
 72
     3
 10
135.8065732673289
 20
172.0632342206554
 11
-2.168404344971009E-15
 21
0.214222201011317
 40
0.7002075382097086
 50
35.00000000000605
 51
90.00000000000058
 73
     0
 72
     1
 10
135.9565732673289
 20
172.0632342206554
 11
135.9565732673289
 21
171.729426064505
 72
     1
 10
135.9565732673289
 20
171.729426064505
 11
138.2323091986169
 21
171.729426064505
 72
     1
 10
138.2323091986169
 20
171.729426064505
 11
138.2323091986169
 21
172.0632342284884
 72
     3
 10
138.382309198617
 20
172.0632342206554
 11
-2.168404344971009E-16
 21
-0.2142222010113179
 40
0.7002075382097077
 50
89.99999999999991
 51
144.9999999999941
 73
     0
 72
     1
 10
138.2762431814389
 20
172.2147121916712
 11
138.3714223935193
 21
172.350642193687
 72
     1
 10
138.3714223935193
 20
172.350642193687
 11
138.6444412329729
 21
172.350642193687
 72
     1
 10
138.6444412329729
 20
172.350642193687
 11
142.2683370529047
 21
172.350642193687
 72
     1
 10
142.2683370529047
 20
172.350642193687
 11
141.114183774261
 21
175.5216522653498
 72
     2
 10
140.6443374638681
 20
175.350642193687
 40
0.5000000000000022
 50
19.99999999999953
 51
90.0
 73
     1
 72
     1
 10
140.6443374638681
 20
175.850642193687
 11
138.0091290391938
 21
175.850642193687
 72
     3
 10
138.0091290391938
 20
175.350642193687
 11
1.084202172485504E-16
 21
0.5000000000000022
 40
0.3057306814586604
 50
0.0
 51
40.02986098536152
 73
     1
 72
     1
 10
137.8654826065365
 20
175.5216522653498
 11
137.9064774529139
 21
175.8900562940149
 72
     3
 10
138.1075824586341
 20
175.650642193687
 11
-2.168404344971009E-16
 21
-0.6999999999999992
 40
0.3057306814586611
 50
139.9701390146378
 51
180.0
 73
     0
 72
     1
 10
138.1075824586341
 20
176.350642193687
 11
136.0813000073117
 21
176.350642193687
 72
     3
 10
136.0813000073117
 20
175.650642193687
 11
1.517883041479706E-15
 21
0.7000000000000079
 40
0.3057306814586578
 50
0.0
 51
40.02986098535838
 73
     0
 72
     1
 10
136.2824050130319
 20
175.890056294015
 11
136.3233998594093
 21
175.5216522653498
 72
     3
 10
136.179753426752
 20
175.350642193687
 11
2.168404344971009E-16
 21
-0.5000000000000004
 40
0.3057306814586597
 50
139.9701390146387
 51
180.0
 73
     1
 72
     1
 10
136.179753426752
 20
175.850642193687
 11
133.5445450020778
 21
175.850642193687
 72
     2
 10
133.5445450020778
 20
175.350642193687
 40
0.5000000000000022
 50
90.0
 51
160.0000000000005
 73
     1
 72
     1
 10
133.0746986916848
 20
175.5216522653498
 11
131.9205454130412
 21
172.350642193687
 97
        0
 75
     0
 76
     1
 98
        0
  0
HATCH
  5
138
330
133
100
AcDbEntity
  8
DV2_Füllung
  6
Continuous
 62
     7
100
AcDbHatch
 10
0.0
 20
0.0
 30
0.0
210
0.0
220
0.0
230
1.0
  2
SOLID
 70
     1
 71
     0
 91
        1
 92
        1
 93
        4
 72
     1
 10
135.9565732673289
 20
171.729426064505
 11
135.9565732673289
 21
169.350642193687
 72
     1
 10
135.9565732673289
 20
169.350642193687
 11
138.2323091986169
 21
169.350642193687
 72
     1
 10
138.2323091986169
 20
169.350642193687
 11
138.2323091986169
 21
171.729426064505
 72
     1
 10
138.2323091986169
 20
171.729426064505
 11
135.9565732673289
 21
171.729426064505
 97
        0
 75
     0
 76
     1
 98
        0
  0
HATCH
  5
139
330
133
100
AcDbEntity
  8
DV2_Füllung
  6
Continuous
 62
     7
100
AcDbHatch
 10
0.0
 20
0.0
 30
0.0
210
0.0
220
0.0
230
1.0
  2
SOLID
 70
     1
 71
     0
 91
        1
 92
        1
 93
       10
 72
     1
 10
138.2323091986169
 20
169.350642193687
 11
135.9565732673289
 21
169.350642193687
 72
     1
 10
135.9565732673289
 20
169.350642193687
 11
135.9565732673289
 21
169.0632342206554
 72
     3
 10
135.8065732673289
 20
169.0632342206554
 11
0.0
 21
0.2142222010113174
 40
0.7002075382097097
 50
90.0
 51
145.0000000000043
 73
     0
 72
     1
 10
135.9126392845069
 20
168.9117562496396
 11
135.5444412329729
 21
168.3859149362551
 72
     1
 10
135.5444412329729
 20
168.3859149362551
 11
135.5444412329729
 21
166.350642193687
 72
     1
 10
135.5444412329729
 20
166.350642193687
 11
138.6444412329729
 21
166.350642193687
 72
     1
 10
138.6444412329729
 20
166.350642193687
 11
138.6444412329729
 21
168.385914936255
 72
     1
 10
138.6444412329729
 20
168.385914936255
 11
138.2762431814389
 21
168.9117562496396
 72
     3
 10
138.382309198617
 20
169.0632342206554
 11
2.168404344971009E-16
 21
-0.2142222010113174
 40
0.7002075382097079
 50
34.99999999999567
 51
90.0000147247815
 73
     0
 72
     1
 10
138.2323091986169
 20
169.0632342592048
 11
138.2323091986169
 21
169.350642193687
 97
        0
 75
     0
 76
     1
 98
        0
  0
HATCH
  5
13C
330
133
100
AcDbEntity
  8
DV2_Füllung
  6
Continuous
 62
     7
100
AcDbHatch
 10
0.0
 20
0.0
 30
0.0
210
0.0
220
0.0
230
1.0
  2
SOLID
 70
     1
 71
     0
 91
        1
 92
        1
 93
        6
 72
     1
 10
138.0091290263843
 20
175.850642193687
 11
139.0944412329729
 21
175.850642193687
 72
     1
 10
139.0944412329729
 20
175.850642193687
 11
139.0944412329729
 21
176.350642193687
 72
     1
 10
139.0944412329729
 20
176.350642193687
 11
138.1075824586341
 21
176.350642193687
 72
     3
 10
138.1075824586341
 20
175.650642193687
 11
2.168404344971009E-16
 21
0.6999999999999992
 40
0.3057306814586611
 50
0.0
 51
40.02986098536218
 73
     1
 72
     1
 10
137.9064774529139
 20
175.890056294015
 11
137.8654826065365
 21
175.5216522653498
 72
     3
 10
138.0091290391938
 20
175.350642193687
 11
-1.084202172485504E-16
 21
-0.5000000000000022
 40
0.3057306814586604
 50
139.9701390146385
 51
180.0
 73
     0
 97
        0
 75
     0
 76
     1
 98
        0
  0
HATCH
  5
13D
330
133
100
AcDbEntity
  8
DV2_Füllung
  6
Continuous
 62
     7
100
AcDbHatch
 10
0.0
 20
0.0
 30
0.0
210
0.0
220
0.0
230
1.0
  2
SOLID
 70
     1
 71
     0
 91
        1
 92
        1
 93
        6
 72
     1
 10
135.0944412329729
 20
175.850642193687
 11
136.179753426752
 21
175.850642193687
 72
     3
 10
136.179753426752
 20
175.350642193687
 11
-2.168404344971009E-16
 21
0.5000000000000004
 40
0.3057306814586597
 50
0.0
 51
40.02986098536132
 73
     0
 72
     1
 10
136.3233998594093
 20
175.5216522653498
 11
136.2824050130319
 21
175.8900562940149
 72
     3
 10
136.0813000073117
 20
175.650642193687
 11
-1.517883041479706E-15
 21
-0.7000000000000079
 40
0.3057306814586578
 50
139.9701390146416
 51
180.0
 73
     1
 72
     1
 10
136.0813000073117
 20
176.350642193687
 11
135.0944412329729
 21
176.350642193687
 72
     1
 10
135.0944412329729
 20
176.350642193687
 11
135.0944412329729
 21
175.850642193687
 97
        0
 75
     0
 76
     1
 98
        0
  0
HATCH
  5
13E
330
133
100
AcDbEntity
  8
DV2_Füllung
  6
Continuous
 62
     7
100
AcDbHatch
 10
0.0
 20
0.0
 30
0.0
210
0.0
220
0.0
230
1.0
  2
SOLID
 70
     1
 71
     0
 91
        1
 92
        1
 93
       24
 72
     1
 10
135.5444412329729
 20
172.350642193687
 11
131.6944412329729
 21
172.350642193687
 72
     1
 10
131.6944412329729
 20
172.350642193687
 11
131.6944412329729
 21
163.9902775391604
 72
     1
 10
131.6944412329729
 20
163.9902775391604
 11
131.6944412329729
 21
163.350642193687
 72
     1
 10
131.6944412329729
 20
163.350642193687
 11
135.5269785516425
 21
163.350642193687
 72
     1
 10
135.5269785516425
 20
163.350642193687
 11
135.5381434281281
 21
163.9902775391604
 72
     1
 10
135.5381434281281
 20
163.9902775391604
 11
135.5444336165707
 21
164.3506421936869
 72
     1
 10
135.5444336165707
 20
164.3506421936869
 11
138.6444488493751
 21
164.350642193687
 72
     1
 10
138.6444488493751
 20
164.350642193687
 11
138.6507390378177
 21
163.9902775391604
 72
     1
 10
138.6507390378177
 20
163.9902775391604
 11
138.6619039143033
 21
163.350642193687
 72
     1
 10
138.6619039143033
 20
163.350642193687
 11
142.4944412329729
 21
163.350642193687
 72
     1
 10
142.4944412329729
 20
163.350642193687
 11
142.4944412329729
 21
163.9902775391604
 72
     1
 10
142.4944412329729
 20
163.9902775391604
 11
142.4944412329729
 21
172.350642193687
 72
     1
 10
142.4944412329729
 20
172.350642193687
 11
138.6444412329729
 21
172.350642193687
 72
     1
 10
138.6444412329729
 20
172.350642193687
 11
138.6444412329729
 21
169.7405535050557
 72
     1
 10
138.6444412329729
 20
169.7405535050557
 11
138.276243181439
 21
169.2147121916712
 72
     3
 10
138.382309198617
 20
169.0632342206554
 11
-2.168404344971009E-16
 21
0.2142222010113174
 40
0.7002075382097079
 50
34.99999999999561
 51
145.0000000000043
 73
     1
 72
     1
 10
138.2762431814389
 20
168.9117562496396
 11
138.6444412329729
 21
168.385914936255
 72
     1
 10
138.6444412329729
 20
168.385914936255
 11
138.6444412329729
 21
166.350642193687
 72
     1
 10
138.6444412329729
 20
166.350642193687
 11
135.5444412329729
 21
166.350642193687
 72
     1
 10
135.5444412329729
 20
166.350642193687
 11
135.5444412329729
 21
168.3859149362551
 72
     1
 10
135.5444412329729
 20
168.3859149362551
 11
135.9126392845068
 21
168.9117562496396
 72
     3
 10
135.8065732673289
 20
169.0632342206554
 11
0.0
 21
-0.2142222010113174
 40
0.7002075382097097
 50
34.99999999999571
 51
145.0000000000043
 73
     1
 72
     1
 10
135.9126392845068
 20
169.2147121916712
 11
135.5444412329729
 21
169.7405535050557
 72
     1
 10
135.5444412329729
 20
169.7405535050557
 11
135.5444412329729
 21
172.350642193687
 97
        0
 75
     0
 76
     1
 98
        0
  0
HATCH
  5
13F
330
133
100
AcDbEntity
  8
DV2_Füllung
  6
Continuous
 62
     7
100
AcDbHatch
 10
0.0
 20
0.0
 30
0.0
210
0.0
220
0.0
230
1.0
  2
SOLID
 70
     1
 71
     0
 91
        1
 92
        1
 93
       24
 72
     1
 10
135.5444412329729
 20
169.7405535050558
 11
135.5444412329729
 21
172.350642193687
 72
     1
 10
135.5444412329729
 20
172.350642193687
 11
131.6944412329729
 21
172.350642193687
 72
     1
 10
131.6944412329729
 20
172.350642193687
 11
131.6944412329729
 21
163.9902775391604
 72
     1
 10
131.6944412329729
 20
163.9902775391604
 11
131.6944412329729
 21
163.350642193687
 72
     1
 10
131.6944412329729
 20
163.350642193687
 11
135.5269785516425
 21
163.350642193687
 72
     1
 10
135.5269785516425
 20
163.350642193687
 11
135.5381434281281
 21
163.9902775391604
 72
     1
 10
135.5381434281281
 20
163.9902775391604
 11
135.5444336165707
 21
164.3506421936869
 72
     1
 10
135.5444336165707
 20
164.3506421936869
 11
138.6444488493751
 21
164.350642193687
 72
     1
 10
138.6444488493751
 20
164.350642193687
 11
138.6507390378177
 21
163.9902775391604
 72
     1
 10
138.6507390378177
 20
163.9902775391604
 11
138.6619039143033
 21
163.350642193687
 72
     1
 10
138.6619039143033
 20
163.350642193687
 11
142.4944412329729
 21
163.350642193687
 72
     1
 10
142.4944412329729
 20
163.350642193687
 11
142.4944412329729
 21
163.9902775391604
 72
     1
 10
142.4944412329729
 20
163.9902775391604
 11
142.4944412329729
 21
172.350642193687
 72
     1
 10
142.4944412329729
 20
172.350642193687
 11
138.6444412329729
 21
172.350642193687
 72
     1
 10
138.6444412329729
 20
172.350642193687
 11
138.6444412329729
 21
169.7405535050557
 72
     1
 10
138.6444412329729
 20
169.7405535050557
 11
138.276243181439
 21
169.2147121916712
 72
     3
 10
138.382309198617
 20
169.0632342206554
 11
-2.168404344971009E-16
 21
0.2142222010113174
 40
0.7002075382097079
 50
34.99999999999561
 51
145.0000000000043
 73
     1
 72
     1
 10
138.2762431814389
 20
168.9117562496396
 11
138.6444412329729
 21
168.385914936255
 72
     1
 10
138.6444412329729
 20
168.385914936255
 11
138.6444412329729
 21
166.350642193687
 72
     1
 10
138.6444412329729
 20
166.350642193687
 11
135.5444412329729
 21
166.350642193687
 72
     1
 10
135.5444412329729
 20
166.350642193687
 11
135.5444412329729
 21
168.3859149362551
 72
     1
 10
135.5444412329729
 20
168.3859149362551
 11
135.9126392845068
 21
168.9117562496396
 72
     3
 10
135.8065732673289
 20
169.0632342206554
 11
0.0
 21
-0.2142222010113174
 40
0.7002075382097097
 50
34.99999999999571
 51
145.0000000000043
 73
     1
 72
     1
 10
135.9126392845068
 20
169.2147121916712
 11
135.5444412329729
 21
169.7405535050557
 97
        0
 75
     0
 76
     1
 98
        0
  0
HATCH
  5
140
330
133
100
AcDbEntity
  8
DV2_Füllung
  6
Continuous
 62
     7
100
AcDbHatch
 10
0.0
 20
0.0
 30
0.0
210
0.0
220
0.0
230
1.0
  2
SOLID
 70
     1
 71
     0
 91
        1
 92
        1
 93
       24
 72
     1
 10
135.5444412329729
 20
169.7405535050558
 11
135.5444412329729
 21
172.350642193687
 72
     1
 10
135.5444412329729
 20
172.350642193687
 11
131.6944412329729
 21
172.350642193687
 72
     1
 10
131.6944412329729
 20
172.350642193687
 11
131.6944412329729
 21
163.9902775391604
 72
     1
 10
131.6944412329729
 20
163.9902775391604
 11
131.6944412329729
 21
163.350642193687
 72
     1
 10
131.6944412329729
 20
163.350642193687
 11
135.5269785516425
 21
163.350642193687
 72
     1
 10
135.5269785516425
 20
163.350642193687
 11
135.5381434281281
 21
163.9902775391604
 72
     1
 10
135.5381434281281
 20
163.9902775391604
 11
135.5444336165707
 21
164.3506421936869
 72
     1
 10
135.5444336165707
 20
164.3506421936869
 11
138.6444488493751
 21
164.350642193687
 72
     1
 10
138.6444488493751
 20
164.350642193687
 11
138.6507390378177
 21
163.9902775391604
 72
     1
 10
138.6507390378177
 20
163.9902775391604
 11
138.6619039143033
 21
163.350642193687
 72
     1
 10
138.6619039143033
 20
163.350642193687
 11
142.4944412329729
 21
163.350642193687
 72
     1
 10
142.4944412329729
 20
163.350642193687
 11
142.4944412329729
 21
163.9902775391604
 72
     1
 10
142.4944412329729
 20
163.9902775391604
 11
142.4944412329729
 21
172.350642193687
 72
     1
 10
142.4944412329729
 20
172.350642193687
 11
138.6444412329729
 21
172.350642193687
 72
     1
 10
138.6444412329729
 20
172.350642193687
 11
138.6444412329729
 21
169.7405535050557
 72
     1
 10
138.6444412329729
 20
169.7405535050557
 11
138.276243181439
 21
169.2147121916712
 72
     3
 10
138.382309198617
 20
169.0632342206554
 11
-2.168404344971009E-16
 21
0.2142222010113174
 40
0.7002075382097079
 50
34.99999999999561
 51
145.0000000000043
 73
     1
 72
     1
 10
138.2762431814389
 20
168.9117562496396
 11
138.6444412329729
 21
168.385914936255
 72
     1
 10
138.6444412329729
 20
168.385914936255
 11
138.6444412329729
 21
166.350642193687
 72
     1
 10
138.6444412329729
 20
166.350642193687
 11
135.5444412329729
 21
166.350642193687
 72
     1
 10
135.5444412329729
 20
166.350642193687
 11
135.5444412329729
 21
168.3859149362551
 72
     1
 10
135.5444412329729
 20
168.3859149362551
 11
135.9126392845068
 21
168.9117562496396
 72
     3
 10
135.8065732673289
 20
169.0632342206554
 11
0.0
 21
-0.2142222010113174
 40
0.7002075382097097
 50
34.99999999999571
 51
145.0000000000043
 73
     1
 72
     1
 10
135.9126392845068
 20
169.2147121916712
 11
135.5444412329729
 21
169.7405535050557
 97
        0
 75
     0
 76
     1
 98
        0
  0
HATCH
  5
141
330
133
100
AcDbEntity
  8
DV2_Füllung
  6
Continuous
 62
     7
100
AcDbHatch
 10
0.0
 20
0.0
 30
0.0
210
0.0
220
0.0
230
1.0
  2
SOLID
 70
     1
 71
     0
 91
        1
 92
        1
 93
        7
 72
     1
 10
135.5444412329729
 20
172.350642193687
 11
135.5444412329729
 21
169.7405535050557
 72
     1
 10
135.5444412329729
 20
169.7405535050557
 11
135.9126392845069
 21
169.2147121916712
 72
     3
 10
135.8065732673289
 20
169.0632342206554
 11
0.0
 21
0.2142222010113174
 40
0.7002075382097097
 50
34.99999999999569
 51
90.0
 73
     0
 72
     1
 10
135.9565732673289
 20
169.0632342206554
 11
135.9565732673289
 21
172.0632342206554
 72
     3
 10
135.8065732673289
 20
172.0632342206554
 11
2.168404344971009E-15
 21
-0.214222201011317
 40
0.7002075382097086
 50
89.99999999999942
 51
144.9999999999939
 73
     1
 72
     1
 10
135.9126392845069
 20
172.2147121916712
 11
135.8174600724266
 21
172.350642193687
 72
     1
 10
135.8174600724266
 20
172.350642193687
 11
135.5444412329729
 21
172.350642193687
 97
        0
 75
     0
 76
     1
 98
        0
  0
HATCH
  5
142
330
133
100
AcDbEntity
  8
DV2_Füllung
  6
Continuous
 62
     7
100
AcDbHatch
 10
0.0
 20
0.0
 30
0.0
210
0.0
220
0.0
230
1.0
  2
SOLID
 70
     1
 71
     0
 91
        1
 92
        1
 93
        9
 72
     1
 10
131.6944412329729
 20
163.9902775391604
 11
131.6944412329729
 21
169.350642193687
 72
     1
 10
131.6944412329729
 20
169.350642193687
 11
131.5444412329729
 21
169.350642193687
 72
     1
 10
131.5444412329729
 20
169.350642193687
 11
131.5444412329729
 21
167.9147996310048
 72
     2
 10
131.2944526415534
 20
167.7489511936887
 40
0.3000000000001758
 50
326.4387487031229
 51
360.5124707367369
 73
     0
 72
     1
 10
131.5944406415537
 20
167.7462679389631
 11
131.5944406415535
 21
163.9452756842134
 72
     2
 10
130.9944646415535
 20
163.9506421936893
 40
0.5999999996926036
 50
0.5124707391059629
 51
23.56205686009064
 73
     0
 72
     1
 10
131.5444412329729
 20
163.7107969341534
 11
131.5444412329729
 21
163.350642193687
 72
     1
 10
131.5444412329729
 20
163.350642193687
 11
131.6944412329729
 21
163.350642193687
 72
     1
 10
131.6944412329729
 20
163.350642193687
 11
131.6944412329729
 21
163.9902775391604
 97
        0
 75
     0
 76
     1
 98
        0
  0
HATCH
  5
143
330
133
100
AcDbEntity
  8
DV2_Füllung
  6
Continuous
 62
     7
100
AcDbHatch
 10
0.0
 20
0.0
 30
0.0
210
0.0
220
0.0
230
1.0
  2
SOLID
 70
     1
 71
     0
 91
        1
 92
        1
 93
        4
 72
     1
 10
131.6444412329729
 20
169.9183500188901
 11
131.6444412329729
 21
169.350642193687
 72
     1
 10
131.6444412329729
 20
169.350642193687
 11
131.6944412329729
 21
169.350642193687
 72
     1
 10
131.6944412329729
 20
169.350642193687
 11
131.6944412329729
 21
169.94722780366
 72
     2
 10
132.2944412329729
 20
168.850642193687
 40
1.25
 50
118.6854020141188
 51
121.3322514975938
 73
     1
 97
        0
 75
     0
 76
     1
 98
        0
  0
HATCH
  5
144
330
133
100
AcDbEntity
  8
DV2_Füllung
  6
Continuous
 62
     7
100
AcDbHatch
 10
0.0
 20
0.0
 30
0.0
210
0.0
220
0.0
230
1.0
  2
SOLID
 70
     1
 71
     0
 91
        1
 92
        1
 93
        7
 72
     1
 10
138.2323091986169
 20
172.0632342206554
 11
138.2323091986169
 21
169.0632342206554
 72
     3
 10
138.382309198617
 20
169.0632342206554
 11
2.168404344971009E-16
 21
-0.2142222010113174
 40
0.7002075382097079
 50
90.00001472478151
 51
145.0000000000044
 73
     0
 72
     1
 10
138.276243181439
 20
169.2147121916712
 11
138.6444412329729
 21
169.7405535050557
 72
     1
 10
138.6444412329729
 20
169.7405535050557
 11
138.6444412329729
 21
172.350642193687
 72
     1
 10
138.6444412329729
 20
172.350642193687
 11
138.3714223935193
 21
172.350642193687
 72
     1
 10
138.3714223935193
 20
172.350642193687
 11
138.2762431814389
 21
172.2147121916712
 72
     3
 10
138.382309198617
 20
172.0632342206554
 11
2.168404344971009E-16
 21
0.2142222010113179
 40
0.7002075382097077
 50
35.00000000000588
 51
90.00000000000006
 73
     1
 97
        0
 75
     0
 76
     1
 98
        0
  0
HATCH
  5
145
330
133
100
AcDbEntity
  8
DV2_Füllung
  6
Continuous
 62
     7
100
AcDbHatch
 10
0.0
 20
0.0
 30
0.0
210
0.0
220
0.0
230
1.0
  2
SOLID
 70
     1
 71
     0
 91
        1
 92
        1
 93
        6
 72
     1
 10
135.5269785516425
 20
163.350642193687
 11
138.6619039143033
 21
163.350642193687
 72
     1
 10
138.6619039143033
 20
163.350642193687
 11
138.6507390378177
 21
163.9902775391604
 72
     1
 10
138.6507390378177
 20
163.9902775391604
 11
138.6444488493751
 21
164.3506421936869
 72
     1
 10
138.6444488493751
 20
164.3506421936869
 11
135.5444336165707
 21
164.350642193687
 72
     1
 10
135.5444336165707
 20
164.350642193687
 11
135.5381434281281
 21
163.9902775391604
 72
     1
 10
135.5381434281281
 20
163.9902775391604
 11
135.5269785516425
 21
163.350642193687
 97
        0
 75
     0
 76
     1
 98
        0
  0
HATCH
  5
146
330
133
100
AcDbEntity
  8
DV2_Füllung
  6
Continuous
 62
     7
100
AcDbHatch
 10
0.0
 20
0.0
 30
0.0
210
0.0
220
0.0
230
1.0
  2
SOLID
 70
     1
 71
     0
 91
        1
 92
        1
 93
        9
 72
     1
 10
142.4944412329729
 20
169.350642193687
 11
142.4944412329729
 21
163.9902775391604
 72
     1
 10
142.4944412329729
 20
163.9902775391604
 11
142.4944412329729
 21
163.350642193687
 72
     1
 10
142.4944412329729
 20
163.350642193687
 11
142.6444412329729
 21
163.350642193687
 72
     1
 10
142.6444412329729
 20
163.350642193687
 11
142.6444412329729
 21
163.710796933382
 72
     2
 10
143.1944178243925
 20
163.9506421936873
 40
0.6000000000003561
 50
156.437943072577
 51
179.4875292584943
 73
     0
 72
     1
 10
142.5944418243923
 20
163.9452756841863
 11
142.5944418243923
 21
167.7462679389474
 72
     2
 10
142.8944298243926
 20
167.7489511936884
 40
0.3000000000003137
 50
179.4875292603049
 51
213.561251296844
 73
     0
 72
     1
 10
142.6444412329729
 20
167.9147996310045
 11
142.6444412329729
 21
169.350642193687
 72
     1
 10
142.6444412329729
 20
169.350642193687
 11
142.4944412329729
 21
169.350642193687
 97
        0
 75
     0
 76
     1
 98
        0
  0
HATCH
  5
147
330
133
100
AcDbEntity
  8
DV2_Füllung
  6
Continuous
 62
     7
100
AcDbHatch
 10
0.0
 20
0.0
 30
0.0
210
0.0
220
0.0
230
1.0
  2
SOLID
 70
     1
 71
     0
 91
        1
 92
        1
 93
        4
 72
     1
 10
142.4944412329729
 20
169.94722780366
 11
142.4944412329729
 21
169.350642193687
 72
     1
 10
142.4944412329729
 20
169.350642193687
 11
142.5444412329729
 21
169.350642193687
 72
     1
 10
142.5444412329729
 20
169.350642193687
 11
142.5444412329729
 21
169.9183500188901
 72
     2
 10
141.8944412329729
 20
168.850642193687
 40
1.25
 50
58.66774850240515
 51
61.31459798588008
 73
     1
 97
        0
 75
     0
 76
     1
 98
        0
  0
LINE
  5
148
330
133
100
AcDbEntity
  8
D000121
  6
Continuous
 62
     7
100
AcDbLine
 10
142.494441233
 20
172.3506421937
 30
0.0
 11
142.494441233
 21
163.9902775392
 31
0.0
  0
LINE
  5
149
330
133
100
AcDbEntity
  8
D000121
  6
Continuous
 62
     7
100
AcDbLine
 10
142.494441233
 20
163.9902775392
 30
0.0
 11
142.494441233
 21
163.3506421937
 31
0.0
  0
LINE
  5
14A
330
133
100
AcDbEntity
  8
D000121
  6
Continuous
 62
     7
100
AcDbLine
 10
135.5444336166
 20
164.3506421937
 30
0.0
 11
138.6444488494
 21
164.3506421937
 31
0.0
  0
LINE
  5
14B
330
133
100
AcDbEntity
  8
D000121
  6
Continuous
 62
     7
100
AcDbLine
 10
138.644441233
 20
166.3506421937
 30
0.0
 11
135.544441233
 21
166.3506421937
 31
0.0
  0
LINE
  5
14C
330
133
100
AcDbEntity
  8
D000121
  6
Continuous
 62
     7
100
AcDbLine
 10
131.694441233
 20
163.3506421937
 30
0.0
 11
131.694441233
 21
163.9902775392
 31
0.0
  0
LINE
  5
14D
330
133
100
AcDbEntity
  8
D000121
  6
Continuous
 62
     7
100
AcDbLine
 10
131.694441233
 20
172.3506421937
 30
0.0
 11
131.694441233
 21
163.9902775392
 31
0.0
  0
LINE
  5
14E
330
133
100
AcDbEntity
  8
D000121
  6
Continuous
 62
     7
100
AcDbLine
 10
131.544441233
 20
163.3506421937
 30
0.0
 11
131.694441233
 21
163.3506421937
 31
0.0
  0
LINE
  5
14F
330
133
100
AcDbEntity
  8
D000121
  6
Continuous
 62
     7
100
AcDbLine
 10
142.494441233
 20
163.3506421937
 30
0.0
 11
142.644441233
 21
163.3506421937
 31
0.0
  0
LINE
  5
150
330
133
100
AcDbEntity
  8
D000121
  6
Continuous
 62
     7
100
AcDbLine
 10
142.494441233
 20
163.3506421937
 30
0.0
 11
138.6619039143
 21
163.3506421937
 31
0.0
  0
LINE
  5
151
330
133
100
AcDbEntity
  8
D000121
  6
Continuous
 62
     7
100
AcDbLine
 10
138.6619039143
 20
163.3506421937
 30
0.0
 11
135.5269785516
 21
163.3506421937
 31
0.0
  0
LINE
  5
152
330
133
100
AcDbEntity
  8
D000121
  6
Continuous
 62
     7
100
AcDbLine
 10
135.5269785516
 20
163.3506421937
 30
0.0
 11
131.694441233
 21
163.3506421937
 31
0.0
  0
LINE
  5
153
330
133
100
AcDbEntity
  8
D000121
  6
Continuous
 62
     7
100
AcDbLine
 10
135.544441233
 20
172.3506421937
 30
0.0
 11
135.8174600724
 21
172.3506421937
 31
0.0
  0
LINE
  5
154
330
133
100
AcDbEntity
  8
D000121
  6
Continuous
 62
     7
100
AcDbLine
 10
135.544441233
 20
172.3506421937
 30
0.0
 11
131.694441233
 21
172.3506421937
 31
0.0
  0
LINE
  5
155
330
133
100
AcDbEntity
  8
D000121
  6
Continuous
 62
     7
100
AcDbLine
 10
135.9126392845
 20
169.2147121917
 30
0.0
 11
135.544441233
 21
169.7405535051
 31
0.0
  0
LINE
  5
156
330
133
100
AcDbEntity
  8
D000121
  6
Continuous
 62
     7
100
AcDbLine
 10
135.9126392845
 20
172.2147121917
 30
0.0
 11
135.8174600724
 21
172.3506421937
 31
0.0
  0
LINE
  5
157
330
133
100
AcDbEntity
  8
D000121
  6
Continuous
 62
     7
100
AcDbLine
 10
135.544441233
 20
168.3859149363
 30
0.0
 11
135.9126392845
 21
168.9117562496
 31
0.0
  0
ELLIPSE
  5
158
330
133
100
AcDbEntity
  8
D000121
  6
Continuous
 62
     7
100
AcDbEllipse
 10
135.8065732673
 20
169.0632342207
 30
0.0
 11
0.0
 21
-0.2142222010113174
 31
0.0
210
0.0
220
0.0
230
1.0
 40
0.7002075382
 41
0.7853981633973683
 42
2.356194490192425
  0
ELLIPSE
  5
159
330
133
100
AcDbEntity
  8
D000121
  6
Continuous
 62
     7
100
AcDbEllipse
 10
135.8065732673
 20
172.0632342207
 30
0.0
 11
2.168404344971009E-15
 21
-0.214222201011317
 31
0.0
210
0.0
220
0.0
230
1.0
 40
0.7002075382
 41
1.570796326794889
 42
2.356194490192232
  0
LINE
  5
15A
330
133
100
AcDbEntity
  8
D000121
  6
Continuous
 62
     7
100
AcDbLine
 10
135.544441233
 20
169.7405535051
 30
0.0
 11
135.544441233
 21
172.3506421937
 31
0.0
  0
LINE
  5
15B
330
133
100
AcDbEntity
  8
D000121
  6
Continuous
 62
     7
100
AcDbLine
 10
138.3714223935
 20
172.3506421937
 30
0.0
 11
138.644441233
 21
172.3506421937
 31
0.0
  0
LINE
  5
15C
330
133
100
AcDbEntity
  8
D000121
  6
Continuous
 62
     7
100
AcDbLine
 10
142.494441233
 20
172.3506421937
 30
0.0
 11
138.644441233
 21
172.3506421937
 31
0.0
  0
LINE
  5
15D
330
133
100
AcDbEntity
  8
D000121
  6
Continuous
 62
     7
100
AcDbLine
 10
138.644441233
 20
169.7405535051
 30
0.0
 11
138.2762431814
 21
169.2147121917
 31
0.0
  0
LINE
  5
15E
330
133
100
AcDbEntity
  8
D000121
  6
Continuous
 62
     7
100
AcDbLine
 10
138.3714223935
 20
172.3506421937
 30
0.0
 11
138.2762431814
 21
172.2147121917
 31
0.0
  0
LINE
  5
15F
330
133
100
AcDbEntity
  8
D000121
  6
Continuous
 62
     7
100
AcDbLine
 10
138.2762431814
 20
168.9117562496
 30
0.0
 11
138.644441233
 21
168.3859149363
 31
0.0
  0
ELLIPSE
  5
160
330
133
100
AcDbEntity
  8
D000121
  6
Continuous
 62
     7
100
AcDbEllipse
 10
138.3823091986
 20
169.0632342207
 30
0.0
 11
-2.168404344971009E-16
 21
0.2142222010113174
 31
0.0
210
0.0
220
0.0
230
1.0
 40
0.7002075382
 41
0.7853981633973683
 42
2.356194490192424
  0
ELLIPSE
  5
161
330
133
100
AcDbEntity
  8
D000121
  6
Continuous
 62
     7
100
AcDbEllipse
 10
138.3823091986
 20
172.0632342207
 30
0.0
 11
2.168404344971009E-16
 21
0.2142222010113179
 31
0.0
210
0.0
220
0.0
230
1.0
 40
0.7002075382
 41
0.7853981633975593
 42
1.570796326794897
  0
LINE
  5
162
330
133
100
AcDbEntity
  8
D000121
  6
Continuous
 62
     7
100
AcDbLine
 10
138.644441233
 20
172.3506421937
 30
0.0
 11
138.644441233
 21
169.7405535051
 31
0.0
  0
LINE
  5
163
330
133
100
AcDbEntity
  8
D000121
  6
Continuous
 62
     7
100
AcDbLine
 10
138.6507390378
 20
163.9902775392
 30
0.0
 11
138.6444488494
 21
164.3506421937
 31
0.0
  0
LINE
  5
164
330
133
100
AcDbEntity
  8
D000121
  6
Continuous
 62
     7
100
AcDbLine
 10
138.644441233
 20
168.3859149363
 30
0.0
 11
138.644441233
 21
166.3506421937
 31
0.0
  0
LINE
  5
165
330
133
100
AcDbEntity
  8
D000121
  6
Continuous
 62
     7
100
AcDbLine
 10
135.544441233
 20
166.3506421937
 30
0.0
 11
135.544441233
 21
168.3859149363
 31
0.0
  0
LINE
  5
166
330
133
100
AcDbEntity
  8
D000121
  6
Continuous
 62
     7
100
AcDbLine
 10
135.5444336166
 20
164.3506421937
 30
0.0
 11
135.5381434281
 21
163.9902775392
 31
0.0
  0
LINE
  5
167
330
133
100
AcDbEntity
  8
D000121
  6
Continuous
 62
     7
100
AcDbLine
 10
135.5381434281
 20
163.9902775392
 30
0.0
 11
135.5269785516
 21
163.3506421937
 31
0.0
  0
LINE
  5
168
330
133
100
AcDbEntity
  8
D000121
  6
Continuous
 62
     7
100
AcDbLine
 10
138.6619039143
 20
163.3506421937
 30
0.0
 11
138.6507390378
 21
163.9902775392
 31
0.0
  0
LINE
  5
169
330
133
100
AcDbEntity
  8
D000121
  6
Continuous
 62
     7
100
AcDbLine
 10
135.9565732673
 20
169.3506421937
 30
0.0
 11
138.2323091986
 21
169.3506421937
 31
0.0
  0
LINE
  5
16A
330
133
100
AcDbEntity
  8
D000121
  6
Continuous
 62
     7
100
AcDbLine
 10
131.544441233
 20
169.3506421937
 30
0.0
 11
131.694441233
 21
169.3506421937
 31
0.0
  0
LINE
  5
16B
330
133
100
AcDbEntity
  8
D000121
  6
Continuous
 62
     7
100
AcDbLine
 10
142.494441233
 20
169.3506421937
 30
0.0
 11
142.644441233
 21
169.3506421937
 31
0.0
  0
LINE
  5
16C
330
133
100
AcDbEntity
  8
D000121
  6
Continuous
 62
     7
100
AcDbLine
 10
142.644441233
 20
169.3506421937
 30
0.0
 11
142.644441233
 21
167.914799631
 31
0.0
  0
LINE
  5
16D
330
133
100
AcDbEntity
  8
D000121
  6
Continuous
 62
     7
100
AcDbLine
 10
142.644441233
 20
163.7107969334
 30
0.0
 11
142.644441233
 21
163.3506421937
 31
0.0
  0
LINE
  5
16E
330
133
100
AcDbEntity
  8
D000121
  6
Continuous
 62
     7
100
AcDbLine
 10
131.544441233
 20
169.3506421937
 30
0.0
 11
131.544441233
 21
167.914799631
 31
0.0
  0
LINE
  5
16F
330
133
100
AcDbEntity
  8
D000121
  6
Continuous
 62
     7
100
AcDbLine
 10
131.544441233
 20
163.7107969334
 30
0.0
 11
131.544441233
 21
163.3506421937
 31
0.0
  0
LINE
  5
170
330
133
100
AcDbEntity
  8
D000121
  6
Continuous
 62
     7
100
AcDbLine
 10
135.9565732673
 20
169.0632342207
 30
0.0
 11
135.9565732673
 21
172.0632342207
 31
0.0
  0
LINE
  5
171
330
133
100
AcDbEntity
  8
D000121
  6
Continuous
 62
     7
100
AcDbLine
 10
138.2323091986
 20
172.0632342207
 30
0.0
 11
138.2323091986
 21
169.0632342207
 31
0.0
  0
LINE
  5
172
330
133
100
AcDbEntity
  8
D000122
  6
Continuous
 62
     7
100
AcDbLine
 10
135.094441233
 20
175.8506421937
 30
0.0
 11
135.094441233
 21
176.3506421937
 31
0.0
  0
LINE
  5
173
330
133
100
AcDbEntity
  8
D000122
  6
Continuous
 62
     7
100
AcDbLine
 10
139.094441233
 20
176.3506421937
 30
0.0
 11
139.094441233
 21
175.8506421937
 31
0.0
  0
ELLIPSE
  5
174
330
133
100
AcDbEntity
  8
D000122
  6
Continuous
 62
     7
100
AcDbEllipse
 10
136.1797534268
 20
175.3506421937
 30
0.0
 11
2.168404344971009E-16
 21
-0.5000000000000004
 31
0.0
210
0.0
220
0.0
230
1.0
 40
0.3057306815
 41
1.919862177193763
 42
3.141592653589793
  0
LINE
  5
175
330
133
100
AcDbEntity
  8
D000122
  6
Continuous
 62
     7
100
AcDbLine
 10
133.5445450021
 20
175.8506421937
 30
0.0
 11
136.1797534268
 21
175.8506421937
 31
0.0
  0
ARC
  5
176
330
133
100
AcDbEntity
  8
D000122
  6
Continuous
 62
     7
100
AcDbCircle
 10
133.5445450021
 20
175.3506421937
 30
0.0
 40
0.5000000000000022
100
AcDbArc
 50
90.0
 51
160.0
  0
LINE
  5
177
330
133
100
AcDbEntity
  8
D000122
  6
Continuous
 62
     7
100
AcDbLine
 10
136.282405013
 20
175.890056294
 30
0.0
 11
136.3233998594
 21
175.5216522653
 31
0.0
  0
ELLIPSE
  5
178
330
133
100
AcDbEntity
  8
D000122
  6
Continuous
 62
     7
100
AcDbEllipse
 10
136.0813000073
 20
175.6506421937
 30
0.0
 11
-1.517883041479706E-15
 21
-0.7000000000000079
 31
0.0
210
0.0
220
0.0
230
1.0
 40
0.3057306815
 41
1.919862177193794
 42
3.141592653589793
  0
LINE
  5
179
330
133
100
AcDbEntity
  8
D000122
  6
Continuous
 62
     7
100
AcDbLine
 10
136.0813000073
 20
176.3506421937
 30
0.0
 11
135.094441233
 21
176.3506421937
 31
0.0
  0
LINE
  5
17A
330
133
100
AcDbEntity
  8
D000122
  6
Continuous
 62
     7
100
AcDbLine
 10
136.0813000073
 20
176.3506421937
 30
0.0
 11
138.1075824586
 21
176.3506421937
 31
0.0
  0
LINE
  5
17B
330
133
100
AcDbEntity
  8
D000122
  6
Continuous
 62
     7
100
AcDbLine
 10
139.094441233
 20
176.3506421937
 30
0.0
 11
138.1075824586
 21
176.3506421937
 31
0.0
  0
LINE
  5
17C
330
133
100
AcDbEntity
  8
D000122
  6
Continuous
 62
     7
100
AcDbLine
 10
138.0091290392
 20
175.8506421937
 30
0.0
 11
140.6443374639
 21
175.8506421937
 31
0.0
  0
LINE
  5
17D
330
133
100
AcDbEntity
  8
D000122
  6
Continuous
 62
     7
100
AcDbLine
 10
142.544441233
 20
169.3506421937
 30
0.0
 11
142.544441233
 21
169.9183500189
 31
0.0
  0
ARC
  5
17E
330
133
100
AcDbEntity
  8
D000122
  6
Continuous
 62
     7
100
AcDbCircle
 10
141.894441233
 20
168.8506421937
 30
0.0
 40
1.25
100
AcDbArc
 50
58.6677485024
 51
61.3145979859
  0
LINE
  5
17F
330
133
100
AcDbEntity
  8
D000122
  6
Continuous
 62
     7
100
AcDbLine
 10
138.2323091986
 20
171.7294260645
 30
0.0
 11
135.9565732673
 21
171.7294260645
 31
0.0
  0
ARC
  5
180
330
133
100
AcDbEntity
  8
D000122
  6
Continuous
 62
     7
100
AcDbCircle
 10
132.294441233
 20
168.8506421937
 30
0.0
 40
1.25
100
AcDbArc
 50
118.6854020141
 51
121.3322514976
  0
LINE
  5
181
330
133
100
AcDbEntity
  8
D000122
  6
Continuous
 62
     7
100
AcDbLine
 10
131.644441233
 20
169.9183500189
 30
0.0
 11
131.644441233
 21
169.3506421937
 31
0.0
  0
ELLIPSE
  5
182
330
133
100
AcDbEntity
  8
D000122
  6
Continuous
 62
     7
100
AcDbEllipse
 10
138.0091290392
 20
175.3506421937
 30
0.0
 11
1.084202172485504E-16
 21
0.5000000000000022
 31
0.0
210
0.0
220
0.0
230
1.0
 40
0.3057306815
 41
0.0
 42
1.221730476396032
  0
ARC
  5
183
330
133
100
AcDbEntity
  8
D000122
  6
Continuous
 62
     7
100
AcDbCircle
 10
140.6443374639
 20
175.3506421937
 30
0.0
 40
0.5000000000000022
100
AcDbArc
 50
20.0
 51
90.0
  0
LINE
  5
184
330
133
100
AcDbEntity
  8
D000122
  6
Continuous
 62
     7
100
AcDbLine
 10
137.9064774529
 20
175.890056294
 30
0.0
 11
137.8654826065
 21
175.5216522653
 31
0.0
  0
LINE
  5
185
330
133
100
AcDbEntity
  8
D000122
  6
Continuous
 62
     7
100
AcDbLine
 10
133.0746986917
 20
175.5216522653
 30
0.0
 11
131.920545413
 21
172.3506421937
 31
0.0
  0
LINE
  5
186
330
133
100
AcDbEntity
  8
D000122
  6
Continuous
 62
     7
100
AcDbLine
 10
142.2683370529
 20
172.3506421937
 30
0.0
 11
141.1141837743
 21
175.5216522653
 31
0.0
  0
ARC
  5
187
330
133
100
AcDbEntity
  8
D000122
  6
Continuous
 62
     7
100
AcDbCircle
 10
132.294441233
 20
168.8506421937
 30
0.0
 40
1.25
100
AcDbArc
 50
121.3322514976
 51
136.8374222197
  0
ARC
  5
188
330
133
100
AcDbEntity
  8
D000122
  6
Continuous
 62
     7
100
AcDbCircle
 10
132.294441233
 20
168.8506421937
 30
0.0
 40
1.25
100
AcDbArc
 50
153.3964997245
 51
206.6047327852
  0
ARC
  5
189
330
133
100
AcDbEntity
  8
D000122
  6
Continuous
 62
     7
100
AcDbCircle
 10
141.894441233
 20
168.8506421937
 30
0.0
 40
1.25
100
AcDbArc
 50
333.3952672148
 51
26.6035002754
  0
ARC
  5
18A
330
133
100
AcDbEntity
  8
D000122
  6
Continuous
 62
     7
100
AcDbCircle
 10
141.894441233
 20
168.8506421937
 30
0.0
 40
1.25
100
AcDbArc
 50
43.1625777803
 51
58.6677485024
  0
ELLIPSE
  5
18B
330
133
100
AcDbEntity
  8
D000122
  6
Continuous
 62
     7
100
AcDbEllipse
 10
138.1075824586
 20
175.6506421937
 30
0.0
 11
2.168404344971009E-16
 21
0.6999999999999993
 31
0.0
210
0.0
220
0.0
230
1.0
 40
0.3057306815
 41
0.0
 42
1.221730476396039
  0
ARC
  5
18C
330
133
100
AcDbEntity
  8
D000134
  6
Continuous
 62
     7
100
AcDbCircle
 10
137.0944406416
 20
175.3506361937
 30
0.0
 40
12.00000040743075
100
AcDbArc
 50
305.4058366394
 51
234.5941679638
  0
ARC
  5
18D
330
133
100
AcDbEntity
  8
D000134
  6
Continuous
 62
     7
100
AcDbCircle
 10
144.3944298244
 20
165.0807691937
 30
0.0
 40
0.6000000000000437
100
AcDbArc
 50
125.4058320362
 51
180.5124707405
  0
LINE
  5
18E
330
133
100
AcDbEntity
  8
D000134
  6
Continuous
 62
     7
100
AcDbLine
 10
143.7944178241
 20
163.9506229896
 30
0.0
 11
143.7944538244
 21
165.0754026842
 31
0.0
  0
ARC
  5
18F
330
133
100
AcDbEntity
  8
D000134
  6
Continuous
 62
     7
100
AcDbCircle
 10
143.1944178244
 20
163.9506421937
 30
0.0
 40
0.6000000000003561
100
AcDbArc
 50
180.5124707415
 51
359.9981661446
  0
LINE
  5
190
330
133
100
AcDbEntity
  8
D000134
  6
Continuous
 62
     7
100
AcDbLine
 10
142.5944418244
 20
167.7462679389
 30
0.0
 11
142.5944418244
 21
163.9452756842
 31
0.0
  0
ARC
  5
191
330
133
100
AcDbEntity
  8
D000134
  6
Continuous
 62
     7
100
AcDbCircle
 10
142.8944298244
 20
167.7489511937
 30
0.0
 40
0.3000000000003137
100
AcDbArc
 50
134.2238883076
 51
180.5124707397
  0
LINE
  5
192
330
133
100
AcDbEntity
  8
D000134
  6
Continuous
 62
     7
100
AcDbLine
 10
143.2890347628
 20
168.5678007073
 30
0.0
 11
142.6851906413
 21
167.9639371567
 31
0.0
  0
ARC
  5
193
330
133
100
AcDbEntity
  8
D000134
  6
Continuous
 62
     7
100
AcDbCircle
 10
143.0061848244
 20
168.8506361937
 30
0.0
 40
0.3999919212095952
100
AcDbArc
 50
315.0014637844
 51
44.9985362155
  0
LINE
  5
194
330
133
100
AcDbEntity
  8
D000134
  6
Continuous
 62
     7
100
AcDbLine
 10
142.8917645845
 20
169.5307507322
 30
0.0
 11
143.2890290501
 21
169.1334659676
 31
0.0
  0
ARC
  5
195
330
133
100
AcDbEntity
  8
D000134
  6
Continuous
 62
     7
100
AcDbCircle
 10
143.1039020383
 20
169.742877347
 30
0.0
 40
0.299999999999967
100
AcDbArc
 50
90.0
 51
224.9985362155
  0
LINE
  5
196
330
133
100
AcDbEntity
  8
D000134
  6
Continuous
 62
     7
100
AcDbLine
 10
143.9938131518
 20
170.042877347
 30
0.0
 11
143.1039020383
 21
170.042877347
 31
0.0
  0
ARC
  5
197
330
133
100
AcDbEntity
  8
D000134
  6
Continuous
 62
     7
100
AcDbCircle
 10
143.9938131518
 20
169.842877347
 30
0.0
 40
0.1999999999997303
100
AcDbArc
 50
45.0004392743
 51
90.0
  0
LINE
  5
198
330
133
100
AcDbEntity
  8
D000134
  6
Continuous
 62
     7
100
AcDbLine
 10
145.0356757516
 20
169.0838712665
 30
0.0
 11
144.1352334237
 21
169.9842997875
 31
0.0
  0
ARC
  5
199
330
133
100
AcDbEntity
  8
D000134
  6
Continuous
 62
     7
100
AcDbCircle
 10
145.4572348244
 20
169.5108231937
 30
0.0
 40
0.5999947970162156
100
AcDbArc
 50
225.3641480641
 51
325.073107
  0
ARC
  5
19A
330
133
100
AcDbEntity
  8
D000134
  6
Continuous
 62
     7
100
AcDbCircle
 10
137.0944258107
 20
175.3506370093
 30
0.0
 40
10.7999947970106
100
AcDbArc
 50
325.073107
 51
27.3501239876
  0
ARC
  5
19B
330
133
100
AcDbEntity
  8
D000134
  6
Continuous
 62
     7
100
AcDbCircle
 10
145.7989345879
 20
179.8530169322
 30
0.0
 40
0.9999999999995511
100
AcDbArc
 50
27.3501239876
 51
32.2759314813
  0
ARC
  5
19C
330
133
100
AcDbEntity
  8
D000134
  6
Continuous
 62
     7
100
AcDbCircle
 10
137.0944112116
 20
174.3553621911
 30
0.0
 40
11.29528702178913
100
AcDbArc
 50
32.2759314813
 51
34.5346925102
  0
ARC
  5
19D
330
133
100
AcDbEntity
  8
D000134
  6
Continuous
 62
     7
100
AcDbCircle
 10
145.575494458
 20
180.1918133242
 30
0.0
 40
1.000000000008058
100
AcDbArc
 50
34.5346925102
 51
160.0000000002
  0
LINE
  5
19E
330
133
100
AcDbEntity
  8
D000134
  6
Continuous
 62
     7
100
AcDbLine
 10
143.7251533184
 20
178.0318472251
 30
0.0
 11
144.6358018372
 21
180.5338334675
 31
0.0
  0
ARC
  5
19F
330
133
100
AcDbEntity
  8
D000134
  6
Continuous
 62
     7
100
AcDbCircle
 10
144.1949996288
 20
177.8608371535
 30
0.0
 40
0.500000000000167
100
AcDbArc
 50
160.0000000002
 51
180.0
  0
LINE
  5
1A0
330
133
100
AcDbEntity
  8
D000134
  6
Continuous
 62
     7
100
AcDbLine
 10
143.6949996288
 20
175.1606941881
 30
0.0
 11
143.6949996288
 21
177.8608371535
 31
0.0
  0
ARC
  5
1A1
330
133
100
AcDbEntity
  8
D000134
  6
Continuous
 62
     7
100
AcDbCircle
 10
143.4949996288
 20
175.1606941881
 30
0.0
 40
0.2000000000003172
100
AcDbArc
 50
330.0000281344
 51
0.0
  0
LINE
  5
1A2
330
133
100
AcDbEntity
  8
D000134
  6
Continuous
 62
     7
100
AcDbLine
 10
142.9805577006
 20
173.8696532802
 30
0.0
 11
143.6682047587
 21
175.0606942731
 31
0.0
  0
ARC
  5
1A3
330
133
100
AcDbEntity
  8
D000134
  6
Continuous
 62
     7
100
AcDbCircle
 10
142.4637646416
 20
174.1744891937
 30
0.0
 40
0.5999999995858931
100
AcDbArc
 50
150.002125931
 51
329.4653160855
  0
LINE
  5
1A4
330
133
100
AcDbEntity
  8
D000134
  6
Continuous
 62
     7
100
AcDbLine
 10
142.4305392695
 20
175.3170133549
 30
0.0
 11
141.9441382687
 21
174.4744699132
 31
0.0
  0
ARC
  5
1A5
330
133
100
AcDbEntity
  8
D000134
  6
Continuous
 62
     7
100
AcDbCircle
 10
141.9950756285
 20
175.5626468179
 30
0.0
 40
0.4999643740086429
100
AcDbArc
 50
330.5738105858
 51
89.9844737306
  0
LINE
  5
1A6
330
133
100
AcDbEntity
  8
D000134
  6
Continuous
 62
     7
100
AcDbLine
 10
140.1942247486
 20
176.0630992087
 30
0.0
 11
141.9952111111
 21
176.0626111735
 31
0.0
  0
ARC
  5
1A7
330
133
100
AcDbEntity
  8
D000134
  6
Continuous
 62
     7
100
AcDbCircle
 10
140.1943873401
 20
176.6631021878
 30
0.0
 40
0.6000030010745527
100
AcDbArc
 50
89.9912672171
 51
269.9844737306
  0
ARC
  5
1A8
330
133
100
AcDbEntity
  8
D000134
  6
Continuous
 62
     7
100
AcDbCircle
 10
140.1944788244
 20
176.6631051937
 30
0.0
 40
0.5999999882027063
100
AcDbArc
 50
88.8780224314
 51
90.0000032802
  0
LINE
  5
1A9
330
133
100
AcDbEntity
  8
D000134
  6
Continuous
 62
     7
100
AcDbLine
 10
141.8179564105
 20
177.262636071
 30
0.0
 11
140.2062273949
 21
177.2629901468
 31
0.0
  0
ARC
  5
1AA
330
133
100
AcDbEntity
  8
D000134
  6
Continuous
 62
     7
100
AcDbCircle
 10
141.818066254
 20
177.762636059
 30
0.0
 40
0.4999999999995162
100
AcDbArc
 50
269.9874128687
 51
340.0
  0
LINE
  5
1AB
330
133
100
AcDbEntity
  8
D000134
  6
Continuous
 62
     7
100
AcDbLine
 10
144.1586431266
 20
182.731415965
 30
0.0
 11
142.2879125644
 21
177.5916259873
 31
0.0
  0
ARC
  5
1AC
330
133
100
AcDbEntity
  8
D000134
  6
Continuous
 62
     7
100
AcDbCircle
 10
143.6887968162
 20
182.9024260366
 30
0.0
 40
0.4999999999985146
100
AcDbArc
 50
340.0
 51
52.3484444615
  0
ARC
  5
1AD
330
133
100
AcDbEntity
  8
D000134
  6
Continuous
 62
     7
100
AcDbCircle
 10
137.0944112116
 20
174.3553621911
 30
0.0
 40
11.2952870217907
100
AcDbArc
 50
52.3484444616
 51
89.9998467364
  0
ARC
  5
1AE
330
133
100
AcDbEntity
  8
D000134
  6
Continuous
 62
     7
100
AcDbCircle
 10
137.0944712544
 20
174.3553621911
 30
0.0
 40
11.29528702178934
100
AcDbArc
 50
90.0001513056
 51
127.6515555384
  0
ARC
  5
1AF
330
133
100
AcDbEntity
  8
D000134
  6
Continuous
 62
     7
100
AcDbCircle
 10
130.5000856497
 20
182.9024260366
 30
0.0
 40
0.4999999999983561
100
AcDbArc
 50
127.6515555384
 51
200.0
  0
LINE
  5
1B0
330
133
100
AcDbEntity
  8
D000134
  6
Continuous
 62
     7
100
AcDbLine
 10
131.9009699016
 20
177.5916259873
 30
0.0
 11
130.0302393393
 21
182.731415965
 31
0.0
  0
ARC
  5
1B1
330
133
100
AcDbEntity
  8
D000134
  6
Continuous
 62
     7
100
AcDbCircle
 10
132.370816212
 20
177.762636059
 30
0.0
 40
0.4999999999998448
100
AcDbArc
 50
200.0
 51
270.0125871313
  0
LINE
  5
1B2
330
133
100
AcDbEntity
  8
D000134
  6
Continuous
 62
     7
100
AcDbLine
 10
133.9826550711
 20
177.2629901468
 30
0.0
 11
132.3709260554
 21
177.262636071
 31
0.0
  0
ARC
  5
1B3
330
133
100
AcDbEntity
  8
D000134
  6
Continuous
 62
     7
100
AcDbCircle
 10
133.9944036415
 20
176.6631051937
 30
0.0
 40
0.5999999882019448
100
AcDbArc
 50
89.9999975241
 51
91.1219775671
  0
ARC
  5
1B4
330
133
100
AcDbEntity
  8
D000134
  6
Continuous
 62
     7
100
AcDbCircle
 10
133.9944951258
 20
176.6631021878
 30
0.0
 40
0.6000029968661299
100
AcDbArc
 50
270.0155262695
 51
90.0087335872
  0
LINE
  5
1B5
330
133
100
AcDbEntity
  8
D000134
  6
Continuous
 62
     7
100
AcDbLine
 10
132.1936713549
 20
176.0626111791
 30
0.0
 11
133.9946577174
 21
176.0630992129
 31
0.0
  0
ARC
  5
1B6
330
133
100
AcDbEntity
  8
D000134
  6
Continuous
 62
     7
100
AcDbCircle
 10
132.1938068375
 20
175.5626468179
 30
0.0
 40
0.4999643795539036
100
AcDbArc
 50
90.0155262694
 51
209.4261894167
  0
LINE
  5
1B7
330
133
100
AcDbEntity
  8
D000134
  6
Continuous
 62
     7
100
AcDbLine
 10
132.2447441977
 20
174.4744699134
 30
0.0
 11
131.7583431964
 21
175.3170133549
 31
0.0
  0
ARC
  5
1B8
330
133
100
AcDbEntity
  8
D000134
  6
Continuous
 62
     7
100
AcDbCircle
 10
131.7251178244
 20
174.1744891937
 30
0.0
 40
0.5999999999990737
100
AcDbArc
 50
210.5346839138
 51
29.997874069
  0
LINE
  5
1B9
330
133
100
AcDbEntity
  8
D000134
  6
Continuous
 62
     7
100
AcDbLine
 10
130.5206777073
 20
175.0606942731
 30
0.0
 11
131.2083247654
 21
173.8696532802
 31
0.0
  0
ARC
  5
1BA
330
133
100
AcDbEntity
  8
D000134
  6
Continuous
 62
     7
100
AcDbCircle
 10
130.6938828371
 20
175.1606941881
 30
0.0
 40
0.199999999999978
100
AcDbArc
 50
179.9999999999
 51
209.9999718657
  0
LINE
  5
1BB
330
133
100
AcDbEntity
  8
D000134
  6
Continuous
 62
     7
100
AcDbLine
 10
130.4938828371
 20
177.8608371535
 30
0.0
 11
130.4938828371
 21
175.1606941881
 31
0.0
  0
ARC
  5
1BC
330
133
100
AcDbEntity
  8
D000134
  6
Continuous
 62
     7
100
AcDbCircle
 10
129.9938828371
 20
177.8608371535
 30
0.0
 40
0.4999999999999508
100
AcDbArc
 50
0.0
 51
20.0
  0
LINE
  5
1BD
330
133
100
AcDbEntity
  8
D000134
  6
Continuous
 62
     7
100
AcDbLine
 10
129.5530806288
 20
180.5338334675
 30
0.0
 11
130.4637291475
 21
178.0318472251
 31
0.0
  0
ARC
  5
1BE
330
133
100
AcDbEntity
  8
D000134
  6
Continuous
 62
     7
100
AcDbCircle
 10
128.613388008
 20
180.1918133242
 30
0.0
 40
1.000000000007727
100
AcDbArc
 50
20.0
 51
145.4653074898
  0
ARC
  5
1BF
330
133
100
AcDbEntity
  8
D000134
  6
Continuous
 62
     7
100
AcDbCircle
 10
137.0944712544
 20
174.3553621911
 30
0.0
 40
11.29528702178826
100
AcDbArc
 50
145.4653074898
 51
147.7240685187
  0
ARC
  5
1C0
330
133
100
AcDbEntity
  8
D000134
  6
Continuous
 62
     7
100
AcDbCircle
 10
128.3899478781
 20
179.8530169322
 30
0.0
 40
0.9999999999993363
100
AcDbArc
 50
147.7240685187
 51
152.6498760124
  0
ARC
  5
1C1
330
133
100
AcDbEntity
  8
D000134
  6
Continuous
 62
     7
100
AcDbCircle
 10
137.0944566552
 20
175.3506370093
 30
0.0
 40
10.80000000000504
100
AcDbArc
 50
152.6498760124
 51
214.926893
  0
ARC
  5
1C2
330
133
100
AcDbEntity
  8
D000134
  6
Continuous
 62
     7
100
AcDbCircle
 10
128.7316476416
 20
169.5108231937
 30
0.0
 40
0.6000000000003635
100
AcDbArc
 50
214.926893
 51
314.6358519375
  0
LINE
  5
1C3
330
133
100
AcDbEntity
  8
D000134
  6
Continuous
 62
     7
100
AcDbLine
 10
130.0536490422
 20
169.9842997875
 30
0.0
 11
129.1532067144
 21
169.0838712665
 31
0.0
  0
ARC
  5
1C4
330
133
100
AcDbEntity
  8
D000134
  6
Continuous
 62
     7
100
AcDbCircle
 10
130.1950693142
 20
169.842877347
 30
0.0
 40
0.199999999999978
100
AcDbArc
 50
90.0
 51
134.9995607257
  0
LINE
  5
1C5
330
133
100
AcDbEntity
  8
D000134
  6
Continuous
 62
     7
100
AcDbLine
 10
131.0849804276
 20
170.042877347
 30
0.0
 11
130.1950693142
 21
170.042877347
 31
0.0
  0
ARC
  5
1C6
330
133
100
AcDbEntity
  8
D000134
  6
Continuous
 62
     7
100
AcDbCircle
 10
131.0849804276
 20
169.742877347
 30
0.0
 40
0.3000000000004433
100
AcDbArc
 50
315.0014637844
 51
90.0
  0
LINE
  5
1C7
330
133
100
AcDbEntity
  8
D000134
  6
Continuous
 62
     7
100
AcDbLine
 10
130.8998477031
 20
169.13347168
 30
0.0
 11
131.2971178814
 21
169.5307507322
 31
0.0
  0
ARC
  5
1C8
330
133
100
AcDbEntity
  8
D000134
  6
Continuous
 62
     7
100
AcDbCircle
 10
131.1826976416
 20
168.8506361937
 30
0.0
 40
0.3999919212110144
100
AcDbArc
 50
135.0014637844
 51
224.9985362156
  0
LINE
  5
1C9
330
133
100
AcDbEntity
  8
D000134
  6
Continuous
 62
     7
100
AcDbLine
 10
131.5036918246
 20
167.9639371567
 30
0.0
 11
130.8998534159
 21
168.5678064198
 31
0.0
  0
ARC
  5
1CA
330
133
100
AcDbEntity
  8
D000134
  6
Continuous
 62
     7
100
AcDbCircle
 10
131.2944526416
 20
167.7489511937
 30
0.0
 40
0.3000000000001758
100
AcDbArc
 50
359.4875292633
 51
45.7761116949
  0
LINE
  5
1CB
330
133
100
AcDbEntity
  8
D000134
  6
Continuous
 62
     7
100
AcDbLine
 10
131.5944406416
 20
163.9452756842
 30
0.0
 11
131.5944406416
 21
167.746267939
 31
0.0
  0
ARC
  5
1CC
330
133
100
AcDbEntity
  8
D000134
  6
Continuous
 62
     7
100
AcDbCircle
 10
130.9944646416
 20
163.9506421937
 30
0.0
 40
0.5999999996926036
100
AcDbArc
 50
180.0018338554
 51
359.4875292609
  0
LINE
  5
1CD
330
133
100
AcDbEntity
  8
D000134
  6
Continuous
 62
     7
100
AcDbLine
 10
130.3944286416
 20
165.0754026842
 30
0.0
 11
130.3944646422
 21
163.9506229896
 31
0.0
  0
ARC
  5
1CE
330
133
100
AcDbEntity
  8
D000134
  6
Continuous
 62
     7
100
AcDbCircle
 10
129.7944526416
 20
165.0807691937
 30
0.0
 40
0.5999997221363922
100
AcDbArc
 50
359.4875292585
 51
54.5941679638
  0
LINE
  5
1D0
330
133
100
AcDbEntity
  8
DV2_Standard
  6
CENTER2
 62
     7
100
AcDbLine
 10
137.094441233
 20
159.8506421937
 30
0.0
 11
137.094441233
 21
169.8506421937
 31
0.0
  0
ENDBLK
  5
1D2
330
133
100
AcDbEntity
  8
0
100
AcDbBlockEnd
  0
ENDSEC
  0
SECTION
  2
ENTITIES
  0
INSERT
  5
60
330
1F
100
AcDbEntity
  8
Standard
100
AcDbBlockReference
  2
SE
 10
0.0
 20
0.0
 30
0.0
  0
DIMENSION
  5
115
330
1F
100
AcDbEntity
  8
Standard
  6
Continuous
 62
     7
100
AcDbDimension
  2
DMBLK418
 10
68.7543415653
 20
155.4512115896
 30
0.0
 11
75.4543362374
 21
155.4512115896
 31
0.0
 70
   161
  1
\A1;<>
 71
     5
 42
-1.0
 73
     0
 74
     0
 75
     0
  3
E-Katalog
100
AcDbAlignedDimension
 13
68.7543415653
 23
164.5130128369
 33
0.0
 14
82.1543307477
 24
164.5130128369
 34
0.0
  0
DIMENSION
  5
11F
330
1F
100
AcDbEntity
  8
Standard
  6
Continuous
 62
     7
100
AcDbDimension
  2
DMBLK419
 10
75.454335565
 20
175.3506361937
 30
0.0
 11
87.8175963719
 21
185.1843540147
 31
0.0
 70
   164
  1
\A1;<>
 71
     5
 42
-1.0
 73
     0
 74
     0
 75
     0
  3
E-Katalog
100
AcDbRadialDimension
 15
84.8458054329
 25
182.8205962671
 35
0.0
 40
0.0
1001
ACAD
1000
DSTYLE
1002
{
1070
   271
1070
     2
1070
   283
1070
     1
1070
     0
1002
}
  0
DIMENSION
  5
127
330
1F
100
AcDbEntity
  8
Standard
  6
Continuous
 62
     7
100
AcDbDimension
  2
DMBLK420
 10
57.3406551965
 20
187.3506366011
 30
0.0
 11
57.3406551965
 21
175.3506426675
 31
0.0
 70
   160
  1
\A1;<>{\H0.7x; \S+4^ 0;}
 71
     5
 42
-1.0
 73
     0
 74
     0
 75
     0
  3
E-Katalog
100
AcDbAlignedDimension
 13
69.3516858853
 23
163.3506481512
 33
0.0
 14
75.4543350829
 24
187.3506366011
 34
0.0
 50
90.0
100
AcDbRotatedDimension
1001
ACAD
1000
DSTYLE
1002
{
1070
   271
1070
     2
1070
     0
1002
}
  0
INSERT
  5
134
330
1F
100
AcDbEntity
  8
Standard
100
AcDbBlockReference
  2
SE1
 10
0.0
 20
0.0
 30
0.0
  0
MTEXT
  5
1D4
330
1F
100
AcDbEntity
  8
Default
100
AcDbMText
 10
139.6221177889
 20
28.161474171
 30
0.0
 40
2.5
 41
60.0887616677
 46
5.4782708696
 71
     4
 72
     1
  1
{\fSolid Edge ISO|b0||i0||c0|p34;\C7;\H2.5;\W1.;BU24K+}
 73
     1
 44
1.0
1001
ACAD
1000
ACAD_MTEXT_DEFINED_HEIGHT_BEGIN
1070
    46
1040
5.4782708696
1000
ACAD_MTEXT_DEFINED_HEIGHT_END
  0
LINE
  5
1D5
330
1F
100
AcDbEntity
  8
Default
  6
Continuous
 62
     7
100
AcDbLine
 10
138.2000000051
 20
9.9999999541
 30
0.0
 11
138.2000000051
 21
34.3502211504
 31
0.0
  0
MTEXT
  5
1D6
330
1F
100
AcDbEntity
  8
Default
100
AcDbMText
 10
122.5168744495
 20
17.5485405285
 30
0.0
 40
2.2
 41
15.7520375387
 46
4.0615484615
 71
     1
 72
     1
  1
{\fCiutadella Regular|b0||i0||c0|p34;\C7;\H2.2;\W0.5776;Maßst.}{\fCiutadella Regular|b0||i0||c0|p34;\C7;\H1.5;\W0.5776;/ scale}
 73
     1
 44
1.0
1001
ACAD
1000
ACAD_MTEXT_DEFINED_HEIGHT_BEGIN
1070
    46
1040
4.0615484615
1000
ACAD_MTEXT_DEFINED_HEIGHT_END
  0
MTEXT
  5
1D7
330
1F
100
AcDbEntity
  8
Default
100
AcDbMText
 10
148.2238718478
 20
15.907103298
 30
0.0
 40
2.2
 41
18.1206027323
 46
4.0615484615
 71
     5
 72
     1
  1
{\fCiutadella Regular|b0||i0||c0|p34;\C7;\H2.2;\W0.5776;Art. Nr.}{\fCiutadella Regular|b0||i0||c0|p34;\C7;\H1.5;\W0.5776;/ art. no.}
 73
     1
 44
1.0
1001
ACAD
1000
ACAD_MTEXT_DEFINED_HEIGHT_BEGIN
1070
    46
1040
4.0615484615
1000
ACAD_MTEXT_DEFINED_HEIGHT_END
  0
MTEXT
  5
1D8
330
1F
100
AcDbEntity
  8
Default
100
AcDbMText
 10
139.5512791446
 20
32.9682471949
 30
0.0
 40
2.2
 41
21.7100432289
 46
4.0615484615
 71
     1
 72
     1
  1
{\fCiutadella Regular|b0||i0||c0|p34;\C7;\H2.2;\W0.82;Benennung}{\fCiutadella Regular|b0||i0||c0|p34;\C7;\H1.5;\W0.82;/ title}
 73
     1
 44
1.0
1001
ACAD
1000
ACAD_MTEXT_DEFINED_HEIGHT_BEGIN
1070
    46
1040
4.0615484615
1000
ACAD_MTEXT_DEFINED_HEIGHT_END
  0
LINE
  5
1D9
330
1F
100
AcDbEntity
  8
Default
  6
Continuous
 62
     7
100
AcDbLine
 10
9.9999999859
 20
25.9987912971
 30
0.0
 11
199.9999999859
 21
25.9987912971
 31
0.0
  0
LINE
  5
1DA
330
1F
100
AcDbEntity
  8
Default
  6
Continuous
 62
     7
100
AcDbLine
 10
138.2000000051
 20
34.3502211504
 30
0.0
 11
199.9999999859
 21
34.3502211504
 31
0.0
  0
MTEXT
  5
1DB
330
1F
100
AcDbEntity
  8
Default
100
AcDbMText
 10
139.7786414766
 20
12.1030055624
 30
0.0
 40
3.0
 41
18.7991063348
 46
5.0845858028
 71
     4
 72
     1
  1
{\fSolid Edge ISO|b0||i0||c0|p34;\C7;\H3.;\W1.;5-350}
 73
     1
 44
1.0
1001
ACAD
1000
ACAD_MTEXT_DEFINED_HEIGHT_BEGIN
1070
    46
1040
5.0845858028
1000
ACAD_MTEXT_DEFINED_HEIGHT_END
  0
MTEXT
  5
1DC
330
1F
100
AcDbEntity
  8
Standard
100
AcDbMText
 10
128.2243715112
 20
21.9523050455
 30
0.0
 40
2.5
 41
4.125011
 46
4.0909190909
 71
     1
 72
     1
  1
{\fSolid Edge ISO|b0||i0||c0|p34;\C7;\H2.5;\W1.;mm}
 73
     1
 44
1.0
1001
ACAD
1000
ACAD_MTEXT_DEFINED_HEIGHT_BEGIN
1070
    46
1040
4.0909190909
1000
ACAD_MTEXT_DEFINED_HEIGHT_END
  0
LINE
  5
1DD
330
1F
100
AcDbEntity
  8
Standard
  6
Continuous
 62
     7
100
AcDbLine
 10
138.2000000051
 20
18.2287912793
 30
0.0
 11
106.3095894048
 21
18.2287912793
 31
0.0
  0
LINE
  5
1DE
330
1F
100
AcDbEntity
  8
Standard
  6
Continuous
 62
     7
100
AcDbLine
 10
106.3095894048
 20
25.9987912971
 30
0.0
 11
106.3095894048
 21
9.9999999541
 31
0.0
  0
MTEXT
  5
1DF
330
1F
100
AcDbEntity
  8
Standard
100
AcDbMText
 10
106.9145404388
 20
25.2290846617
 30
0.0
 40
2.2
 41
14.4015494615
 46
4.0615484615
 71
     1
 72
     1
  1
{\fCiutadella Regular|b0||i0||c0|p34;\C7;\H2.2;\W0.5776;freig.}{\fCiutadella Regular|b0||i0||c0|p34;\C7;\H1.5;\W0.5776;/ appr.}
 73
     1
 44
1.0
1001
ACAD
1000
ACAD_MTEXT_DEFINED_HEIGHT_BEGIN
1070
    46
1040
4.0615484615
1000
ACAD_MTEXT_DEFINED_HEIGHT_END
  0
MTEXT
  5
1E0
330
1F
100
AcDbEntity
  8
Default
100
AcDbMText
 10
107.6188207159
 20
17.6037681847
 30
0.0
 40
2.2
 41
13.1956831311
 46
4.0615484615
 71
     1
 72
     1
  1
{\fCiutadella Regular|b0||i0||c0|p34;\C7;\H2.2;\W0.5776;Blatt}{\fCiutadella Regular|b0||i0||c0|p34;\C7;\H1.5;\W0.5776;/ sheet}
 73
     1
 44
1.0
1001
ACAD
1000
ACAD_MTEXT_DEFINED_HEIGHT_BEGIN
1070
    46
1040
4.0615484615
1000
ACAD_MTEXT_DEFINED_HEIGHT_END
  0
MTEXT
  5
1E1
330
1F
100
AcDbEntity
  8
Standard
100
AcDbMText
 10
112.0531670475
 20
14.2192192227
 30
0.0
 40
3.0
 41
3.750011
 46
4.9091009091
 71
     1
 72
     1
  1
{\fSolid Edge ISO|b0||i0||c0|p34;\C7;\H3.;\W1.;A4}
 73
     1
 44
1.0
1001
ACAD
1000
ACAD_MTEXT_DEFINED_HEIGHT_BEGIN
1070
    46
1040
4.9091009091
1000
ACAD_MTEXT_DEFINED_HEIGHT_END
  0
MTEXT
  5
1E2
330
1F
100
AcDbEntity
  8
Default
100
AcDbMText
 10
107.1395513873
 20
20.4081738308
 30
0.0
 40
2.2
 41
14.7330465525
 46
3.6
 71
     4
 72
     1
  1
{\fSolid Edge ISO|b0||i0||c0|p34;\C7;\H2.2;\W1.;02.11.2023}
 73
     1
 44
1.0
1001
ACAD
1000
ACAD_MTEXT_DEFINED_HEIGHT_BEGIN
1070
    46
1040
3.6
1000
ACAD_MTEXT_DEFINED_HEIGHT_END
  0
MTEXT
  5
1E3
330
1F
100
AcDbEntity
  8
Standard
100
AcDbMText
 10
10.6587314417
 20
33.7981133176
 30
0.0
 40
1.2
 41
127.5412685634
 46
8.1685527897
 71
     1
 72
     1
  3
{\fCiutadella Regular|b0||i0||c0|p34;\C7;\H1.2;\W0.82;Weitergabe sowie Vervielfältigung dieser vertraulichen Unterlage(n), Verwertung und Mitteilung ihres Inhalts nicht ohne unsere vorherige schriftliche Genehmigung gestattet. \P}{\fCiutadella Regula
  3
r|b0||i0||c0|p34;\C7;\H1.2;\W0.82;Zuwiderhandlungen verpflichten zu Schadenersatz. Alle Rechte für den Fall der Patenterteilung oder Gebrauchsmuster-Eintragung vorbehalten.\P}{\fCiutadella Regular|b0||i0||c0|p34;\C7;\H1.;\W0.82;The copying, use, dist
  3
ribution or disclosure of the confidential and proprietary information contained in this document(s) is strictly prohibited without prior written consent. Any breach shall subject the \P}{\fCiutadella Regular|b0||i0||c0|p34;\C7;\H1.;\W0.82;infringing
  1
 party to remedies. The owner reserves all rights in the event of the grant of a patent or the registration of a utility model or design.}
 73
     1
 44
0.9
1001
ACAD
1000
ACAD_MTEXT_DEFINED_HEIGHT_BEGIN
1070
    46
1040
8.1685527897
1000
ACAD_MTEXT_DEFINED_HEIGHT_END
  0
MTEXT
  5
1E4
330
1F
100
AcDbEntity
  8
Default
100
AcDbMText
 10
139.5531289039
 20
20.5520608538
 30
0.0
 40
2.5
 41
59.872727305
 46
4.6153946154
 71
     4
 72
     1
  1
{\fSolid Edge ISO|b0||i0||c0|p34;\C7;\H2.5;\W1.;technische Zeichnung mkt}
 73
     1
 44
1.0
1001
ACAD
1000
ACAD_MTEXT_DEFINED_HEIGHT_BEGIN
1070
    46
1040
4.6153946154
1000
ACAD_MTEXT_DEFINED_HEIGHT_END
  0
MTEXT
  5
1E5
330
1F
100
AcDbEntity
  8
Default
100
AcDbMText
 10
139.645932934
 20
25.5772390452
 30
0.0
 40
2.2
 41
33.0612482929
 46
4.0615484615
 71
     1
 72
     1
  1
{\fCiutadella Regular|b0||i0||c0|p34;\C7;\H2.2;\W0.82;Zeichnungsart}{\fCiutadella Regular|b0||i0||c0|p34;\C7;\H1.5;\W0.82;/ drawing type}
 73
     1
 44
1.0
1001
ACAD
1000
ACAD_MTEXT_DEFINED_HEIGHT_BEGIN
1070
    46
1040
4.0615484615
1000
ACAD_MTEXT_DEFINED_HEIGHT_END
  0
MTEXT
  5
1E6
330
1F
100
AcDbEntity
  8
Standard
100
AcDbMText
 10
122.722860057
 20
25.1473558409
 30
0.0
 40
2.2
 41
15.8428315128
 46
4.0615484615
 71
     1
 72
     1
  1
{\fCiutadella Regular|b0||i0||c0|p34;\C7;\H2.2;\W0.5776;Einheit}{\fCiutadella Regular|b0||i0||c0|p34;\C7;\H1.5;\W0.5776;/ unit}
 73
     1
 44
1.0
1001
ACAD
1000
ACAD_MTEXT_DEFINED_HEIGHT_BEGIN
1070
    46
1040
4.0615484615
1000
ACAD_MTEXT_DEFINED_HEIGHT_END
  0
LINE
  5
1E7
330
1F
100
AcDbEntity
  8
Standard
  6
Continuous
 62
     7
100
AcDbLine
 10
122.1841943695
 20
25.9987912971
 30
0.0
 11
122.1841943695
 21
10.0
 31
0.0
  0
LINE
  5
1E8
330
1F
100
AcDbEntity
  8
Standard
  6
Continuous
 62
     7
100
AcDbLine
 10
138.2000000051
 20
18.2287912793
 30
0.0
 11
200.0
 21
18.2287912793
 31
0.0
  0
LINE
  5
1E9
330
1F
100
AcDbEntity
  8
Standard
  6
Continuous
 62
     7
100
AcDbLine
 10
138.2000000051
 20
34.3502211504
 30
0.0
 11
10.0
 21
34.3502211504
 31
0.0
  0
LINE
  5
1EB
330
1F
100
AcDbEntity
  8
Skizziergeometrie(DIN)
  6
Continuous
 62
     7
100
AcDbLine
 10
10.0
 20
287.0
 30
0.0
 11
200.0
 21
287.0
 31
0.0
  0
LINE
  5
1EC
330
1F
100
AcDbEntity
  8
Skizziergeometrie(DIN)
  6
Continuous
 62
     7
100
AcDbLine
 10
200.0
 20
287.0
 30
0.0
 11
200.0
 21
9.9999926436
 31
0.0
  0
LINE
  5
1ED
330
1F
100
AcDbEntity
  8
Skizziergeometrie(DIN)
  6
Continuous
 62
     7
100
AcDbLine
 10
200.0
 20
9.9999926436
 30
0.0
 11
10.0
 21
9.9999926436
 31
0.0
  0
LINE
  5
1EE
330
1F
100
AcDbEntity
  8
Skizziergeometrie(DIN)
  6
Continuous
 62
     7
100
AcDbLine
 10
10.0
 20
10.0
 30
0.0
 11
10.0
 21
287.0
 31
0.0
  0
MTEXT
  5
1EF
330
1F
100
AcDbEntity
  8
Standard
100
AcDbMText
 10
127.9332180556
 20
13.9995105837
 30
0.0
 40
3.0
 41
3.225011
 46
4.9091009091
 71
     1
 72
     1
  1
{\fSolid Edge ISO|b0||i0||c0|p34;\C7;\H3.;\W1.;1:1}
 73
     1
 44
1.0
1001
ACAD
1000
ACAD_MTEXT_DEFINED_HEIGHT_BEGIN
1070
    46
1040
4.9091009091
1000
ACAD_MTEXT_DEFINED_HEIGHT_END
  0
IMAGE
  5
1F3
330
1F
100
AcDbEntity
  8
0
 92
      140
310
8C000000010000008400000006000000050000000E64D78BE9972B40BC01B030F29425400000000000000000559114E8E5774740BC01B030F29425400000000000000000559114E8E5774740017F9619FA7E384000000000000000000E64D78BE9972B40017F9619FA7E384000000000000000000E64D78BE9972B40BC01B0
310
30F29425400000000000000000
100
AcDbRasterImage
 90
        0
 10
13.7967036915
 20
10.7909102645
 30
0.0
 11
0.07742990654205607
 21
0.0
 31
0.0
 12
0.0
 22
0.07742990654205609
 32
0.0
 13
428.0
 23
177.0
340
1F2
 70
     7
280
     0
281
    50
282
    50
283
     0
360
1F4
 71
     1
 91
        2
 14
-0.5
 24
-0.5
 14
427.5
 24
176.5
  0
ENDSEC
  0
SECTION
  2
OBJECTS
  0
DICTIONARY
  5
C
330
0
100
AcDbDictionary
281
     1
  3
ACAD_DETAILVIEWSTYLE
350
230
  3
ACAD_GROUP
350
D
  3
ACAD_IMAGE_DICT
350
1F1
  3
ACAD_IMAGE_VARS
350
1F0
  3
ACAD_LAYOUT
350
1A
  3
ACAD_MATERIAL
350
43
  3
ACAD_MLEADERSTYLE
350
5B
  3
ACAD_MLINESTYLE
350
17
  3
ACAD_PLOTSETTINGS
350
19
  3
ACAD_PLOTSTYLENAME
350
E
  3
ACAD_SCALELIST
350
47
  3
ACAD_SECTIONVIEWSTYLE
350
231
  3
ACAD_TABLESTYLE
350
59
  3
ACAD_VISUALSTYLE
350
2A
  3
ACDB_RECOMPOSE_DATA
350
22D
  3
AcDbVariableDictionary
350
1F5
  0
SUN
  5
5D
330
29
100
AcDbSun
 90
        1
290
     0
 63
     7
421
 16777215
 40
1.0
291
     1
 91
  2455826
 92
 54000000
292
     0
 70
     2
 71
   256
280
     1
  0
IMAGEDEF_REACTOR
  5
1F4
330
1F3
100
AcDbRasterImageDefReactor
 90
        2
330
1F3
  0
DICTIONARY
  5
230
102
{ACAD_REACTORS
330
C
102
}
330
C
100
AcDbDictionary
281
     1
  0
DICTIONARY
  5
D
102
{ACAD_REACTORS
330
C
102
}
330
C
100
AcDbDictionary
281
     1
  0
DICTIONARY
  5
1F1
102
{ACAD_REACTORS
330
C
102
}
330
C
100
AcDbDictionary
281
     1
  3
BU-24K+-1x_1.bmp
350
1F2
  0
RASTERVARIABLES
  5
1F0
102
{ACAD_REACTORS
330
C
102
}
330
C
100
AcDbRasterVariables
 90
        0
 70
     1
 71
     1
 72
     1
  0
DICTIONARY
  5
1A
102
{ACAD_REACTORS
330
C
102
}
330
C
100
AcDbDictionary
281
     1
  3
Layout1
350
1E
  3
Model
350
22
  0
DICTIONARY
  5
43
102
{ACAD_REACTORS
330
C
102
}
330
C
100
AcDbDictionary
281
     1
  3
ByBlock
350
45
  3
ByLayer
350
44
  3
Global
350
46
  0
DICTIONARY
  5
5B
102
{ACAD_REACTORS
330
C
102
}
330
C
100
AcDbDictionary
281
     1
  3
Standard
350
5C
  0
DICTIONARY
  5
17
102
{ACAD_REACTORS
330
C
102
}
330
C
100
AcDbDictionary
281
     1
  3
Standard
350
18
  0
DICTIONARY
  5
19
102
{ACAD_REACTORS
330
C
102
}
330
C
100
AcDbDictionary
281
     1
  0
ACDBDICTIONARYWDFLT
  5
E
102
{ACAD_REACTORS
330
C
102
}
330
C
100
AcDbDictionary
281
     1
  3
Normal
350
F
100
AcDbDictionaryWithDefault
340
F
  0
DICTIONARY
  5
47
102
{ACAD_REACTORS
330
C
102
}
330
C
100
AcDbDictionary
281
     1
  3
A0
350
48
  3
A1
350
49
  3
A2
350
4A
  3
A3
350
4B
  3
A4
350
4C
  3
A5
350
4D
  3
A6
350
4E
  3
A7
350
4F
  3
A8
350
50
  3
A9
350
51
  3
B0
350
52
  3
B1
350
53
  3
B2
350
54
  3
B3
350
55
  3
B4
350
56
  3
B5
350
57
  3
B6
350
58
  0
DICTIONARY
  5
231
102
{ACAD_REACTORS
330
C
102
}
330
C
100
AcDbDictionary
281
     1
  0
DICTIONARY
  5
59
102
{ACAD_REACTORS
330
C
102
}
330
C
100
AcDbDictionary
281
     1
  3
Standard
350
5A
  0
DICTIONARY
  5
2A
102
{ACAD_REACTORS
330
C
102
}
330
C
100
AcDbDictionary
281
     1
  3
2dWireframe
350
2F
  3
Basic
350
32
  3
Brighten
350
36
  3
ColorChange
350
3A
  3
Conceptual
350
34
  3
Dim
350
35
  3
EdgeColorOff
350
3D
  3
Facepattern
350
39
  3
Flat
350
2B
  3
FlatWithEdges
350
2C
  3
Gouraud
350
2D
  3
GouraudWithEdges
350
2E
  3
Hidden
350
31
  3
JitterOff
350
3B
  3
Linepattern
350
38
  3
OverhangOff
350
3C
  3
Realistic
350
33
  3
Shaded
350
42
  3
Shaded with edges
350
41
  3
Shades of Gray
350
3E
  3
Sketchy
350
3F
  3
Thicken
350
37
  3
Wireframe
350
30
  3
X-Ray
350
40
  0
XRECORD
  5
22D
102
{ACAD_REACTORS
330
C
102
}
330
C
100
AcDbXrecord
280
     1
 90
        1
330
5A
  0
DICTIONARY
  5
1F5
102
{ACAD_REACTORS
330
C
102
}
330
C
100
AcDbDictionary
281
     1
  3
CANNOSCALE
350
1F6
  3
CENTEREXE
350
232
  3
CENTERLTYPEFILE
350
233
  3
CMLEADERSTYLE
350
22F
  3
CTABLESTYLE
350
22E
  3
XCLIPFRAME
350
1F7
  0
IMAGEDEF
  5
1F2
102
{ACAD_REACTORS
330
1F1
330
1F4
102
}
330
1F1
100
AcDbRasterImageDef
 90
        0
  1
BU-24K+-1x_1.bmp
 10
428.0
 20
177.0
 11
0.002336448598130841
 21
0.002336448598130841
280
     1
281
     5
  0
LAYOUT
  5
1E
102
{ACAD_REACTORS
330
1A
102
}
330
1A
100
AcDbPlotSettings
  1

  2
none_device
  4

  6

 40
0.0
 41
0.0
 42
0.0
 43
0.0
 44
0.0
 45
0.0
 46
0.0
 47
0.0
 48
0.0
 49
0.0
140
0.0
141
0.0
142
1.0
143
1.0
 70
   688
 72
     1
 73
     0
 74
     5
  7

 75
    16
 76
     0
 77
     2
 78
   300
147
1.0
148
0.0
149
0.0
100
AcDbLayout
  1
Layout1
 70
     1
 71
     1
 10
0.0
 20
0.0
 11
210.0
 21
297.0
 12
0.0
 22
0.0
 32
0.0
 14
0.0
 24
0.0
 34
0.0
 15
210.0
 25
297.0
 35
0.0
146
0.0
 13
0.0
 23
0.0
 33
0.0
 16
1.0
 26
0.0
 36
0.0
 17
0.0
 27
1.0
 37
0.0
 76
     0
330
1B
  0
LAYOUT
  5
22
102
{ACAD_REACTORS
330
1A
102
}
330
1A
100
AcDbPlotSettings
  1

  2
none_device
  4
Letter_(8.50_x_11.00_Inches)
  6

 40
6.35
 41
6.35
 42
6.35000508
 43
6.35000508
 44
215.9
 45
279.4
 46
0.0
 47
0.0
 48
0.0
 49
0.0
140
0.0
141
0.0
142
1.0
143
1.0
 70
  1712
 72
     1
 73
     0
 74
     0
  7

 75
     0
 76
     0
 77
     2
 78
   300
147
1.0
148
0.0
149
0.0
100
AcDbLayout
  1
Model
 70
     1
 71
     0
 10
0.0
 20
0.0
 11
210.0
 21
297.0
 12
0.0
 22
0.0
 32
0.0
 14
0.0
 24
0.0
 34
0.0
 15
210.0
 25
297.0
 35
0.0
146
0.0
 13
0.0
 23
0.0
 33
0.0
 16
1.0
 26
0.0
 36
0.0
 17
0.0
 27
1.0
 37
0.0
 76
     0
330
1F
331
29
  0
MATERIAL
  5
45
102
{ACAD_REACTORS
330
43
102
}
330
43
100
AcDbMaterial
  1
ByBlock
 72
     1
 94
      127
  0
MATERIAL
  5
44
102
{ACAD_REACTORS
330
43
102
}
330
43
100
AcDbMaterial
  1
ByLayer
 72
     1
 94
      127
  0
MATERIAL
  5
46
102
{ACAD_REACTORS
330
43
102
}
330
43
100
AcDbMaterial
  1
Global
 72
     1
 94
      127
  0
MLEADERSTYLE
  5
5C
102
{ACAD_REACTORS
330
5B
102
}
102
{ACAD_XDICTIONARY
360
22B
102
}
330
5B
100
AcDbMLeaderStyle
170
     2
171
     1
172
     0
 90
        2
 40
0.0
 41
0.0
173
     1
 91
-1056964608
340
14
 92
       -2
290
     1
 42
2.0
291
     1
 43
8.0
  3
Standard
341
0
 44
4.0
300

342
11
174
     1
178
     6
175
     1
176
     0
 93
-1056964608
 45
4.0
292
     0
297
     0
 46
4.0
343
0
 94
-1056964608
 47
1.0
 49
1.0
140
1.0
293
     1
141
0.0
294
     1
177
     0
142
1.0
295
     0
296
     0
143
3.75
1001
ACAD_MLEADERVER
1070
     2
  0
MLINESTYLE
  5
18
102
{ACAD_REACTORS
330
17
102
}
330
17
100
AcDbMlineStyle
  2
Standard
 70
     0
  3

 62
   256
 51
90.0
 52
90.0
 71
     2
 49
0.5
 62
   256
  6
BYLAYER
 49
-0.5
 62
   256
  6
BYLAYER
  0
ACDBPLACEHOLDER
  5
F
102
{ACAD_REACTORS
330
E
102
}
330
E
  0
SCALE
  5
48
102
{ACAD_REACTORS
330
47
102
}
330
47
100
AcDbScale
 70
     0
300
1:1
140
1.0
141
1.0
290
     1
  0
SCALE
  5
49
102
{ACAD_REACTORS
330
47
102
}
330
47
100
AcDbScale
 70
     0
300
1:2
140
1.0
141
2.0
290
     0
  0
SCALE
  5
4A
102
{ACAD_REACTORS
330
47
102
}
330
47
100
AcDbScale
 70
     0
300
1:4
140
1.0
141
4.0
290
     0
  0
SCALE
  5
4B
102
{ACAD_REACTORS
330
47
102
}
330
47
100
AcDbScale
 70
     0
300
1:5
140
1.0
141
5.0
290
     0
  0
SCALE
  5
4C
102
{ACAD_REACTORS
330
47
102
}
330
47
100
AcDbScale
 70
     0
300
1:8
140
1.0
141
8.0
290
     0
  0
SCALE
  5
4D
102
{ACAD_REACTORS
330
47
102
}
330
47
100
AcDbScale
 70
     0
300
1:10
140
1.0
141
10.0
290
     0
  0
SCALE
  5
4E
102
{ACAD_REACTORS
330
47
102
}
330
47
100
AcDbScale
 70
     0
300
1:16
140
1.0
141
16.0
290
     0
  0
SCALE
  5
4F
102
{ACAD_REACTORS
330
47
102
}
330
47
100
AcDbScale
 70
     0
300
1:20
140
1.0
141
20.0
290
     0
  0
SCALE
  5
50
102
{ACAD_REACTORS
330
47
102
}
330
47
100
AcDbScale
 70
     0
300
1:30
140
1.0
141
30.0
290
     0
  0
SCALE
  5
51
102
{ACAD_REACTORS
330
47
102
}
330
47
100
AcDbScale
 70
     0
300
1:40
140
1.0
141
40.0
290
     0
  0
SCALE
  5
52
102
{ACAD_REACTORS
330
47
102
}
330
47
100
AcDbScale
 70
     0
300
1:50
140
1.0
141
50.0
290
     0
  0
SCALE
  5
53
102
{ACAD_REACTORS
330
47
102
}
330
47
100
AcDbScale
 70
     0
300
1:100
140
1.0
141
100.0
290
     0
  0
SCALE
  5
54
102
{ACAD_REACTORS
330
47
102
}
330
47
100
AcDbScale
 70
     0
300
2:1
140
2.0
141
1.0
290
     0
  0
SCALE
  5
55
102
{ACAD_REACTORS
330
47
102
}
330
47
100
AcDbScale
 70
     0
300
4:1
140
4.0
141
1.0
290
     0
  0
SCALE
  5
56
102
{ACAD_REACTORS
330
47
102
}
330
47
100
AcDbScale
 70
     0
300
8:1
140
8.0
141
1.0
290
     0
  0
SCALE
  5
57
102
{ACAD_REACTORS
330
47
102
}
330
47
100
AcDbScale
 70
     0
300
10:1
140
10.0
141
1.0
290
     0
  0
SCALE
  5
58
102
{ACAD_REACTORS
330
47
102
}
330
47
100
AcDbScale
 70
     0
300
100:1
140
100.0
141
1.0
290
     0
  0
TABLESTYLE
  5
5A
102
{ACAD_REACTORS
330
59
102
}
102
{ACAD_XDICTIONARY
360
228
102
}
330
59
100
AcDbTableStyle
  3
Standard
 70
     0
 71
     0
 40
0.06
 41
0.06
280
     0
281
     0
  7
Standard
140
4.5
170
     2
 62
     0
 63
   257
283
     0
 90
        4
 91
        0
  1

274
    -2
284
     1
 64
     0
275
    -2
285
     1
 65
     0
276
    -2
286
     1
 66
     0
277
    -2
287
     1
 67
     0
278
    -2
288
     1
 68
     0
279
    -2
289
     1
 69
     0
  7
Standard
140
6.0
170
     5
 62
     0
 63
   257
283
     0
 90
        4
 91
        0
  1

274
    -2
284
     1
 64
     0
275
    -2
285
     1
 65
     0
276
    -2
286
     1
 66
     0
277
    -2
287
     1
 67
     0
278
    -2
288
     1
 68
     0
279
    -2
289
     1
 69
     0
  7
Standard
140
4.5
170
     5
 62
     0
 63
   257
283
     0
 90
        4
 91
        0
  1

274
    -2
284
     1
 64
     0
275
    -2
285
     1
 65
     0
276
    -2
286
     1
 66
     0
277
    -2
287
     1
 67
     0
278
    -2
288
     1
 68
     0
279
    -2
289
     1
 69
     0
  0
VISUALSTYLE
  5
2F
102
{ACAD_REACTORS
330
2A
102
}
102
{ACAD_XDICTIONARY
360
200
102
}
330
2A
100
AcDbVisualStyle
  2
2dWireframe
 70
     4
 71
     0
 72
     2
 73
     0
 90
        0
 40
0.6
 41
30.0
 62
     5
 63
     7
421
 16777215
 74
     1
 91
        4
 64
     7
 65
   257
 75
     1
175
     1
 42
1.0
 92
        0
 66
   257
 43
1.0
 76
     1
 77
     6
 78
     2
 67
     7
 79
     5
170
     0
171
     0
290
     0
174
     0
 93
        1
 44
0.0
173
     0
291
     0
 45
0.0
  0
VISUALSTYLE
  5
32
102
{ACAD_REACTORS
330
2A
102
}
102
{ACAD_XDICTIONARY
360
206
102
}
330
2A
100
AcDbVisualStyle
  2
Basic
 70
     7
 71
     1
 72
     0
 73
     1
 90
        0
 40
0.6
 41
30.0
 62
     5
 63
     7
421
 16777215
 74
     0
 91
        4
 64
     7
 65
   257
 75
     1
175
     1
 42
1.0
 92
        8
 66
     7
 43
1.0
 76
     1
 77
     6
 78
     2
 67
     7
 79
     5
170
     0
171
     0
290
     0
174
     0
 93
        1
 44
0.0
173
     0
291
     1
 45
0.0
  0
VISUALSTYLE
  5
36
102
{ACAD_REACTORS
330
2A
102
}
102
{ACAD_XDICTIONARY
360
20E
102
}
330
2A
100
AcDbVisualStyle
  2
Brighten
 70
    12
 71
     2
 72
     2
 73
     0
 90
        0
 40
0.6
 41
30.0
 62
     5
 63
     7
421
 16777215
 74
     1
 91
        4
 64
     7
 65
   257
 75
     1
175
     1
 42
1.0
 92
        8
 66
     7
 43
1.0
 76
     1
 77
     6
 78
     2
 67
     7
 79
     5
170
     0
171
     0
290
     0
174
     0
 93
        1
 44
50.0
173
     0
291
     1
 45
0.0
  0
VISUALSTYLE
  5
3A
102
{ACAD_REACTORS
330
2A
102
}
102
{ACAD_XDICTIONARY
360
216
102
}
330
2A
100
AcDbVisualStyle
  2
ColorChange
 70
    16
 71
     2
 72
     2
 73
     3
 90
        0
 40
0.6
 41
30.0
 62
     5
 63
     8
421
  8421504
 74
     1
 91
        4
 64
     7
 65
   257
 75
     1
175
     1
 42
1.0
 92
        8
 66
     8
424
  8421504
 43
1.0
 76
     1
 77
     6
 78
     2
 67
     7
 79
     5
170
     0
171
     0
290
     0
174
     0
 93
        1
 44
0.0
173
     0
291
     1
 45
0.0
  0
VISUALSTYLE
  5
34
102
{ACAD_REACTORS
330
2A
102
}
102
{ACAD_XDICTIONARY
360
20A
102
}
330
2A
100
AcDbVisualStyle
  2
Conceptual
 70
     9
 71
     3
 72
     2
 73
     0
 90
        0
 40
0.6
 41
30.0
 62
     5
 63
     7
421
 16777215
 74
     2
 91
        2
 64
     7
 65
   257
 75
     1
175
     1
 42
179.0
 92
        8
 66
     7
 43
1.0
 76
     1
 77
     6
 78
     2
 67
     7
 79
     3
170
     0
171
     0
290
     0
174
     0
 93
        1
 44
0.0
173
     0
291
     0
 45
0.0
  0
VISUALSTYLE
  5
35
102
{ACAD_REACTORS
330
2A
102
}
102
{ACAD_XDICTIONARY
360
20C
102
}
330
2A
100
AcDbVisualStyle
  2
Dim
 70
    11
 71
     2
 72
     2
 73
     0
 90
        0
 40
0.6
 41
30.0
 62
     5
 63
     7
421
 16777215
 74
     1
 91
        4
 64
     7
 65
   257
 75
     1
175
     1
 42
1.0
 92
        8
 66
     7
 43
1.0
 76
     1
 77
     6
 78
     2
 67
     7
 79
     5
170
     0
171
     0
290
     0
174
     0
 93
        1
 44
-50.0
173
     0
291
     1
 45
0.0
  0
VISUALSTYLE
  5
3D
102
{ACAD_REACTORS
330
2A
102
}
102
{ACAD_XDICTIONARY
360
21C
102
}
330
2A
100
AcDbVisualStyle
  2
EdgeColorOff
 70
    22
 71
     2
 72
     2
 73
     0
 90
        0
 40
0.6
 41
30.0
 62
     5
 63
     7
421
 16777215
 74
     1
 91
        4
 64
     7
 65
   257
 75
     1
175
     1
 42
1.0
 92
        8
 66
     7
 43
1.0
 76
     1
 77
     6
 78
     2
 67
     7
 79
     5
170
     0
171
     0
290
     0
174
     0
 93
        1
 44
0.0
173
     0
291
     1
 45
0.0
  0
VISUALSTYLE
  5
39
102
{ACAD_REACTORS
330
2A
102
}
102
{ACAD_XDICTIONARY
360
214
102
}
330
2A
100
AcDbVisualStyle
  2
Facepattern
 70
    15
 71
     2
 72
     2
 73
     0
 90
        0
 40
0.6
 41
30.0
 62
     5
 63
     7
421
 16777215
 74
     1
 91
        4
 64
     7
 65
   257
 75
     1
175
     1
 42
1.0
 92
        8
 66
     7
 43
1.0
 76
     1
 77
     6
 78
     2
 67
     7
 79
     5
170
     0
171
     0
290
     0
174
     0
 93
        1
 44
0.0
173
     0
291
     1
 45
0.0
  0
VISUALSTYLE
  5
2B
102
{ACAD_REACTORS
330
2A
102
}
102
{ACAD_XDICTIONARY
360
1F8
102
}
330
2A
100
AcDbVisualStyle
  2
Flat
 70
     0
 71
     2
 72
     1
 73
     1
 90
        2
 40
0.6
 41
30.0
 62
     5
 63
     7
421
 16777215
 74
     0
 91
        0
 64
     7
 65
   257
 75
     1
175
     1
 42
1.0
 92
        8
 66
     7
 43
1.0
 76
     1
 77
     6
 78
     2
 67
     7
 79
     5
170
     0
171
     0
290
     0
174
     0
 93
       13
 44
0.0
173
     0
291
     1
 45
0.0
  0
VISUALSTYLE
  5
2C
102
{ACAD_REACTORS
330
2A
102
}
102
{ACAD_XDICTIONARY
360
1FA
102
}
330
2A
100
AcDbVisualStyle
  2
FlatWithEdges
 70
     1
 71
     2
 72
     1
 73
     1
 90
        2
 40
0.6
 41
30.0
 62
     5
 63
     7
421
 16777215
 74
     1
 91
        0
 64
     7
 65
   257
 75
     1
175
     1
 42
1.0
 92
        0
 66
   257
 43
1.0
 76
     1
 77
     6
 78
     2
 67
     7
 79
     5
170
     0
171
     0
290
     0
174
     0
 93
       13
 44
0.0
173
     0
291
     1
 45
0.0
  0
VISUALSTYLE
  5
2D
102
{ACAD_REACTORS
330
2A
102
}
102
{ACAD_XDICTIONARY
360
1FC
102
}
330
2A
100
AcDbVisualStyle
  2
Gouraud
 70
     2
 71
     2
 72
     2
 73
     1
 90
        2
 40
0.6
 41
30.0
 62
     5
 63
     7
421
 16777215
 74
     0
 91
        0
 64
     7
 65
   257
 75
     1
175
     1
 42
1.0
 92
        0
 66
     7
 43
1.0
 76
     1
 77
     6
 78
     2
 67
     7
 79
     5
170
     0
171
     0
290
     0
174
     0
 93
       13
 44
0.0
173
     0
291
     1
 45
0.0
  0
VISUALSTYLE
  5
2E
102
{ACAD_REACTORS
330
2A
102
}
102
{ACAD_XDICTIONARY
360
1FE
102
}
330
2A
100
AcDbVisualStyle
  2
GouraudWithEdges
 70
     3
 71
     2
 72
     2
 73
     1
 90
        2
 40
0.6
 41
30.0
 62
     5
 63
     7
421
 16777215
 74
     1
 91
        0
 64
     7
 65
   257
 75
     1
175
     1
 42
1.0
 92
        0
 66
   257
 43
1.0
 76
     1
 77
     6
 78
     2
 67
     7
 79
     5
170
     0
171
     0
290
     0
174
     0
 93
       13
 44
0.0
173
     0
291
     1
 45
0.0
  0
VISUALSTYLE
  5
31
102
{ACAD_REACTORS
330
2A
102
}
102
{ACAD_XDICTIONARY
360
204
102
}
330
2A
100
AcDbVisualStyle
  2
Hidden
 70
     6
 71
     1
 72
     2
 73
     2
 90
        0
 40
0.6
 41
30.0
 62
     5
 63
     7
421
 16777215
 74
     2
 91
        2
 64
     7
 65
   257
 75
     2
175
     1
 42
40.0
 92
        0
 66
   257
 43
1.0
 76
     1
 77
     6
 78
     2
 67
     7
 79
     3
170
     0
171
     0
290
     0
174
     0
 93
        1
 44
0.0
173
     0
291
     0
 45
0.0
  0
VISUALSTYLE
  5
3B
102
{ACAD_REACTORS
330
2A
102
}
102
{ACAD_XDICTIONARY
360
218
102
}
330
2A
100
AcDbVisualStyle
  2
JitterOff
 70
    20
 71
     2
 72
     2
 73
     0
 90
        0
 40
0.6
 41
30.0
 62
     5
 63
     7
421
 16777215
 74
     1
 91
        4
 64
     7
 65
   257
 75
     1
175
     1
 42
1.0
 92
       10
 66
     7
 43
1.0
 76
     1
 77
     6
 78
     2
 67
     7
 79
     5
170
     0
171
     0
290
     0
174
     0
 93
        1
 44
0.0
173
     0
291
     1
 45
0.0
  0
VISUALSTYLE
  5
38
102
{ACAD_REACTORS
330
2A
102
}
102
{ACAD_XDICTIONARY
360
212
102
}
330
2A
100
AcDbVisualStyle
  2
Linepattern
 70
    14
 71
     2
 72
     2
 73
     0
 90
        0
 40
0.6
 41
30.0
 62
     5
 63
     7
421
 16777215
 74
     1
 91
        4
 64
     7
 65
   257
 75
     7
175
     7
 42
1.0
 92
        8
 66
     7
 43
1.0
 76
     1
 77
     6
 78
     2
 67
     7
 79
     5
170
     0
171
     0
290
     0
174
     0
 93
        1
 44
0.0
173
     0
291
     1
 45
0.0
  0
VISUALSTYLE
  5
3C
102
{ACAD_REACTORS
330
2A
102
}
102
{ACAD_XDICTIONARY
360
21A
102
}
330
2A
100
AcDbVisualStyle
  2
OverhangOff
 70
    21
 71
     2
 72
     2
 73
     0
 90
        0
 40
0.6
 41
30.0
 62
     5
 63
     7
421
 16777215
 74
     1
 91
        4
 64
     7
 65
   257
 75
     1
175
     1
 42
1.0
 92
        9
 66
     7
 43
1.0
 76
     1
 77
     6
 78
     2
 67
     7
 79
     5
170
     0
171
     0
290
     0
174
     0
 93
        1
 44
0.0
173
     0
291
     1
 45
0.0
  0
VISUALSTYLE
  5
33
102
{ACAD_REACTORS
330
2A
102
}
102
{ACAD_XDICTIONARY
360
208
102
}
330
2A
100
AcDbVisualStyle
  2
Realistic
 70
     8
 71
     2
 72
     3
 73
     0
 90
        2
 40
0.6
 41
30.0
 62
     5
 63
     7
421
 16777215
 74
     0
 91
        0
 64
     7
 65
   257
 75
     1
175
     1
 42
1.0
 92
        8
 66
   257
 43
1.0
 76
     1
 77
     6
 78
     2
 67
     7
 79
     3
170
     0
171
     0
290
     0
174
     0
 93
       13
 44
0.0
173
     0
291
     0
 45
0.0
  0
VISUALSTYLE
  5
42
102
{ACAD_REACTORS
330
2A
102
}
102
{ACAD_XDICTIONARY
360
226
102
}
330
2A
100
AcDbVisualStyle
  2
Shaded
 70
    27
 71
     2
 72
     2
 73
     1
 90
        2
 40
0.6
 41
30.0
 62
     5
 63
     7
421
 16777215
 74
     0
 91
        4
 64
     7
 65
   257
 75
     1
175
     1
 42
1.0
 92
        8
 66
   257
 43
1.0
 76
     1
 77
     6
 78
     2
 67
     8
425
  7895160
 79
     3
170
     0
171
     0
290
     0
174
     0
 93
        5
 44
0.0
173
     0
291
     0
 45
0.0
  0
VISUALSTYLE
  5
41
102
{ACAD_REACTORS
330
2A
102
}
102
{ACAD_XDICTIONARY
360
224
102
}
330
2A
100
AcDbVisualStyle
  2
Shaded with edges
 70
    26
 71
     2
 72
     2
 73
     1
 90
        2
 40
0.6
 41
30.0
 62
     5
 63
     7
421
 16777215
 74
     1
 91
       10
 64
     7
 65
   257
 75
     2
175
     1
 42
1.0
 92
        8
 66
   257
 43
1.0
 76
     1
 77
     6
 78
     2
 67
     7
 79
     3
170
     0
171
     0
290
     0
174
     0
 93
        5
 44
0.0
173
     0
291
     0
 45
0.0
  0
VISUALSTYLE
  5
3E
102
{ACAD_REACTORS
330
2A
102
}
102
{ACAD_XDICTIONARY
360
21E
102
}
330
2A
100
AcDbVisualStyle
  2
Shades of Gray
 70
    23
 71
     2
 72
     2
 73
     3
 90
        0
 40
0.6
 41
30.0
 62
     5
 63
     7
421
 16777215
 74
     2
 91
        2
 64
     7
 65
     7
 75
     1
175
     1
 42
40.0
 92
        8
 66
     7
 43
1.0
 76
     1
 77
     6
 78
     2
 67
     7
 79
     3
170
     0
171
     0
290
     0
174
     0
 93
        1
 44
0.0
173
     0
291
     0
 45
0.0
  0
VISUALSTYLE
  5
3F
102
{ACAD_REACTORS
330
2A
102
}
102
{ACAD_XDICTIONARY
360
220
102
}
330
2A
100
AcDbVisualStyle
  2
Sketchy
 70
    24
 71
     1
 72
     2
 73
     2
 90
        0
 40
0.6
 41
30.0
 62
     5
 63
     7
421
 16777215
 74
     2
 91
        2
 64
     7
 65
     7
 75
     1
175
     1
 42
40.0
 92
       11
 66
     7
 43
1.0
 76
     1
 77
     6
 78
     2
 67
     7
 79
     6
170
     0
171
     0
290
     0
174
     0
 93
        1
 44
0.0
173
     0
291
     0
 45
0.0
  0
VISUALSTYLE
  5
37
102
{ACAD_REACTORS
330
2A
102
}
102
{ACAD_XDICTIONARY
360
210
102
}
330
2A
100
AcDbVisualStyle
  2
Thicken
 70
    13
 71
     2
 72
     2
 73
     0
 90
        0
 40
0.6
 41
30.0
 62
     5
 63
     7
421
 16777215
 74
     1
 91
        4
 64
     7
 65
   257
 75
     1
175
     1
 42
1.0
 92
       12
 66
     7
 43
1.0
 76
     1
 77
     6
 78
     2
 67
     7
 79
     5
170
     0
171
     0
290
     0
174
     0
 93
        1
 44
0.0
173
     0
291
     1
 45
0.0
  0
VISUALSTYLE
  5
30
102
{ACAD_REACTORS
330
2A
102
}
102
{ACAD_XDICTIONARY
360
202
102
}
330
2A
100
AcDbVisualStyle
  2
Wireframe
 70
     5
 71
     0
 72
     2
 73
     0
 90
        0
 40
0.6
 41
30.0
 62
     5
 63
     7
421
 16777215
 74
     1
 91
        4
 64
     7
 65
   257
 75
     1
175
     1
 42
1.0
 92
        0
 66
   257
 43
1.0
 76
     1
 77
     6
 78
     2
 67
     7
 79
     3
170
     0
171
     0
290
     0
174
     0
 93
        1
 44
0.0
173
     0
291
     0
 45
0.0
  0
VISUALSTYLE
  5
40
102
{ACAD_REACTORS
330
2A
102
}
102
{ACAD_XDICTIONARY
360
222
102
}
330
2A
100
AcDbVisualStyle
  2
X-Ray
 70
    25
 71
     2
 72
     2
 73
     1
 90
        1
 40
0.5
 41
30.0
 62
     5
 63
     7
421
 16777215
 74
     1
 91
        0
 64
     7
 65
   257
 75
     1
175
     1
 42
1.0
 92
        8
 66
     7
 43
1.0
 76
     1
 77
     6
 78
     2
 67
     7
 79
     3
170
     0
171
     0
290
     0
174
     0
 93
       13
 44
0.0
173
     0
291
     0
 45
0.0
  0
DICTIONARYVAR
  5
1F6
102
{ACAD_REACTORS
330
1F5
102
}
330
1F5
100
DictionaryVariables
280
     0
  1
1:1
  0
DICTIONARYVAR
  5
232
102
{ACAD_REACTORS
330
1F5
102
}
330
1F5
100
DictionaryVariables
280
     0
  1
3.500000
  0
DICTIONARYVAR
  5
233
102
{ACAD_REACTORS
330
1F5
102
}
330
1F5
100
DictionaryVariables
280
     0
  1
acadiso.lin
  0
DICTIONARYVAR
  5
22F
102
{ACAD_REACTORS
330
1F5
102
}
330
1F5
100
DictionaryVariables
280
     0
  1
Standard
  0
DICTIONARYVAR
  5
22E
102
{ACAD_REACTORS
330
1F5
102
}
330
1F5
100
DictionaryVariables
280
     0
  1
Standard
  0
DICTIONARYVAR
  5
1F7
102
{ACAD_REACTORS
330
1F5
102
}
330
1F5
100
DictionaryVariables
280
     0
  1
2
  0
DICTIONARY
  5
22B
330
5C
100
AcDbDictionary
280
     1
281
     1
  3
ACAD_XREC_ROUNDTRIP
360
22C
  0
DICTIONARY
  5
228
330
5A
100
AcDbDictionary
280
     1
281
     1
  3
ACAD_ROUNDTRIP_2008_TABLESTYLE_CELLSTYLEMAP
360
229
  0
DICTIONARY
  5
200
330
2F
100
AcDbDictionary
280
     1
281
     1
  3
ACAD_XREC_ROUNDTRIP
360
201
  0
DICTIONARY
  5
206
330
32
100
AcDbDictionary
280
     1
281
     1
  3
ACAD_XREC_ROUNDTRIP
360
207
  0
DICTIONARY
  5
20E
330
36
100
AcDbDictionary
280
     1
281
     1
  3
ACAD_XREC_ROUNDTRIP
360
20F
  0
DICTIONARY
  5
216
330
3A
100
AcDbDictionary
280
     1
281
     1
  3
ACAD_XREC_ROUNDTRIP
360
217
  0
DICTIONARY
  5
20A
330
34
100
AcDbDictionary
280
     1
281
     1
  3
ACAD_XREC_ROUNDTRIP
360
20B
  0
DICTIONARY
  5
20C
330
35
100
AcDbDictionary
280
     1
281
     1
  3
ACAD_XREC_ROUNDTRIP
360
20D
  0
DICTIONARY
  5
21C
330
3D
100
AcDbDictionary
280
     1
281
     1
  3
ACAD_XREC_ROUNDTRIP
360
21D
  0
DICTIONARY
  5
214
330
39
100
AcDbDictionary
280
     1
281
     1
  3
ACAD_XREC_ROUNDTRIP
360
215
  0
DICTIONARY
  5
1F8
330
2B
100
AcDbDictionary
280
     1
281
     1
  3
ACAD_XREC_ROUNDTRIP
360
1F9
  0
DICTIONARY
  5
1FA
330
2C
100
AcDbDictionary
280
     1
281
     1
  3
ACAD_XREC_ROUNDTRIP
360
1FB
  0
DICTIONARY
  5
1FC
330
2D
100
AcDbDictionary
280
     1
281
     1
  3
ACAD_XREC_ROUNDTRIP
360
1FD
  0
DICTIONARY
  5
1FE
330
2E
100
AcDbDictionary
280
     1
281
     1
  3
ACAD_XREC_ROUNDTRIP
360
1FF
  0
DICTIONARY
  5
204
330
31
100
AcDbDictionary
280
     1
281
     1
  3
ACAD_XREC_ROUNDTRIP
360
205
  0
DICTIONARY
  5
218
330
3B
100
AcDbDictionary
280
     1
281
     1
  3
ACAD_XREC_ROUNDTRIP
360
219
  0
DICTIONARY
  5
212
330
38
100
AcDbDictionary
280
     1
281
     1
  3
ACAD_XREC_ROUNDTRIP
360
213
  0
DICTIONARY
  5
21A
330
3C
100
AcDbDictionary
280
     1
281
     1
  3
ACAD_XREC_ROUNDTRIP
360
21B
  0
DICTIONARY
  5
208
330
33
100
AcDbDictionary
280
     1
281
     1
  3
ACAD_XREC_ROUNDTRIP
360
209
  0
DICTIONARY
  5
226
330
42
100
AcDbDictionary
280
     1
281
     1
  3
ACAD_XREC_ROUNDTRIP
360
227
  0
DICTIONARY
  5
224
330
41
100
AcDbDictionary
280
     1
281
     1
  3
ACAD_XREC_ROUNDTRIP
360
225
  0
DICTIONARY
  5
21E
330
3E
100
AcDbDictionary
280
     1
281
     1
  3
ACAD_XREC_ROUNDTRIP
360
21F
  0
DICTIONARY
  5
220
330
3F
100
AcDbDictionary
280
     1
281
     1
  3
ACAD_XREC_ROUNDTRIP
360
221
  0
DICTIONARY
  5
210
330
37
100
AcDbDictionary
280
     1
281
     1
  3
ACAD_XREC_ROUNDTRIP
360
211
  0
DICTIONARY
  5
202
330
30
100
AcDbDictionary
280
     1
281
     1
  3
ACAD_XREC_ROUNDTRIP
360
203
  0
DICTIONARY
  5
222
330
40
100
AcDbDictionary
280
     1
281
     1
  3
ACAD_XREC_ROUNDTRIP
360
223
  0
XRECORD
  5
22C
102
{ACAD_REACTORS
330
22B
102
}
330
22B
100
AcDbXrecord
280
     1
102
ACAD_ROUNDTRIP_2010_MLEADER_STYLE
  0
CELLSTYLEMAP
  5
229
102
{ACAD_REACTORS
330
228
102
}
330
228
100
AcDbCellStyleMap
 90
        3
300
CELLSTYLE
  1
TABLEFORMAT_BEGIN
 90
        5
170
     1
 91
        0
 92
    32768
 62
   257
 93
        1
300
CONTENTFORMAT
  1
CONTENTFORMAT_BEGIN
 90
        0
 91
        0
 92
        4
 93
        0
300

 40
0.0
140
1.0
 94
        5
 62
     0
340
11
144
6.0
309
CONTENTFORMAT_END
171
     1
301
MARGIN
  1
CELLMARGIN_BEGIN
 40
1.5
 40
1.5
 40
1.5
 40
1.5
 40
1.5
 40
1.5
309
CELLMARGIN_END
 94
        6
 95
        1
302
GRIDFORMAT
  1
GRIDFORMAT_BEGIN
 90
        0
 91
        1
 62
     0
 92
       -2
340
14
 93
        0
 40
0.045
309
GRIDFORMAT_END
 95
        2
302
GRIDFORMAT
  1
GRIDFORMAT_BEGIN
 90
        0
 91
        1
 62
     0
 92
       -2
340
14
 93
        0
 40
0.045
309
GRIDFORMAT_END
 95
        4
302
GRIDFORMAT
  1
GRIDFORMAT_BEGIN
 90
        0
 91
        1
 62
     0
 92
       -2
340
14
 93
        0
 40
0.045
309
GRIDFORMAT_END
 95
        8
302
GRIDFORMAT
  1
GRIDFORMAT_BEGIN
 90
        0
 91
        1
 62
     0
 92
       -2
340
14
 93
        0
 40
0.045
309
GRIDFORMAT_END
 95
       16
302
GRIDFORMAT
  1
GRIDFORMAT_BEGIN
 90
        0
 91
        1
 62
     0
 92
       -2
340
14
 93
        0
 40
0.045
309
GRIDFORMAT_END
 95
       32
302
GRIDFORMAT
  1
GRIDFORMAT_BEGIN
 90
        0
 91
        1
 62
     0
 92
       -2
340
14
 93
        0
 40
0.045
309
GRIDFORMAT_END
309
TABLEFORMAT_END
  1
CELLSTYLE_BEGIN
 90
        1
 91
        1
300
_TITLE
309
CELLSTYLE_END
300
CELLSTYLE
  1
TABLEFORMAT_BEGIN
 90
        5
170
     1
 91
        0
 92
        0
 62
   257
 93
        1
300
CONTENTFORMAT
  1
CONTENTFORMAT_BEGIN
 90
        0
 91
        0
 92
        4
 93
        0
300

 40
0.0
140
1.0
 94
        5
 62
     0
340
11
144
4.5
309
CONTENTFORMAT_END
171
     1
301
MARGIN
  1
CELLMARGIN_BEGIN
 40
1.5
 40
1.5
 40
1.5
 40
1.5
 40
1.5
 40
1.5
309
CELLMARGIN_END
 94
        6
 95
        1
302
GRIDFORMAT
  1
GRIDFORMAT_BEGIN
 90
        0
 91
        1
 62
     0
 92
       -2
340
14
 93
        0
 40
0.045
309
GRIDFORMAT_END
 95
        2
302
GRIDFORMAT
  1
GRIDFORMAT_BEGIN
 90
        0
 91
        1
 62
     0
 92
       -2
340
14
 93
        0
 40
0.045
309
GRIDFORMAT_END
 95
        4
302
GRIDFORMAT
  1
GRIDFORMAT_BEGIN
 90
        0
 91
        1
 62
     0
 92
       -2
340
14
 93
        0
 40
0.045
309
GRIDFORMAT_END
 95
        8
302
GRIDFORMAT
  1
GRIDFORMAT_BEGIN
 90
        0
 91
        1
 62
     0
 92
       -2
340
14
 93
        0
 40
0.045
309
GRIDFORMAT_END
 95
       16
302
GRIDFORMAT
  1
GRIDFORMAT_BEGIN
 90
        0
 91
        1
 62
     0
 92
       -2
340
14
 93
        0
 40
0.045
309
GRIDFORMAT_END
 95
       32
302
GRIDFORMAT
  1
GRIDFORMAT_BEGIN
 90
        0
 91
        1
 62
     0
 92
       -2
340
14
 93
        0
 40
0.045
309
GRIDFORMAT_END
309
TABLEFORMAT_END
  1
CELLSTYLE_BEGIN
 90
        2
 91
        1
300
_HEADER
309
CELLSTYLE_END
300
CELLSTYLE
  1
TABLEFORMAT_BEGIN
 90
        5
170
     1
 91
        0
 92
        0
 62
   257
 93
        1
300
CONTENTFORMAT
  1
CONTENTFORMAT_BEGIN
 90
        0
 91
        0
 92
        4
 93
        0
300

 40
0.0
140
1.0
 94
        2
 62
     0
340
11
144
4.5
309
CONTENTFORMAT_END
171
     1
301
MARGIN
  1
CELLMARGIN_BEGIN
 40
1.5
 40
1.5
 40
1.5
 40
1.5
 40
1.5
 40
1.5
309
CELLMARGIN_END
 94
        6
 95
        1
302
GRIDFORMAT
  1
GRIDFORMAT_BEGIN
 90
        0
 91
        1
 62
     0
 92
       -2
340
14
 93
        0
 40
0.045
309
GRIDFORMAT_END
 95
        2
302
GRIDFORMAT
  1
GRIDFORMAT_BEGIN
 90
        0
 91
        1
 62
     0
 92
       -2
340
14
 93
        0
 40
0.045
309
GRIDFORMAT_END
 95
        4
302
GRIDFORMAT
  1
GRIDFORMAT_BEGIN
 90
        0
 91
        1
 62
     0
 92
       -2
340
14
 93
        0
 40
0.045
309
GRIDFORMAT_END
 95
        8
302
GRIDFORMAT
  1
GRIDFORMAT_BEGIN
 90
        0
 91
        1
 62
     0
 92
       -2
340
14
 93
        0
 40
0.045
309
GRIDFORMAT_END
 95
       16
302
GRIDFORMAT
  1
GRIDFORMAT_BEGIN
 90
        0
 91
        1
 62
     0
 92
       -2
340
14
 93
        0
 40
0.045
309
GRIDFORMAT_END
 95
       32
302
GRIDFORMAT
  1
GRIDFORMAT_BEGIN
 90
        0
 91
        1
 62
     0
 92
       -2
340
14
 93
        0
 40
0.045
309
GRIDFORMAT_END
309
TABLEFORMAT_END
  1
CELLSTYLE_BEGIN
 90
        3
 91
        2
300
_DATA
309
CELLSTYLE_END
  0
XRECORD
  5
201
102
{ACAD_REACTORS
330
200
102
}
330
200
100
AcDbXrecord
280
     1
102
RTVSPropertyOp0
 70
     1
102
RTVSPropertyOp1
 70
     1
102
RTVSPropertyOp2
 70
     1
102
RTVSPropertyOp3
 70
     1
102
RTVSPropertyOp4
 70
     1
102
RTVSPropertyOp5
 70
     1
102
RTVSPropertyOp6
 70
     1
102
RTVSPropertyOp7
 70
     1
102
RTVSPropertyOp8
 70
     1
102
RTVSPropertyOp9
 70
     1
102
RTVSPropertyOp10
 70
     1
102
RTVSPropertyOp11
 70
     1
102
RTVSPropertyOp12
 70
     1
102
RTVSPropertyOp13
 70
     1
102
RTVSPropertyOp14
 70
     1
102
RTVSPropertyOp15
 70
     1
102
RTVSPropertyOp16
 70
     1
102
RTVSPropertyOp17
 70
     1
102
RTVSPropertyOp18
 70
     1
102
RTVSPropertyOp19
 70
     1
102
RTVSPropertyOp20
 70
     1
102
RTVSPropertyOp21
 70
     1
102
RTVSPropertyOp22
 70
     1
102
RTVSPropertyOp23
 70
     1
102
RTVSPropertyOp24
 70
     1
102
RTVSPropertyOp25
 70
     1
102
RTVSPropertyOp26
 70
     1
102
RTVSPropertyOp27
 70
     1
102
RTVSPropertyOp28
 70
     1
102
RTVSPropertyOp29
 70
     1
102
RTVSPropertyOp30
 70
     1
102
RTVSPropertyOp31
 70
     1
102
RTVSPropertyOp32
 70
     1
102
RTVSPropertyOp33
 70
     1
102
RTVSPropertyOp34
 70
     1
102
RTVSPropertyOp35
 70
     1
102
RTVSPropertyOp36
 70
     1
102
RTVSPropertyOp37
 70
     1
102
RTVSPropertyOp38
 70
     1
102
RTVSPropertyOp39
 70
     1
102
RTVSPropertyOp40
 70
     1
102
RTVSPropertyOp41
 70
     1
102
RTVSPropertyOp42
 70
     1
102
RTVSPropertyOp43
 70
     1
102
RTVSPropertyOp44
 70
     1
102
RTVSPropertyOp45
 70
     1
102
RTVSPropertyOp46
 70
     1
102
RTVSPropertyOp47
 70
     1
102
RTVSPropertyOp48
 70
     1
102
RTVSPropertyOp49
 70
     1
102
RTVSPropertyOp50
 70
     1
102
RTVSPropertyOp51
 70
     0
102
RTVSPropertyOp52
 70
     0
102
RTVSPropertyOp53
 70
     1
102
RTVSPropertyOp54
 70
     1
102
RTVSPropertyOp55
 70
     1
102
RTVSPropertyOp56
 70
     1
102
RTVSPropertyOp57
 70
     1
102
RTVSPost2010Prop28
280
     1
102
RTVSPost2010PropOp28
 70
     1
102
RTVSPost2010Prop29
280
     1
102
RTVSPost2010PropOp29
 70
     1
102
RTVSPost2010Prop30
280
     0
102
RTVSPost2010PropOp30
 70
     1
102
RTVSPost2010Prop31
280
     0
102
RTVSPost2010PropOp31
 70
     1
102
RTVSPost2010Prop32
280
     0
102
RTVSPost2010PropOp32
 70
     1
102
RTVSPost2010Prop33
280
     0
102
RTVSPost2010PropOp33
 70
     1
102
RTVSPost2010Prop34
280
     0
102
RTVSPost2010PropOp34
 70
     1
102
RTVSPost2010Prop35
280
     0
102
RTVSPost2010PropOp35
 70
     1
102
RTVSPost2010Prop36
280
     0
102
RTVSPost2010PropOp36
 70
     1
102
RTVSPost2010Prop37
 90
       50
102
RTVSPost2010PropOp37
 70
     1
102
RTVSPost2010Prop38
140
0.0
102
RTVSPost2010PropOp38
 70
     1
102
RTVSPost2010Prop39
140
1.0
102
RTVSPost2010PropOp39
 70
     1
102
RTVSPost2010Prop40
 90
        0
102
RTVSPost2010PropOp40
 70
     1
102
RTVSPost2010Prop41ColorIndex
 90
       18
102
RTVSPost2010Prop41ColorRGB
 90
        0
102
RTVSPost2010PropOp41
 70
     1
102
RTVSPost2010Prop42
 90
       50
102
RTVSPost2010PropOp42
 70
     1
102
RTVSPost2010Prop43
 90
        3
102
RTVSPost2010PropOp43
 70
     1
102
RTVSPost2010Prop44ColorIndex
 90
        5
102
RTVSPost2010Prop44ColorRGB
 90
      255
102
RTVSPost2010PropOp44
 70
     1
102
RTVSPost2010Prop45
280
     0
102
RTVSPost2010PropOp45
 70
     1
102
RTVSPost2010Prop46
 90
       50
102
RTVSPost2010PropOp46
 70
     1
102
RTVSPost2010Prop47
 90
       50
102
RTVSPost2010PropOp47
 70
     1
102
RTVSPost2010Prop48
 90
       50
102
RTVSPost2010PropOp48
 70
     1
102
RTVSPost2010Prop49
280
     0
102
RTVSPost2010PropOp49
 70
     1
102
RTVSPost2010Prop50
 90
       50
102
RTVSPost2010PropOp50
 70
     1
102
RTVSPost2010Prop51ColorIndex
 90
      256
102
RTVSPost2010Prop51ColorRGB
 90
-16777216
102
RTVSPost2010PropOp51
 70
     0
102
RTVSPost2010Prop52
140
1.0
102
RTVSPost2010PropOp52
 70
     0
102
RTVSPost2010Prop53
 90
        2
102
RTVSPost2010PropOp53
 70
     1
102
RTVSPost2010Prop54
  1
strokes_ogs.tif
102
RTVSPost2010PropOp54
 70
     1
102
RTVSPost2010Prop55
280
     0
102
RTVSPost2010PropOp55
 70
     1
102
RTVSPost2010Prop56
140
1.0
102
RTVSPost2010PropOp56
 70
     1
102
RTVSPost2010Prop57
140
1.0
102
RTVSPost2010PropOp57
 70
     1
  0
XRECORD
  5
207
102
{ACAD_REACTORS
330
206
102
}
330
206
100
AcDbXrecord
280
     1
102
RTVSPropertyOp0
 70
     1
102
RTVSPropertyOp1
 70
     1
102
RTVSPropertyOp2
 70
     1
102
RTVSPropertyOp3
 70
     1
102
RTVSPropertyOp4
 70
     1
102
RTVSPropertyOp5
 70
     1
102
RTVSPropertyOp6
 70
     1
102
RTVSPropertyOp7
 70
     1
102
RTVSPropertyOp8
 70
     1
102
RTVSPropertyOp9
 70
     1
102
RTVSPropertyOp10
 70
     1
102
RTVSPropertyOp11
 70
     1
102
RTVSPropertyOp12
 70
     1
102
RTVSPropertyOp13
 70
     1
102
RTVSPropertyOp14
 70
     1
102
RTVSPropertyOp15
 70
     1
102
RTVSPropertyOp16
 70
     1
102
RTVSPropertyOp17
 70
     1
102
RTVSPropertyOp18
 70
     1
102
RTVSPropertyOp19
 70
     1
102
RTVSPropertyOp20
 70
     1
102
RTVSPropertyOp21
 70
     1
102
RTVSPropertyOp22
 70
     1
102
RTVSPropertyOp23
 70
     1
102
RTVSPropertyOp24
 70
     1
102
RTVSPropertyOp25
 70
     1
102
RTVSPropertyOp26
 70
     1
102
RTVSPropertyOp27
 70
     1
102
RTVSPropertyOp28
 70
     1
102
RTVSPropertyOp29
 70
     1
102
RTVSPropertyOp30
 70
     1
102
RTVSPropertyOp31
 70
     1
102
RTVSPropertyOp32
 70
     1
102
RTVSPropertyOp33
 70
     1
102
RTVSPropertyOp34
 70
     1
102
RTVSPropertyOp35
 70
     1
102
RTVSPropertyOp36
 70
     1
102
RTVSPropertyOp37
 70
     1
102
RTVSPropertyOp38
 70
     1
102
RTVSPropertyOp39
 70
     1
102
RTVSPropertyOp40
 70
     1
102
RTVSPropertyOp41
 70
     1
102
RTVSPropertyOp42
 70
     1
102
RTVSPropertyOp43
 70
     1
102
RTVSPropertyOp44
 70
     1
102
RTVSPropertyOp45
 70
     1
102
RTVSPropertyOp46
 70
     1
102
RTVSPropertyOp47
 70
     1
102
RTVSPropertyOp48
 70
     1
102
RTVSPropertyOp49
 70
     1
102
RTVSPropertyOp50
 70
     1
102
RTVSPropertyOp51
 70
     0
102
RTVSPropertyOp52
 70
     0
102
RTVSPropertyOp53
 70
     1
102
RTVSPropertyOp54
 70
     1
102
RTVSPropertyOp55
 70
     1
102
RTVSPropertyOp56
 70
     1
102
RTVSPropertyOp57
 70
     1
102
RTVSPost2010Prop28
280
     0
102
RTVSPost2010PropOp28
 70
     1
102
RTVSPost2010Prop29
280
     1
102
RTVSPost2010PropOp29
 70
     1
102
RTVSPost2010Prop30
280
     1
102
RTVSPost2010PropOp30
 70
     1
102
RTVSPost2010Prop31
280
     0
102
RTVSPost2010PropOp31
 70
     1
102
RTVSPost2010Prop32
280
     0
102
RTVSPost2010PropOp32
 70
     1
102
RTVSPost2010Prop33
280
     0
102
RTVSPost2010PropOp33
 70
     1
102
RTVSPost2010Prop34
280
     0
102
RTVSPost2010PropOp34
 70
     1
102
RTVSPost2010Prop35
280
     0
102
RTVSPost2010PropOp35
 70
     1
102
RTVSPost2010Prop36
280
     0
102
RTVSPost2010PropOp36
 70
     1
102
RTVSPost2010Prop37
 90
       50
102
RTVSPost2010PropOp37
 70
     1
102
RTVSPost2010Prop38
140
0.0
102
RTVSPost2010PropOp38
 70
     1
102
RTVSPost2010Prop39
140
1.0
102
RTVSPost2010PropOp39
 70
     1
102
RTVSPost2010Prop40
 90
        0
102
RTVSPost2010PropOp40
 70
     1
102
RTVSPost2010Prop41ColorIndex
 90
       18
102
RTVSPost2010Prop41ColorRGB
 90
        0
102
RTVSPost2010PropOp41
 70
     1
102
RTVSPost2010Prop42
 90
       50
102
RTVSPost2010PropOp42
 70
     1
102
RTVSPost2010Prop43
 90
        3
102
RTVSPost2010PropOp43
 70
     1
102
RTVSPost2010Prop44ColorIndex
 90
        5
102
RTVSPost2010Prop44ColorRGB
 90
      255
102
RTVSPost2010PropOp44
 70
     1
102
RTVSPost2010Prop45
280
     0
102
RTVSPost2010PropOp45
 70
     1
102
RTVSPost2010Prop46
 90
       50
102
RTVSPost2010PropOp46
 70
     1
102
RTVSPost2010Prop47
 90
       50
102
RTVSPost2010PropOp47
 70
     1
102
RTVSPost2010Prop48
 90
       50
102
RTVSPost2010PropOp48
 70
     1
102
RTVSPost2010Prop49
280
     0
102
RTVSPost2010PropOp49
 70
     1
102
RTVSPost2010Prop50
 90
       50
102
RTVSPost2010PropOp50
 70
     1
102
RTVSPost2010Prop51ColorIndex
 90
      256
102
RTVSPost2010Prop51ColorRGB
 90
-16777216
102
RTVSPost2010PropOp51
 70
     0
102
RTVSPost2010Prop52
140
1.0
102
RTVSPost2010PropOp52
 70
     0
102
RTVSPost2010Prop53
 90
        2
102
RTVSPost2010PropOp53
 70
     1
102
RTVSPost2010Prop54
  1
strokes_ogs.tif
102
RTVSPost2010PropOp54
 70
     1
102
RTVSPost2010Prop55
280
     0
102
RTVSPost2010PropOp55
 70
     1
102
RTVSPost2010Prop56
140
1.0
102
RTVSPost2010PropOp56
 70
     1
102
RTVSPost2010Prop57
140
1.0
102
RTVSPost2010PropOp57
 70
     1
  0
XRECORD
  5
20F
102
{ACAD_REACTORS
330
20E
102
}
330
20E
100
AcDbXrecord
280
     1
102
RTVSPropertyOp0
 70
     1
102
RTVSPropertyOp1
 70
     1
102
RTVSPropertyOp2
 70
     1
102
RTVSPropertyOp3
 70
     1
102
RTVSPropertyOp4
 70
     1
102
RTVSPropertyOp5
 70
     1
102
RTVSPropertyOp6
 70
     1
102
RTVSPropertyOp7
 70
     1
102
RTVSPropertyOp8
 70
     1
102
RTVSPropertyOp9
 70
     1
102
RTVSPropertyOp10
 70
     1
102
RTVSPropertyOp11
 70
     1
102
RTVSPropertyOp12
 70
     1
102
RTVSPropertyOp13
 70
     1
102
RTVSPropertyOp14
 70
     1
102
RTVSPropertyOp15
 70
     1
102
RTVSPropertyOp16
 70
     1
102
RTVSPropertyOp17
 70
     1
102
RTVSPropertyOp18
 70
     1
102
RTVSPropertyOp19
 70
     1
102
RTVSPropertyOp20
 70
     1
102
RTVSPropertyOp21
 70
     1
102
RTVSPropertyOp22
 70
     1
102
RTVSPropertyOp23
 70
     1
102
RTVSPropertyOp24
 70
     1
102
RTVSPropertyOp25
 70
     1
102
RTVSPropertyOp26
 70
     1
102
RTVSPropertyOp27
 70
     1
102
RTVSPropertyOp28
 70
     1
102
RTVSPropertyOp29
 70
     1
102
RTVSPropertyOp30
 70
     1
102
RTVSPropertyOp31
 70
     1
102
RTVSPropertyOp32
 70
     1
102
RTVSPropertyOp33
 70
     1
102
RTVSPropertyOp34
 70
     1
102
RTVSPropertyOp35
 70
     1
102
RTVSPropertyOp36
 70
     1
102
RTVSPropertyOp37
 70
     1
102
RTVSPropertyOp38
 70
     1
102
RTVSPropertyOp39
 70
     1
102
RTVSPropertyOp40
 70
     1
102
RTVSPropertyOp41
 70
     1
102
RTVSPropertyOp42
 70
     1
102
RTVSPropertyOp43
 70
     1
102
RTVSPropertyOp44
 70
     1
102
RTVSPropertyOp45
 70
     1
102
RTVSPropertyOp46
 70
     1
102
RTVSPropertyOp47
 70
     1
102
RTVSPropertyOp48
 70
     1
102
RTVSPropertyOp49
 70
     1
102
RTVSPropertyOp50
 70
     1
102
RTVSPropertyOp51
 70
     0
102
RTVSPropertyOp52
 70
     0
102
RTVSPropertyOp53
 70
     1
102
RTVSPropertyOp54
 70
     1
102
RTVSPropertyOp55
 70
     1
102
RTVSPropertyOp56
 70
     1
102
RTVSPropertyOp57
 70
     1
102
RTVSPost2010Prop28
280
     0
102
RTVSPost2010PropOp28
 70
     1
102
RTVSPost2010Prop29
280
     1
102
RTVSPost2010PropOp29
 70
     1
102
RTVSPost2010Prop30
280
     1
102
RTVSPost2010PropOp30
 70
     1
102
RTVSPost2010Prop31
280
     0
102
RTVSPost2010PropOp31
 70
     1
102
RTVSPost2010Prop32
280
     0
102
RTVSPost2010PropOp32
 70
     1
102
RTVSPost2010Prop33
280
     0
102
RTVSPost2010PropOp33
 70
     1
102
RTVSPost2010Prop34
280
     0
102
RTVSPost2010PropOp34
 70
     1
102
RTVSPost2010Prop35
280
     0
102
RTVSPost2010PropOp35
 70
     1
102
RTVSPost2010Prop36
280
     0
102
RTVSPost2010PropOp36
 70
     1
102
RTVSPost2010Prop37
 90
       50
102
RTVSPost2010PropOp37
 70
     1
102
RTVSPost2010Prop38
140
0.0
102
RTVSPost2010PropOp38
 70
     1
102
RTVSPost2010Prop39
140
1.0
102
RTVSPost2010PropOp39
 70
     1
102
RTVSPost2010Prop40
 90
        0
102
RTVSPost2010PropOp40
 70
     1
102
RTVSPost2010Prop41ColorIndex
 90
       18
102
RTVSPost2010Prop41ColorRGB
 90
        0
102
RTVSPost2010PropOp41
 70
     1
102
RTVSPost2010Prop42
 90
       50
102
RTVSPost2010PropOp42
 70
     1
102
RTVSPost2010Prop43
 90
        3
102
RTVSPost2010PropOp43
 70
     1
102
RTVSPost2010Prop44ColorIndex
 90
        5
102
RTVSPost2010Prop44ColorRGB
 90
      255
102
RTVSPost2010PropOp44
 70
     1
102
RTVSPost2010Prop45
280
     0
102
RTVSPost2010PropOp45
 70
     1
102
RTVSPost2010Prop46
 90
       50
102
RTVSPost2010PropOp46
 70
     1
102
RTVSPost2010Prop47
 90
       50
102
RTVSPost2010PropOp47
 70
     1
102
RTVSPost2010Prop48
 90
       50
102
RTVSPost2010PropOp48
 70
     1
102
RTVSPost2010Prop49
280
     0
102
RTVSPost2010PropOp49
 70
     1
102
RTVSPost2010Prop50
 90
       50
102
RTVSPost2010PropOp50
 70
     1
102
RTVSPost2010Prop51ColorIndex
 90
      256
102
RTVSPost2010Prop51ColorRGB
 90
-16777216
102
RTVSPost2010PropOp51
 70
     0
102
RTVSPost2010Prop52
140
1.0
102
RTVSPost2010PropOp52
 70
     0
102
RTVSPost2010Prop53
 90
        2
102
RTVSPost2010PropOp53
 70
     1
102
RTVSPost2010Prop54
  1
strokes_ogs.tif
102
RTVSPost2010PropOp54
 70
     1
102
RTVSPost2010Prop55
280
     0
102
RTVSPost2010PropOp55
 70
     1
102
RTVSPost2010Prop56
140
1.0
102
RTVSPost2010PropOp56
 70
     1
102
RTVSPost2010Prop57
140
1.0
102
RTVSPost2010PropOp57
 70
     1
  0
XRECORD
  5
217
102
{ACAD_REACTORS
330
216
102
}
330
216
100
AcDbXrecord
280
     1
102
RTVSPropertyOp0
 70
     1
102
RTVSPropertyOp1
 70
     1
102
RTVSPropertyOp2
 70
     1
102
RTVSPropertyOp3
 70
     1
102
RTVSPropertyOp4
 70
     1
102
RTVSPropertyOp5
 70
     1
102
RTVSPropertyOp6
 70
     1
102
RTVSPropertyOp7
 70
     1
102
RTVSPropertyOp8
 70
     1
102
RTVSPropertyOp9
 70
     1
102
RTVSPropertyOp10
 70
     1
102
RTVSPropertyOp11
 70
     1
102
RTVSPropertyOp12
 70
     1
102
RTVSPropertyOp13
 70
     1
102
RTVSPropertyOp14
 70
     1
102
RTVSPropertyOp15
 70
     1
102
RTVSPropertyOp16
 70
     1
102
RTVSPropertyOp17
 70
     1
102
RTVSPropertyOp18
 70
     1
102
RTVSPropertyOp19
 70
     1
102
RTVSPropertyOp20
 70
     1
102
RTVSPropertyOp21
 70
     1
102
RTVSPropertyOp22
 70
     1
102
RTVSPropertyOp23
 70
     1
102
RTVSPropertyOp24
 70
     1
102
RTVSPropertyOp25
 70
     1
102
RTVSPropertyOp26
 70
     1
102
RTVSPropertyOp27
 70
     1
102
RTVSPropertyOp28
 70
     1
102
RTVSPropertyOp29
 70
     1
102
RTVSPropertyOp30
 70
     1
102
RTVSPropertyOp31
 70
     1
102
RTVSPropertyOp32
 70
     1
102
RTVSPropertyOp33
 70
     1
102
RTVSPropertyOp34
 70
     1
102
RTVSPropertyOp35
 70
     1
102
RTVSPropertyOp36
 70
     1
102
RTVSPropertyOp37
 70
     1
102
RTVSPropertyOp38
 70
     1
102
RTVSPropertyOp39
 70
     1
102
RTVSPropertyOp40
 70
     1
102
RTVSPropertyOp41
 70
     1
102
RTVSPropertyOp42
 70
     1
102
RTVSPropertyOp43
 70
     1
102
RTVSPropertyOp44
 70
     1
102
RTVSPropertyOp45
 70
     1
102
RTVSPropertyOp46
 70
     1
102
RTVSPropertyOp47
 70
     1
102
RTVSPropertyOp48
 70
     1
102
RTVSPropertyOp49
 70
     1
102
RTVSPropertyOp50
 70
     1
102
RTVSPropertyOp51
 70
     0
102
RTVSPropertyOp52
 70
     0
102
RTVSPropertyOp53
 70
     1
102
RTVSPropertyOp54
 70
     1
102
RTVSPropertyOp55
 70
     1
102
RTVSPropertyOp56
 70
     1
102
RTVSPropertyOp57
 70
     1
102
RTVSPost2010Prop28
280
     0
102
RTVSPost2010PropOp28
 70
     1
102
RTVSPost2010Prop29
280
     1
102
RTVSPost2010PropOp29
 70
     1
102
RTVSPost2010Prop30
280
     1
102
RTVSPost2010PropOp30
 70
     1
102
RTVSPost2010Prop31
280
     0
102
RTVSPost2010PropOp31
 70
     1
102
RTVSPost2010Prop32
280
     0
102
RTVSPost2010PropOp32
 70
     1
102
RTVSPost2010Prop33
280
     0
102
RTVSPost2010PropOp33
 70
     1
102
RTVSPost2010Prop34
280
     0
102
RTVSPost2010PropOp34
 70
     1
102
RTVSPost2010Prop35
280
     0
102
RTVSPost2010PropOp35
 70
     1
102
RTVSPost2010Prop36
280
     0
102
RTVSPost2010PropOp36
 70
     1
102
RTVSPost2010Prop37
 90
       50
102
RTVSPost2010PropOp37
 70
     1
102
RTVSPost2010Prop38
140
0.0
102
RTVSPost2010PropOp38
 70
     1
102
RTVSPost2010Prop39
140
1.0
102
RTVSPost2010PropOp39
 70
     1
102
RTVSPost2010Prop40
 90
        0
102
RTVSPost2010PropOp40
 70
     1
102
RTVSPost2010Prop41ColorIndex
 90
       18
102
RTVSPost2010Prop41ColorRGB
 90
        0
102
RTVSPost2010PropOp41
 70
     1
102
RTVSPost2010Prop42
 90
       50
102
RTVSPost2010PropOp42
 70
     1
102
RTVSPost2010Prop43
 90
        3
102
RTVSPost2010PropOp43
 70
     1
102
RTVSPost2010Prop44ColorIndex
 90
        5
102
RTVSPost2010Prop44ColorRGB
 90
      255
102
RTVSPost2010PropOp44
 70
     1
102
RTVSPost2010Prop45
280
     0
102
RTVSPost2010PropOp45
 70
     1
102
RTVSPost2010Prop46
 90
       50
102
RTVSPost2010PropOp46
 70
     1
102
RTVSPost2010Prop47
 90
       50
102
RTVSPost2010PropOp47
 70
     1
102
RTVSPost2010Prop48
 90
       50
102
RTVSPost2010PropOp48
 70
     1
102
RTVSPost2010Prop49
280
     0
102
RTVSPost2010PropOp49
 70
     1
102
RTVSPost2010Prop50
 90
       50
102
RTVSPost2010PropOp50
 70
     1
102
RTVSPost2010Prop51ColorIndex
 90
      256
102
RTVSPost2010Prop51ColorRGB
 90
-16777216
102
RTVSPost2010PropOp51
 70
     0
102
RTVSPost2010Prop52
140
1.0
102
RTVSPost2010PropOp52
 70
     0
102
RTVSPost2010Prop53
 90
        2
102
RTVSPost2010PropOp53
 70
     1
102
RTVSPost2010Prop54
  1
strokes_ogs.tif
102
RTVSPost2010PropOp54
 70
     1
102
RTVSPost2010Prop55
280
     0
102
RTVSPost2010PropOp55
 70
     1
102
RTVSPost2010Prop56
140
1.0
102
RTVSPost2010PropOp56
 70
     1
102
RTVSPost2010Prop57
140
1.0
102
RTVSPost2010PropOp57
 70
     1
  0
XRECORD
  5
20B
102
{ACAD_REACTORS
330
20A
102
}
330
20A
100
AcDbXrecord
280
     1
102
RTVSPropertyOp0
 70
     1
102
RTVSPropertyOp1
 70
     1
102
RTVSPropertyOp2
 70
     1
102
RTVSPropertyOp3
 70
     1
102
RTVSPropertyOp4
 70
     1
102
RTVSPropertyOp5
 70
     1
102
RTVSPropertyOp6
 70
     1
102
RTVSPropertyOp7
 70
     1
102
RTVSPropertyOp8
 70
     1
102
RTVSPropertyOp9
 70
     1
102
RTVSPropertyOp10
 70
     1
102
RTVSPropertyOp11
 70
     1
102
RTVSPropertyOp12
 70
     1
102
RTVSPropertyOp13
 70
     1
102
RTVSPropertyOp14
 70
     1
102
RTVSPropertyOp15
 70
     1
102
RTVSPropertyOp16
 70
     1
102
RTVSPropertyOp17
 70
     1
102
RTVSPropertyOp18
 70
     1
102
RTVSPropertyOp19
 70
     1
102
RTVSPropertyOp20
 70
     1
102
RTVSPropertyOp21
 70
     1
102
RTVSPropertyOp22
 70
     1
102
RTVSPropertyOp23
 70
     1
102
RTVSPropertyOp24
 70
     1
102
RTVSPropertyOp25
 70
     1
102
RTVSPropertyOp26
 70
     1
102
RTVSPropertyOp27
 70
     1
102
RTVSPropertyOp28
 70
     1
102
RTVSPropertyOp29
 70
     1
102
RTVSPropertyOp30
 70
     1
102
RTVSPropertyOp31
 70
     1
102
RTVSPropertyOp32
 70
     1
102
RTVSPropertyOp33
 70
     1
102
RTVSPropertyOp34
 70
     1
102
RTVSPropertyOp35
 70
     1
102
RTVSPropertyOp36
 70
     1
102
RTVSPropertyOp37
 70
     1
102
RTVSPropertyOp38
 70
     1
102
RTVSPropertyOp39
 70
     1
102
RTVSPropertyOp40
 70
     1
102
RTVSPropertyOp41
 70
     1
102
RTVSPropertyOp42
 70
     1
102
RTVSPropertyOp43
 70
     1
102
RTVSPropertyOp44
 70
     1
102
RTVSPropertyOp45
 70
     1
102
RTVSPropertyOp46
 70
     1
102
RTVSPropertyOp47
 70
     1
102
RTVSPropertyOp48
 70
     1
102
RTVSPropertyOp49
 70
     1
102
RTVSPropertyOp50
 70
     1
102
RTVSPropertyOp51
 70
     0
102
RTVSPropertyOp52
 70
     0
102
RTVSPropertyOp53
 70
     1
102
RTVSPropertyOp54
 70
     1
102
RTVSPropertyOp55
 70
     1
102
RTVSPropertyOp56
 70
     1
102
RTVSPropertyOp57
 70
     1
102
RTVSPost2010Prop28
280
     0
102
RTVSPost2010PropOp28
 70
     1
102
RTVSPost2010Prop29
280
     1
102
RTVSPost2010PropOp29
 70
     1
102
RTVSPost2010Prop30
280
     1
102
RTVSPost2010PropOp30
 70
     1
102
RTVSPost2010Prop31
280
     0
102
RTVSPost2010PropOp31
 70
     1
102
RTVSPost2010Prop32
280
     0
102
RTVSPost2010PropOp32
 70
     1
102
RTVSPost2010Prop33
280
     0
102
RTVSPost2010PropOp33
 70
     1
102
RTVSPost2010Prop34
280
     0
102
RTVSPost2010PropOp34
 70
     1
102
RTVSPost2010Prop35
280
     0
102
RTVSPost2010PropOp35
 70
     1
102
RTVSPost2010Prop36
280
     0
102
RTVSPost2010PropOp36
 70
     1
102
RTVSPost2010Prop37
 90
       50
102
RTVSPost2010PropOp37
 70
     1
102
RTVSPost2010Prop38
140
0.0
102
RTVSPost2010PropOp38
 70
     1
102
RTVSPost2010Prop39
140
1.0
102
RTVSPost2010PropOp39
 70
     1
102
RTVSPost2010Prop40
 90
        0
102
RTVSPost2010PropOp40
 70
     1
102
RTVSPost2010Prop41ColorIndex
 90
       18
102
RTVSPost2010Prop41ColorRGB
 90
        0
102
RTVSPost2010PropOp41
 70
     1
102
RTVSPost2010Prop42
 90
       50
102
RTVSPost2010PropOp42
 70
     1
102
RTVSPost2010Prop43
 90
        3
102
RTVSPost2010PropOp43
 70
     1
102
RTVSPost2010Prop44ColorIndex
 90
        5
102
RTVSPost2010Prop44ColorRGB
 90
      255
102
RTVSPost2010PropOp44
 70
     1
102
RTVSPost2010Prop45
280
     0
102
RTVSPost2010PropOp45
 70
     1
102
RTVSPost2010Prop46
 90
       50
102
RTVSPost2010PropOp46
 70
     1
102
RTVSPost2010Prop47
 90
       50
102
RTVSPost2010PropOp47
 70
     1
102
RTVSPost2010Prop48
 90
       50
102
RTVSPost2010PropOp48
 70
     1
102
RTVSPost2010Prop49
280
     0
102
RTVSPost2010PropOp49
 70
     1
102
RTVSPost2010Prop50
 90
       50
102
RTVSPost2010PropOp50
 70
     1
102
RTVSPost2010Prop51ColorIndex
 90
      256
102
RTVSPost2010Prop51ColorRGB
 90
-16777216
102
RTVSPost2010PropOp51
 70
     0
102
RTVSPost2010Prop52
140
1.0
102
RTVSPost2010PropOp52
 70
     0
102
RTVSPost2010Prop53
 90
        2
102
RTVSPost2010PropOp53
 70
     1
102
RTVSPost2010Prop54
  1
strokes_ogs.tif
102
RTVSPost2010PropOp54
 70
     1
102
RTVSPost2010Prop55
280
     0
102
RTVSPost2010PropOp55
 70
     1
102
RTVSPost2010Prop56
140
1.0
102
RTVSPost2010PropOp56
 70
     1
102
RTVSPost2010Prop57
140
1.0
102
RTVSPost2010PropOp57
 70
     1
  0
XRECORD
  5
20D
102
{ACAD_REACTORS
330
20C
102
}
330
20C
100
AcDbXrecord
280
     1
102
RTVSPropertyOp0
 70
     1
102
RTVSPropertyOp1
 70
     1
102
RTVSPropertyOp2
 70
     1
102
RTVSPropertyOp3
 70
     1
102
RTVSPropertyOp4
 70
     1
102
RTVSPropertyOp5
 70
     1
102
RTVSPropertyOp6
 70
     1
102
RTVSPropertyOp7
 70
     1
102
RTVSPropertyOp8
 70
     1
102
RTVSPropertyOp9
 70
     1
102
RTVSPropertyOp10
 70
     1
102
RTVSPropertyOp11
 70
     1
102
RTVSPropertyOp12
 70
     1
102
RTVSPropertyOp13
 70
     1
102
RTVSPropertyOp14
 70
     1
102
RTVSPropertyOp15
 70
     1
102
RTVSPropertyOp16
 70
     1
102
RTVSPropertyOp17
 70
     1
102
RTVSPropertyOp18
 70
     1
102
RTVSPropertyOp19
 70
     1
102
RTVSPropertyOp20
 70
     1
102
RTVSPropertyOp21
 70
     1
102
RTVSPropertyOp22
 70
     1
102
RTVSPropertyOp23
 70
     1
102
RTVSPropertyOp24
 70
     1
102
RTVSPropertyOp25
 70
     1
102
RTVSPropertyOp26
 70
     1
102
RTVSPropertyOp27
 70
     1
102
RTVSPropertyOp28
 70
     1
102
RTVSPropertyOp29
 70
     1
102
RTVSPropertyOp30
 70
     1
102
RTVSPropertyOp31
 70
     1
102
RTVSPropertyOp32
 70
     1
102
RTVSPropertyOp33
 70
     1
102
RTVSPropertyOp34
 70
     1
102
RTVSPropertyOp35
 70
     1
102
RTVSPropertyOp36
 70
     1
102
RTVSPropertyOp37
 70
     1
102
RTVSPropertyOp38
 70
     1
102
RTVSPropertyOp39
 70
     1
102
RTVSPropertyOp40
 70
     1
102
RTVSPropertyOp41
 70
     1
102
RTVSPropertyOp42
 70
     1
102
RTVSPropertyOp43
 70
     1
102
RTVSPropertyOp44
 70
     1
102
RTVSPropertyOp45
 70
     1
102
RTVSPropertyOp46
 70
     1
102
RTVSPropertyOp47
 70
     1
102
RTVSPropertyOp48
 70
     1
102
RTVSPropertyOp49
 70
     1
102
RTVSPropertyOp50
 70
     1
102
RTVSPropertyOp51
 70
     0
102
RTVSPropertyOp52
 70
     0
102
RTVSPropertyOp53
 70
     1
102
RTVSPropertyOp54
 70
     1
102
RTVSPropertyOp55
 70
     1
102
RTVSPropertyOp56
 70
     1
102
RTVSPropertyOp57
 70
     1
102
RTVSPost2010Prop28
280
     0
102
RTVSPost2010PropOp28
 70
     1
102
RTVSPost2010Prop29
280
     1
102
RTVSPost2010PropOp29
 70
     1
102
RTVSPost2010Prop30
280
     1
102
RTVSPost2010PropOp30
 70
     1
102
RTVSPost2010Prop31
280
     0
102
RTVSPost2010PropOp31
 70
     1
102
RTVSPost2010Prop32
280
     0
102
RTVSPost2010PropOp32
 70
     1
102
RTVSPost2010Prop33
280
     0
102
RTVSPost2010PropOp33
 70
     1
102
RTVSPost2010Prop34
280
     0
102
RTVSPost2010PropOp34
 70
     1
102
RTVSPost2010Prop35
280
     0
102
RTVSPost2010PropOp35
 70
     1
102
RTVSPost2010Prop36
280
     0
102
RTVSPost2010PropOp36
 70
     1
102
RTVSPost2010Prop37
 90
       50
102
RTVSPost2010PropOp37
 70
     1
102
RTVSPost2010Prop38
140
0.0
102
RTVSPost2010PropOp38
 70
     1
102
RTVSPost2010Prop39
140
1.0
102
RTVSPost2010PropOp39
 70
     1
102
RTVSPost2010Prop40
 90
        0
102
RTVSPost2010PropOp40
 70
     1
102
RTVSPost2010Prop41ColorIndex
 90
       18
102
RTVSPost2010Prop41ColorRGB
 90
        0
102
RTVSPost2010PropOp41
 70
     1
102
RTVSPost2010Prop42
 90
       50
102
RTVSPost2010PropOp42
 70
     1
102
RTVSPost2010Prop43
 90
        3
102
RTVSPost2010PropOp43
 70
     1
102
RTVSPost2010Prop44ColorIndex
 90
        5
102
RTVSPost2010Prop44ColorRGB
 90
      255
102
RTVSPost2010PropOp44
 70
     1
102
RTVSPost2010Prop45
280
     0
102
RTVSPost2010PropOp45
 70
     1
102
RTVSPost2010Prop46
 90
       50
102
RTVSPost2010PropOp46
 70
     1
102
RTVSPost2010Prop47
 90
       50
102
RTVSPost2010PropOp47
 70
     1
102
RTVSPost2010Prop48
 90
       50
102
RTVSPost2010PropOp48
 70
     1
102
RTVSPost2010Prop49
280
     0
102
RTVSPost2010PropOp49
 70
     1
102
RTVSPost2010Prop50
 90
       50
102
RTVSPost2010PropOp50
 70
     1
102
RTVSPost2010Prop51ColorIndex
 90
      256
102
RTVSPost2010Prop51ColorRGB
 90
-16777216
102
RTVSPost2010PropOp51
 70
     0
102
RTVSPost2010Prop52
140
1.0
102
RTVSPost2010PropOp52
 70
     0
102
RTVSPost2010Prop53
 90
        2
102
RTVSPost2010PropOp53
 70
     1
102
RTVSPost2010Prop54
  1
strokes_ogs.tif
102
RTVSPost2010PropOp54
 70
     1
102
RTVSPost2010Prop55
280
     0
102
RTVSPost2010PropOp55
 70
     1
102
RTVSPost2010Prop56
140
1.0
102
RTVSPost2010PropOp56
 70
     1
102
RTVSPost2010Prop57
140
1.0
102
RTVSPost2010PropOp57
 70
     1
  0
XRECORD
  5
21D
102
{ACAD_REACTORS
330
21C
102
}
330
21C
100
AcDbXrecord
280
     1
102
RTVSPropertyOp0
 70
     0
102
RTVSPropertyOp1
 70
     0
102
RTVSPropertyOp2
 70
     0
102
RTVSPropertyOp3
 70
     0
102
RTVSPropertyOp4
 70
     0
102
RTVSPropertyOp5
 70
     0
102
RTVSPropertyOp6
 70
     0
102
RTVSPropertyOp7
 70
     0
102
RTVSPropertyOp8
 70
     0
102
RTVSPropertyOp9
 70
     0
102
RTVSPropertyOp10
 70
     0
102
RTVSPropertyOp11
 70
     0
102
RTVSPropertyOp12
 70
     0
102
RTVSPropertyOp13
 70
     0
102
RTVSPropertyOp14
 70
     2
102
RTVSPropertyOp15
 70
     0
102
RTVSPropertyOp16
 70
     0
102
RTVSPropertyOp17
 70
     0
102
RTVSPropertyOp18
 70
     0
102
RTVSPropertyOp19
 70
     0
102
RTVSPropertyOp20
 70
     0
102
RTVSPropertyOp21
 70
     0
102
RTVSPropertyOp22
 70
     0
102
RTVSPropertyOp23
 70
     0
102
RTVSPropertyOp24
 70
     0
102
RTVSPropertyOp25
 70
     0
102
RTVSPropertyOp26
 70
     0
102
RTVSPropertyOp27
 70
     0
102
RTVSPropertyOp28
 70
     0
102
RTVSPropertyOp29
 70
     0
102
RTVSPropertyOp30
 70
     0
102
RTVSPropertyOp31
 70
     0
102
RTVSPropertyOp32
 70
     0
102
RTVSPropertyOp33
 70
     0
102
RTVSPropertyOp34
 70
     0
102
RTVSPropertyOp35
 70
     0
102
RTVSPropertyOp36
 70
     0
102
RTVSPropertyOp37
 70
     0
102
RTVSPropertyOp38
 70
     0
102
RTVSPropertyOp39
 70
     0
102
RTVSPropertyOp40
 70
     0
102
RTVSPropertyOp41
 70
     0
102
RTVSPropertyOp42
 70
     0
102
RTVSPropertyOp43
 70
     0
102
RTVSPropertyOp44
 70
     0
102
RTVSPropertyOp45
 70
     0
102
RTVSPropertyOp46
 70
     0
102
RTVSPropertyOp47
 70
     0
102
RTVSPropertyOp48
 70
     0
102
RTVSPropertyOp49
 70
     0
102
RTVSPropertyOp50
 70
     0
102
RTVSPropertyOp51
 70
     0
102
RTVSPropertyOp52
 70
     0
102
RTVSPropertyOp53
 70
     0
102
RTVSPropertyOp54
 70
     0
102
RTVSPropertyOp55
 70
     0
102
RTVSPropertyOp56
 70
     0
102
RTVSPropertyOp57
 70
     0
102
RTVSPost2010Prop28
280
     0
102
RTVSPost2010PropOp28
 70
     0
102
RTVSPost2010Prop29
280
     1
102
RTVSPost2010PropOp29
 70
     0
102
RTVSPost2010Prop30
280
     1
102
RTVSPost2010PropOp30
 70
     0
102
RTVSPost2010Prop31
280
     0
102
RTVSPost2010PropOp31
 70
     0
102
RTVSPost2010Prop32
280
     0
102
RTVSPost2010PropOp32
 70
     0
102
RTVSPost2010Prop33
280
     0
102
RTVSPost2010PropOp33
 70
     0
102
RTVSPost2010Prop34
280
     0
102
RTVSPost2010PropOp34
 70
     0
102
RTVSPost2010Prop35
280
     0
102
RTVSPost2010PropOp35
 70
     0
102
RTVSPost2010Prop36
280
     0
102
RTVSPost2010PropOp36
 70
     0
102
RTVSPost2010Prop37
 90
       50
102
RTVSPost2010PropOp37
 70
     0
102
RTVSPost2010Prop38
140
0.0
102
RTVSPost2010PropOp38
 70
     0
102
RTVSPost2010Prop39
140
1.0
102
RTVSPost2010PropOp39
 70
     0
102
RTVSPost2010Prop40
 90
        0
102
RTVSPost2010PropOp40
 70
     0
102
RTVSPost2010Prop41ColorIndex
 90
       18
102
RTVSPost2010Prop41ColorRGB
 90
        0
102
RTVSPost2010PropOp41
 70
     0
102
RTVSPost2010Prop42
 90
       50
102
RTVSPost2010PropOp42
 70
     0
102
RTVSPost2010Prop43
 90
        3
102
RTVSPost2010PropOp43
 70
     0
102
RTVSPost2010Prop44ColorIndex
 90
        5
102
RTVSPost2010Prop44ColorRGB
 90
      255
102
RTVSPost2010PropOp44
 70
     0
102
RTVSPost2010Prop45
280
     0
102
RTVSPost2010PropOp45
 70
     0
102
RTVSPost2010Prop46
 90
       50
102
RTVSPost2010PropOp46
 70
     0
102
RTVSPost2010Prop47
 90
       50
102
RTVSPost2010PropOp47
 70
     0
102
RTVSPost2010Prop48
 90
       50
102
RTVSPost2010PropOp48
 70
     0
102
RTVSPost2010Prop49
280
     0
102
RTVSPost2010PropOp49
 70
     0
102
RTVSPost2010Prop50
 90
       50
102
RTVSPost2010PropOp50
 70
     0
102
RTVSPost2010Prop51ColorIndex
 90
      256
102
RTVSPost2010Prop51ColorRGB
 90
-16777216
102
RTVSPost2010PropOp51
 70
     0
102
RTVSPost2010Prop52
140
1.0
102
RTVSPost2010PropOp52
 70
     0
102
RTVSPost2010Prop53
 90
        2
102
RTVSPost2010PropOp53
 70
     0
102
RTVSPost2010Prop54
  1
strokes_ogs.tif
102
RTVSPost2010PropOp54
 70
     0
102
RTVSPost2010Prop55
280
     0
102
RTVSPost2010PropOp55
 70
     0
102
RTVSPost2010Prop56
140
1.0
102
RTVSPost2010PropOp56
 70
     0
102
RTVSPost2010Prop57
140
1.0
102
RTVSPost2010PropOp57
 70
     0
  0
XRECORD
  5
215
102
{ACAD_REACTORS
330
214
102
}
330
214
100
AcDbXrecord
280
     1
102
RTVSPropertyOp0
 70
     1
102
RTVSPropertyOp1
 70
     1
102
RTVSPropertyOp2
 70
     1
102
RTVSPropertyOp3
 70
     1
102
RTVSPropertyOp4
 70
     1
102
RTVSPropertyOp5
 70
     1
102
RTVSPropertyOp6
 70
     1
102
RTVSPropertyOp7
 70
     1
102
RTVSPropertyOp8
 70
     1
102
RTVSPropertyOp9
 70
     1
102
RTVSPropertyOp10
 70
     1
102
RTVSPropertyOp11
 70
     1
102
RTVSPropertyOp12
 70
     1
102
RTVSPropertyOp13
 70
     1
102
RTVSPropertyOp14
 70
     1
102
RTVSPropertyOp15
 70
     1
102
RTVSPropertyOp16
 70
     1
102
RTVSPropertyOp17
 70
     1
102
RTVSPropertyOp18
 70
     1
102
RTVSPropertyOp19
 70
     1
102
RTVSPropertyOp20
 70
     1
102
RTVSPropertyOp21
 70
     1
102
RTVSPropertyOp22
 70
     1
102
RTVSPropertyOp23
 70
     1
102
RTVSPropertyOp24
 70
     1
102
RTVSPropertyOp25
 70
     1
102
RTVSPropertyOp26
 70
     1
102
RTVSPropertyOp27
 70
     1
102
RTVSPropertyOp28
 70
     1
102
RTVSPropertyOp29
 70
     1
102
RTVSPropertyOp30
 70
     1
102
RTVSPropertyOp31
 70
     1
102
RTVSPropertyOp32
 70
     1
102
RTVSPropertyOp33
 70
     1
102
RTVSPropertyOp34
 70
     1
102
RTVSPropertyOp35
 70
     1
102
RTVSPropertyOp36
 70
     1
102
RTVSPropertyOp37
 70
     1
102
RTVSPropertyOp38
 70
     1
102
RTVSPropertyOp39
 70
     1
102
RTVSPropertyOp40
 70
     1
102
RTVSPropertyOp41
 70
     1
102
RTVSPropertyOp42
 70
     1
102
RTVSPropertyOp43
 70
     1
102
RTVSPropertyOp44
 70
     1
102
RTVSPropertyOp45
 70
     1
102
RTVSPropertyOp46
 70
     1
102
RTVSPropertyOp47
 70
     1
102
RTVSPropertyOp48
 70
     1
102
RTVSPropertyOp49
 70
     1
102
RTVSPropertyOp50
 70
     1
102
RTVSPropertyOp51
 70
     0
102
RTVSPropertyOp52
 70
     0
102
RTVSPropertyOp53
 70
     1
102
RTVSPropertyOp54
 70
     1
102
RTVSPropertyOp55
 70
     1
102
RTVSPropertyOp56
 70
     1
102
RTVSPropertyOp57
 70
     1
102
RTVSPost2010Prop28
280
     0
102
RTVSPost2010PropOp28
 70
     1
102
RTVSPost2010Prop29
280
     1
102
RTVSPost2010PropOp29
 70
     1
102
RTVSPost2010Prop30
280
     1
102
RTVSPost2010PropOp30
 70
     1
102
RTVSPost2010Prop31
280
     0
102
RTVSPost2010PropOp31
 70
     1
102
RTVSPost2010Prop32
280
     0
102
RTVSPost2010PropOp32
 70
     1
102
RTVSPost2010Prop33
280
     0
102
RTVSPost2010PropOp33
 70
     1
102
RTVSPost2010Prop34
280
     0
102
RTVSPost2010PropOp34
 70
     1
102
RTVSPost2010Prop35
280
     0
102
RTVSPost2010PropOp35
 70
     1
102
RTVSPost2010Prop36
280
     0
102
RTVSPost2010PropOp36
 70
     1
102
RTVSPost2010Prop37
 90
       50
102
RTVSPost2010PropOp37
 70
     1
102
RTVSPost2010Prop38
140
0.0
102
RTVSPost2010PropOp38
 70
     1
102
RTVSPost2010Prop39
140
1.0
102
RTVSPost2010PropOp39
 70
     1
102
RTVSPost2010Prop40
 90
        0
102
RTVSPost2010PropOp40
 70
     1
102
RTVSPost2010Prop41ColorIndex
 90
       18
102
RTVSPost2010Prop41ColorRGB
 90
        0
102
RTVSPost2010PropOp41
 70
     1
102
RTVSPost2010Prop42
 90
       50
102
RTVSPost2010PropOp42
 70
     1
102
RTVSPost2010Prop43
 90
        3
102
RTVSPost2010PropOp43
 70
     1
102
RTVSPost2010Prop44ColorIndex
 90
        5
102
RTVSPost2010Prop44ColorRGB
 90
      255
102
RTVSPost2010PropOp44
 70
     1
102
RTVSPost2010Prop45
280
     0
102
RTVSPost2010PropOp45
 70
     1
102
RTVSPost2010Prop46
 90
       50
102
RTVSPost2010PropOp46
 70
     1
102
RTVSPost2010Prop47
 90
       50
102
RTVSPost2010PropOp47
 70
     1
102
RTVSPost2010Prop48
 90
       50
102
RTVSPost2010PropOp48
 70
     1
102
RTVSPost2010Prop49
280
     0
102
RTVSPost2010PropOp49
 70
     1
102
RTVSPost2010Prop50
 90
       50
102
RTVSPost2010PropOp50
 70
     1
102
RTVSPost2010Prop51ColorIndex
 90
      256
102
RTVSPost2010Prop51ColorRGB
 90
-16777216
102
RTVSPost2010PropOp51
 70
     0
102
RTVSPost2010Prop52
140
1.0
102
RTVSPost2010PropOp52
 70
     0
102
RTVSPost2010Prop53
 90
        2
102
RTVSPost2010PropOp53
 70
     1
102
RTVSPost2010Prop54
  1
strokes_ogs.tif
102
RTVSPost2010PropOp54
 70
     1
102
RTVSPost2010Prop55
280
     0
102
RTVSPost2010PropOp55
 70
     1
102
RTVSPost2010Prop56
140
1.0
102
RTVSPost2010PropOp56
 70
     1
102
RTVSPost2010Prop57
140
1.0
102
RTVSPost2010PropOp57
 70
     1
  0
XRECORD
  5
1F9
102
{ACAD_REACTORS
330
1F8
102
}
330
1F8
100
AcDbXrecord
280
     1
102
RTVSPropertyOp0
 70
     1
102
RTVSPropertyOp1
 70
     1
102
RTVSPropertyOp2
 70
     1
102
RTVSPropertyOp3
 70
     1
102
RTVSPropertyOp4
 70
     1
102
RTVSPropertyOp5
 70
     1
102
RTVSPropertyOp6
 70
     1
102
RTVSPropertyOp7
 70
     1
102
RTVSPropertyOp8
 70
     1
102
RTVSPropertyOp9
 70
     1
102
RTVSPropertyOp10
 70
     1
102
RTVSPropertyOp11
 70
     1
102
RTVSPropertyOp12
 70
     1
102
RTVSPropertyOp13
 70
     1
102
RTVSPropertyOp14
 70
     1
102
RTVSPropertyOp15
 70
     1
102
RTVSPropertyOp16
 70
     1
102
RTVSPropertyOp17
 70
     1
102
RTVSPropertyOp18
 70
     1
102
RTVSPropertyOp19
 70
     1
102
RTVSPropertyOp20
 70
     1
102
RTVSPropertyOp21
 70
     1
102
RTVSPropertyOp22
 70
     1
102
RTVSPropertyOp23
 70
     1
102
RTVSPropertyOp24
 70
     1
102
RTVSPropertyOp25
 70
     1
102
RTVSPropertyOp26
 70
     1
102
RTVSPropertyOp27
 70
     1
102
RTVSPropertyOp28
 70
     1
102
RTVSPropertyOp29
 70
     1
102
RTVSPropertyOp30
 70
     1
102
RTVSPropertyOp31
 70
     1
102
RTVSPropertyOp32
 70
     1
102
RTVSPropertyOp33
 70
     1
102
RTVSPropertyOp34
 70
     1
102
RTVSPropertyOp35
 70
     1
102
RTVSPropertyOp36
 70
     1
102
RTVSPropertyOp37
 70
     1
102
RTVSPropertyOp38
 70
     1
102
RTVSPropertyOp39
 70
     1
102
RTVSPropertyOp40
 70
     1
102
RTVSPropertyOp41
 70
     1
102
RTVSPropertyOp42
 70
     1
102
RTVSPropertyOp43
 70
     1
102
RTVSPropertyOp44
 70
     1
102
RTVSPropertyOp45
 70
     1
102
RTVSPropertyOp46
 70
     1
102
RTVSPropertyOp47
 70
     1
102
RTVSPropertyOp48
 70
     1
102
RTVSPropertyOp49
 70
     1
102
RTVSPropertyOp50
 70
     1
102
RTVSPropertyOp51
 70
     0
102
RTVSPropertyOp52
 70
     0
102
RTVSPropertyOp53
 70
     1
102
RTVSPropertyOp54
 70
     1
102
RTVSPropertyOp55
 70
     1
102
RTVSPropertyOp56
 70
     1
102
RTVSPropertyOp57
 70
     1
102
RTVSPost2010Prop28
280
     0
102
RTVSPost2010PropOp28
 70
     1
102
RTVSPost2010Prop29
280
     1
102
RTVSPost2010PropOp29
 70
     1
102
RTVSPost2010Prop30
280
     1
102
RTVSPost2010PropOp30
 70
     1
102
RTVSPost2010Prop31
280
     0
102
RTVSPost2010PropOp31
 70
     1
102
RTVSPost2010Prop32
280
     0
102
RTVSPost2010PropOp32
 70
     1
102
RTVSPost2010Prop33
280
     0
102
RTVSPost2010PropOp33
 70
     1
102
RTVSPost2010Prop34
280
     0
102
RTVSPost2010PropOp34
 70
     1
102
RTVSPost2010Prop35
280
     0
102
RTVSPost2010PropOp35
 70
     1
102
RTVSPost2010Prop36
280
     0
102
RTVSPost2010PropOp36
 70
     1
102
RTVSPost2010Prop37
 90
       50
102
RTVSPost2010PropOp37
 70
     1
102
RTVSPost2010Prop38
140
0.0
102
RTVSPost2010PropOp38
 70
     1
102
RTVSPost2010Prop39
140
1.0
102
RTVSPost2010PropOp39
 70
     1
102
RTVSPost2010Prop40
 90
        0
102
RTVSPost2010PropOp40
 70
     1
102
RTVSPost2010Prop41ColorIndex
 90
       18
102
RTVSPost2010Prop41ColorRGB
 90
        0
102
RTVSPost2010PropOp41
 70
     1
102
RTVSPost2010Prop42
 90
       50
102
RTVSPost2010PropOp42
 70
     1
102
RTVSPost2010Prop43
 90
        3
102
RTVSPost2010PropOp43
 70
     1
102
RTVSPost2010Prop44ColorIndex
 90
        5
102
RTVSPost2010Prop44ColorRGB
 90
      255
102
RTVSPost2010PropOp44
 70
     1
102
RTVSPost2010Prop45
280
     0
102
RTVSPost2010PropOp45
 70
     1
102
RTVSPost2010Prop46
 90
       50
102
RTVSPost2010PropOp46
 70
     1
102
RTVSPost2010Prop47
 90
       50
102
RTVSPost2010PropOp47
 70
     1
102
RTVSPost2010Prop48
 90
       50
102
RTVSPost2010PropOp48
 70
     1
102
RTVSPost2010Prop49
280
     0
102
RTVSPost2010PropOp49
 70
     1
102
RTVSPost2010Prop50
 90
       50
102
RTVSPost2010PropOp50
 70
     1
102
RTVSPost2010Prop51ColorIndex
 90
      256
102
RTVSPost2010Prop51ColorRGB
 90
-16777216
102
RTVSPost2010PropOp51
 70
     0
102
RTVSPost2010Prop52
140
1.0
102
RTVSPost2010PropOp52
 70
     0
102
RTVSPost2010Prop53
 90
        2
102
RTVSPost2010PropOp53
 70
     1
102
RTVSPost2010Prop54
  1
strokes_ogs.tif
102
RTVSPost2010PropOp54
 70
     1
102
RTVSPost2010Prop55
280
     0
102
RTVSPost2010PropOp55
 70
     1
102
RTVSPost2010Prop56
140
1.0
102
RTVSPost2010PropOp56
 70
     1
102
RTVSPost2010Prop57
140
1.0
102
RTVSPost2010PropOp57
 70
     1
  0
XRECORD
  5
1FB
102
{ACAD_REACTORS
330
1FA
102
}
330
1FA
100
AcDbXrecord
280
     1
102
RTVSPropertyOp0
 70
     1
102
RTVSPropertyOp1
 70
     1
102
RTVSPropertyOp2
 70
     1
102
RTVSPropertyOp3
 70
     1
102
RTVSPropertyOp4
 70
     1
102
RTVSPropertyOp5
 70
     1
102
RTVSPropertyOp6
 70
     1
102
RTVSPropertyOp7
 70
     1
102
RTVSPropertyOp8
 70
     1
102
RTVSPropertyOp9
 70
     1
102
RTVSPropertyOp10
 70
     1
102
RTVSPropertyOp11
 70
     1
102
RTVSPropertyOp12
 70
     1
102
RTVSPropertyOp13
 70
     1
102
RTVSPropertyOp14
 70
     1
102
RTVSPropertyOp15
 70
     1
102
RTVSPropertyOp16
 70
     1
102
RTVSPropertyOp17
 70
     1
102
RTVSPropertyOp18
 70
     1
102
RTVSPropertyOp19
 70
     1
102
RTVSPropertyOp20
 70
     1
102
RTVSPropertyOp21
 70
     1
102
RTVSPropertyOp22
 70
     1
102
RTVSPropertyOp23
 70
     1
102
RTVSPropertyOp24
 70
     1
102
RTVSPropertyOp25
 70
     1
102
RTVSPropertyOp26
 70
     1
102
RTVSPropertyOp27
 70
     1
102
RTVSPropertyOp28
 70
     1
102
RTVSPropertyOp29
 70
     1
102
RTVSPropertyOp30
 70
     1
102
RTVSPropertyOp31
 70
     1
102
RTVSPropertyOp32
 70
     1
102
RTVSPropertyOp33
 70
     1
102
RTVSPropertyOp34
 70
     1
102
RTVSPropertyOp35
 70
     1
102
RTVSPropertyOp36
 70
     1
102
RTVSPropertyOp37
 70
     1
102
RTVSPropertyOp38
 70
     1
102
RTVSPropertyOp39
 70
     1
102
RTVSPropertyOp40
 70
     1
102
RTVSPropertyOp41
 70
     1
102
RTVSPropertyOp42
 70
     1
102
RTVSPropertyOp43
 70
     1
102
RTVSPropertyOp44
 70
     1
102
RTVSPropertyOp45
 70
     1
102
RTVSPropertyOp46
 70
     1
102
RTVSPropertyOp47
 70
     1
102
RTVSPropertyOp48
 70
     1
102
RTVSPropertyOp49
 70
     1
102
RTVSPropertyOp50
 70
     1
102
RTVSPropertyOp51
 70
     0
102
RTVSPropertyOp52
 70
     0
102
RTVSPropertyOp53
 70
     1
102
RTVSPropertyOp54
 70
     1
102
RTVSPropertyOp55
 70
     1
102
RTVSPropertyOp56
 70
     1
102
RTVSPropertyOp57
 70
     1
102
RTVSPost2010Prop28
280
     0
102
RTVSPost2010PropOp28
 70
     1
102
RTVSPost2010Prop29
280
     1
102
RTVSPost2010PropOp29
 70
     1
102
RTVSPost2010Prop30
280
     1
102
RTVSPost2010PropOp30
 70
     1
102
RTVSPost2010Prop31
280
     0
102
RTVSPost2010PropOp31
 70
     1
102
RTVSPost2010Prop32
280
     0
102
RTVSPost2010PropOp32
 70
     1
102
RTVSPost2010Prop33
280
     0
102
RTVSPost2010PropOp33
 70
     1
102
RTVSPost2010Prop34
280
     0
102
RTVSPost2010PropOp34
 70
     1
102
RTVSPost2010Prop35
280
     0
102
RTVSPost2010PropOp35
 70
     1
102
RTVSPost2010Prop36
280
     0
102
RTVSPost2010PropOp36
 70
     1
102
RTVSPost2010Prop37
 90
       50
102
RTVSPost2010PropOp37
 70
     1
102
RTVSPost2010Prop38
140
0.0
102
RTVSPost2010PropOp38
 70
     1
102
RTVSPost2010Prop39
140
1.0
102
RTVSPost2010PropOp39
 70
     1
102
RTVSPost2010Prop40
 90
        0
102
RTVSPost2010PropOp40
 70
     1
102
RTVSPost2010Prop41ColorIndex
 90
       18
102
RTVSPost2010Prop41ColorRGB
 90
        0
102
RTVSPost2010PropOp41
 70
     1
102
RTVSPost2010Prop42
 90
       50
102
RTVSPost2010PropOp42
 70
     1
102
RTVSPost2010Prop43
 90
        3
102
RTVSPost2010PropOp43
 70
     1
102
RTVSPost2010Prop44ColorIndex
 90
        5
102
RTVSPost2010Prop44ColorRGB
 90
      255
102
RTVSPost2010PropOp44
 70
     1
102
RTVSPost2010Prop45
280
     0
102
RTVSPost2010PropOp45
 70
     1
102
RTVSPost2010Prop46
 90
       50
102
RTVSPost2010PropOp46
 70
     1
102
RTVSPost2010Prop47
 90
       50
102
RTVSPost2010PropOp47
 70
     1
102
RTVSPost2010Prop48
 90
       50
102
RTVSPost2010PropOp48
 70
     1
102
RTVSPost2010Prop49
280
     0
102
RTVSPost2010PropOp49
 70
     1
102
RTVSPost2010Prop50
 90
       50
102
RTVSPost2010PropOp50
 70
     1
102
RTVSPost2010Prop51ColorIndex
 90
      256
102
RTVSPost2010Prop51ColorRGB
 90
-16777216
102
RTVSPost2010PropOp51
 70
     0
102
RTVSPost2010Prop52
140
1.0
102
RTVSPost2010PropOp52
 70
     0
102
RTVSPost2010Prop53
 90
        2
102
RTVSPost2010PropOp53
 70
     1
102
RTVSPost2010Prop54
  1
strokes_ogs.tif
102
RTVSPost2010PropOp54
 70
     1
102
RTVSPost2010Prop55
280
     0
102
RTVSPost2010PropOp55
 70
     1
102
RTVSPost2010Prop56
140
1.0
102
RTVSPost2010PropOp56
 70
     1
102
RTVSPost2010Prop57
140
1.0
102
RTVSPost2010PropOp57
 70
     1
  0
XRECORD
  5
1FD
102
{ACAD_REACTORS
330
1FC
102
}
330
1FC
100
AcDbXrecord
280
     1
102
RTVSPropertyOp0
 70
     1
102
RTVSPropertyOp1
 70
     1
102
RTVSPropertyOp2
 70
     1
102
RTVSPropertyOp3
 70
     1
102
RTVSPropertyOp4
 70
     1
102
RTVSPropertyOp5
 70
     1
102
RTVSPropertyOp6
 70
     1
102
RTVSPropertyOp7
 70
     1
102
RTVSPropertyOp8
 70
     1
102
RTVSPropertyOp9
 70
     1
102
RTVSPropertyOp10
 70
     1
102
RTVSPropertyOp11
 70
     1
102
RTVSPropertyOp12
 70
     1
102
RTVSPropertyOp13
 70
     1
102
RTVSPropertyOp14
 70
     1
102
RTVSPropertyOp15
 70
     1
102
RTVSPropertyOp16
 70
     1
102
RTVSPropertyOp17
 70
     1
102
RTVSPropertyOp18
 70
     1
102
RTVSPropertyOp19
 70
     1
102
RTVSPropertyOp20
 70
     1
102
RTVSPropertyOp21
 70
     1
102
RTVSPropertyOp22
 70
     1
102
RTVSPropertyOp23
 70
     1
102
RTVSPropertyOp24
 70
     1
102
RTVSPropertyOp25
 70
     1
102
RTVSPropertyOp26
 70
     1
102
RTVSPropertyOp27
 70
     1
102
RTVSPropertyOp28
 70
     1
102
RTVSPropertyOp29
 70
     1
102
RTVSPropertyOp30
 70
     1
102
RTVSPropertyOp31
 70
     1
102
RTVSPropertyOp32
 70
     1
102
RTVSPropertyOp33
 70
     1
102
RTVSPropertyOp34
 70
     1
102
RTVSPropertyOp35
 70
     1
102
RTVSPropertyOp36
 70
     1
102
RTVSPropertyOp37
 70
     1
102
RTVSPropertyOp38
 70
     1
102
RTVSPropertyOp39
 70
     1
102
RTVSPropertyOp40
 70
     1
102
RTVSPropertyOp41
 70
     1
102
RTVSPropertyOp42
 70
     1
102
RTVSPropertyOp43
 70
     1
102
RTVSPropertyOp44
 70
     1
102
RTVSPropertyOp45
 70
     1
102
RTVSPropertyOp46
 70
     1
102
RTVSPropertyOp47
 70
     1
102
RTVSPropertyOp48
 70
     1
102
RTVSPropertyOp49
 70
     1
102
RTVSPropertyOp50
 70
     1
102
RTVSPropertyOp51
 70
     0
102
RTVSPropertyOp52
 70
     0
102
RTVSPropertyOp53
 70
     1
102
RTVSPropertyOp54
 70
     1
102
RTVSPropertyOp55
 70
     1
102
RTVSPropertyOp56
 70
     1
102
RTVSPropertyOp57
 70
     1
102
RTVSPost2010Prop28
280
     0
102
RTVSPost2010PropOp28
 70
     1
102
RTVSPost2010Prop29
280
     1
102
RTVSPost2010PropOp29
 70
     1
102
RTVSPost2010Prop30
280
     1
102
RTVSPost2010PropOp30
 70
     1
102
RTVSPost2010Prop31
280
     0
102
RTVSPost2010PropOp31
 70
     1
102
RTVSPost2010Prop32
280
     0
102
RTVSPost2010PropOp32
 70
     1
102
RTVSPost2010Prop33
280
     0
102
RTVSPost2010PropOp33
 70
     1
102
RTVSPost2010Prop34
280
     0
102
RTVSPost2010PropOp34
 70
     1
102
RTVSPost2010Prop35
280
     0
102
RTVSPost2010PropOp35
 70
     1
102
RTVSPost2010Prop36
280
     0
102
RTVSPost2010PropOp36
 70
     1
102
RTVSPost2010Prop37
 90
       50
102
RTVSPost2010PropOp37
 70
     1
102
RTVSPost2010Prop38
140
0.0
102
RTVSPost2010PropOp38
 70
     1
102
RTVSPost2010Prop39
140
1.0
102
RTVSPost2010PropOp39
 70
     1
102
RTVSPost2010Prop40
 90
        0
102
RTVSPost2010PropOp40
 70
     1
102
RTVSPost2010Prop41ColorIndex
 90
       18
102
RTVSPost2010Prop41ColorRGB
 90
        0
102
RTVSPost2010PropOp41
 70
     1
102
RTVSPost2010Prop42
 90
       50
102
RTVSPost2010PropOp42
 70
     1
102
RTVSPost2010Prop43
 90
        3
102
RTVSPost2010PropOp43
 70
     1
102
RTVSPost2010Prop44ColorIndex
 90
        5
102
RTVSPost2010Prop44ColorRGB
 90
      255
102
RTVSPost2010PropOp44
 70
     1
102
RTVSPost2010Prop45
280
     0
102
RTVSPost2010PropOp45
 70
     1
102
RTVSPost2010Prop46
 90
       50
102
RTVSPost2010PropOp46
 70
     1
102
RTVSPost2010Prop47
 90
       50
102
RTVSPost2010PropOp47
 70
     1
102
RTVSPost2010Prop48
 90
       50
102
RTVSPost2010PropOp48
 70
     1
102
RTVSPost2010Prop49
280
     0
102
RTVSPost2010PropOp49
 70
     1
102
RTVSPost2010Prop50
 90
       50
102
RTVSPost2010PropOp50
 70
     1
102
RTVSPost2010Prop51ColorIndex
 90
      256
102
RTVSPost2010Prop51ColorRGB
 90
-16777216
102
RTVSPost2010PropOp51
 70
     0
102
RTVSPost2010Prop52
140
1.0
102
RTVSPost2010PropOp52
 70
     0
102
RTVSPost2010Prop53
 90
        2
102
RTVSPost2010PropOp53
 70
     1
102
RTVSPost2010Prop54
  1
strokes_ogs.tif
102
RTVSPost2010PropOp54
 70
     1
102
RTVSPost2010Prop55
280
     0
102
RTVSPost2010PropOp55
 70
     1
102
RTVSPost2010Prop56
140
1.0
102
RTVSPost2010PropOp56
 70
     1
102
RTVSPost2010Prop57
140
1.0
102
RTVSPost2010PropOp57
 70
     1
  0
XRECORD
  5
1FF
102
{ACAD_REACTORS
330
1FE
102
}
330
1FE
100
AcDbXrecord
280
     1
102
RTVSPropertyOp0
 70
     1
102
RTVSPropertyOp1
 70
     1
102
RTVSPropertyOp2
 70
     1
102
RTVSPropertyOp3
 70
     1
102
RTVSPropertyOp4
 70
     1
102
RTVSPropertyOp5
 70
     1
102
RTVSPropertyOp6
 70
     1
102
RTVSPropertyOp7
 70
     1
102
RTVSPropertyOp8
 70
     1
102
RTVSPropertyOp9
 70
     1
102
RTVSPropertyOp10
 70
     1
102
RTVSPropertyOp11
 70
     1
102
RTVSPropertyOp12
 70
     1
102
RTVSPropertyOp13
 70
     1
102
RTVSPropertyOp14
 70
     1
102
RTVSPropertyOp15
 70
     1
102
RTVSPropertyOp16
 70
     1
102
RTVSPropertyOp17
 70
     1
102
RTVSPropertyOp18
 70
     1
102
RTVSPropertyOp19
 70
     1
102
RTVSPropertyOp20
 70
     1
102
RTVSPropertyOp21
 70
     1
102
RTVSPropertyOp22
 70
     1
102
RTVSPropertyOp23
 70
     1
102
RTVSPropertyOp24
 70
     1
102
RTVSPropertyOp25
 70
     1
102
RTVSPropertyOp26
 70
     1
102
RTVSPropertyOp27
 70
     1
102
RTVSPropertyOp28
 70
     1
102
RTVSPropertyOp29
 70
     1
102
RTVSPropertyOp30
 70
     1
102
RTVSPropertyOp31
 70
     1
102
RTVSPropertyOp32
 70
     1
102
RTVSPropertyOp33
 70
     1
102
RTVSPropertyOp34
 70
     1
102
RTVSPropertyOp35
 70
     1
102
RTVSPropertyOp36
 70
     1
102
RTVSPropertyOp37
 70
     1
102
RTVSPropertyOp38
 70
     1
102
RTVSPropertyOp39
 70
     1
102
RTVSPropertyOp40
 70
     1
102
RTVSPropertyOp41
 70
     1
102
RTVSPropertyOp42
 70
     1
102
RTVSPropertyOp43
 70
     1
102
RTVSPropertyOp44
 70
     1
102
RTVSPropertyOp45
 70
     1
102
RTVSPropertyOp46
 70
     1
102
RTVSPropertyOp47
 70
     1
102
RTVSPropertyOp48
 70
     1
102
RTVSPropertyOp49
 70
     1
102
RTVSPropertyOp50
 70
     1
102
RTVSPropertyOp51
 70
     0
102
RTVSPropertyOp52
 70
     0
102
RTVSPropertyOp53
 70
     1
102
RTVSPropertyOp54
 70
     1
102
RTVSPropertyOp55
 70
     1
102
RTVSPropertyOp56
 70
     1
102
RTVSPropertyOp57
 70
     1
102
RTVSPost2010Prop28
280
     0
102
RTVSPost2010PropOp28
 70
     1
102
RTVSPost2010Prop29
280
     1
102
RTVSPost2010PropOp29
 70
     1
102
RTVSPost2010Prop30
280
     1
102
RTVSPost2010PropOp30
 70
     1
102
RTVSPost2010Prop31
280
     0
102
RTVSPost2010PropOp31
 70
     1
102
RTVSPost2010Prop32
280
     0
102
RTVSPost2010PropOp32
 70
     1
102
RTVSPost2010Prop33
280
     0
102
RTVSPost2010PropOp33
 70
     1
102
RTVSPost2010Prop34
280
     0
102
RTVSPost2010PropOp34
 70
     1
102
RTVSPost2010Prop35
280
     0
102
RTVSPost2010PropOp35
 70
     1
102
RTVSPost2010Prop36
280
     0
102
RTVSPost2010PropOp36
 70
     1
102
RTVSPost2010Prop37
 90
       50
102
RTVSPost2010PropOp37
 70
     1
102
RTVSPost2010Prop38
140
0.0
102
RTVSPost2010PropOp38
 70
     1
102
RTVSPost2010Prop39
140
1.0
102
RTVSPost2010PropOp39
 70
     1
102
RTVSPost2010Prop40
 90
        0
102
RTVSPost2010PropOp40
 70
     1
102
RTVSPost2010Prop41ColorIndex
 90
       18
102
RTVSPost2010Prop41ColorRGB
 90
        0
102
RTVSPost2010PropOp41
 70
     1
102
RTVSPost2010Prop42
 90
       50
102
RTVSPost2010PropOp42
 70
     1
102
RTVSPost2010Prop43
 90
        3
102
RTVSPost2010PropOp43
 70
     1
102
RTVSPost2010Prop44ColorIndex
 90
        5
102
RTVSPost2010Prop44ColorRGB
 90
      255
102
RTVSPost2010PropOp44
 70
     1
102
RTVSPost2010Prop45
280
     0
102
RTVSPost2010PropOp45
 70
     1
102
RTVSPost2010Prop46
 90
       50
102
RTVSPost2010PropOp46
 70
     1
102
RTVSPost2010Prop47
 90
       50
102
RTVSPost2010PropOp47
 70
     1
102
RTVSPost2010Prop48
 90
       50
102
RTVSPost2010PropOp48
 70
     1
102
RTVSPost2010Prop49
280
     0
102
RTVSPost2010PropOp49
 70
     1
102
RTVSPost2010Prop50
 90
       50
102
RTVSPost2010PropOp50
 70
     1
102
RTVSPost2010Prop51ColorIndex
 90
      256
102
RTVSPost2010Prop51ColorRGB
 90
-16777216
102
RTVSPost2010PropOp51
 70
     0
102
RTVSPost2010Prop52
140
1.0
102
RTVSPost2010PropOp52
 70
     0
102
RTVSPost2010Prop53
 90
        2
102
RTVSPost2010PropOp53
 70
     1
102
RTVSPost2010Prop54
  1
strokes_ogs.tif
102
RTVSPost2010PropOp54
 70
     1
102
RTVSPost2010Prop55
280
     0
102
RTVSPost2010PropOp55
 70
     1
102
RTVSPost2010Prop56
140
1.0
102
RTVSPost2010PropOp56
 70
     1
102
RTVSPost2010Prop57
140
1.0
102
RTVSPost2010PropOp57
 70
     1
  0
XRECORD
  5
205
102
{ACAD_REACTORS
330
204
102
}
330
204
100
AcDbXrecord
280
     1
102
RTVSPropertyOp0
 70
     1
102
RTVSPropertyOp1
 70
     1
102
RTVSPropertyOp2
 70
     1
102
RTVSPropertyOp3
 70
     1
102
RTVSPropertyOp4
 70
     1
102
RTVSPropertyOp5
 70
     1
102
RTVSPropertyOp6
 70
     1
102
RTVSPropertyOp7
 70
     1
102
RTVSPropertyOp8
 70
     1
102
RTVSPropertyOp9
 70
     1
102
RTVSPropertyOp10
 70
     1
102
RTVSPropertyOp11
 70
     1
102
RTVSPropertyOp12
 70
     1
102
RTVSPropertyOp13
 70
     1
102
RTVSPropertyOp14
 70
     1
102
RTVSPropertyOp15
 70
     1
102
RTVSPropertyOp16
 70
     1
102
RTVSPropertyOp17
 70
     1
102
RTVSPropertyOp18
 70
     1
102
RTVSPropertyOp19
 70
     1
102
RTVSPropertyOp20
 70
     1
102
RTVSPropertyOp21
 70
     1
102
RTVSPropertyOp22
 70
     1
102
RTVSPropertyOp23
 70
     1
102
RTVSPropertyOp24
 70
     1
102
RTVSPropertyOp25
 70
     1
102
RTVSPropertyOp26
 70
     1
102
RTVSPropertyOp27
 70
     1
102
RTVSPropertyOp28
 70
     1
102
RTVSPropertyOp29
 70
     1
102
RTVSPropertyOp30
 70
     1
102
RTVSPropertyOp31
 70
     1
102
RTVSPropertyOp32
 70
     1
102
RTVSPropertyOp33
 70
     1
102
RTVSPropertyOp34
 70
     1
102
RTVSPropertyOp35
 70
     1
102
RTVSPropertyOp36
 70
     1
102
RTVSPropertyOp37
 70
     1
102
RTVSPropertyOp38
 70
     1
102
RTVSPropertyOp39
 70
     1
102
RTVSPropertyOp40
 70
     1
102
RTVSPropertyOp41
 70
     1
102
RTVSPropertyOp42
 70
     1
102
RTVSPropertyOp43
 70
     1
102
RTVSPropertyOp44
 70
     1
102
RTVSPropertyOp45
 70
     1
102
RTVSPropertyOp46
 70
     1
102
RTVSPropertyOp47
 70
     1
102
RTVSPropertyOp48
 70
     1
102
RTVSPropertyOp49
 70
     1
102
RTVSPropertyOp50
 70
     1
102
RTVSPropertyOp51
 70
     0
102
RTVSPropertyOp52
 70
     0
102
RTVSPropertyOp53
 70
     1
102
RTVSPropertyOp54
 70
     1
102
RTVSPropertyOp55
 70
     1
102
RTVSPropertyOp56
 70
     1
102
RTVSPropertyOp57
 70
     1
102
RTVSPost2010Prop28
280
     0
102
RTVSPost2010PropOp28
 70
     1
102
RTVSPost2010Prop29
280
     1
102
RTVSPost2010PropOp29
 70
     1
102
RTVSPost2010Prop30
280
     1
102
RTVSPost2010PropOp30
 70
     1
102
RTVSPost2010Prop31
280
     0
102
RTVSPost2010PropOp31
 70
     1
102
RTVSPost2010Prop32
280
     0
102
RTVSPost2010PropOp32
 70
     1
102
RTVSPost2010Prop33
280
     0
102
RTVSPost2010PropOp33
 70
     1
102
RTVSPost2010Prop34
280
     0
102
RTVSPost2010PropOp34
 70
     1
102
RTVSPost2010Prop35
280
     0
102
RTVSPost2010PropOp35
 70
     1
102
RTVSPost2010Prop36
280
     0
102
RTVSPost2010PropOp36
 70
     1
102
RTVSPost2010Prop37
 90
       50
102
RTVSPost2010PropOp37
 70
     1
102
RTVSPost2010Prop38
140
0.0
102
RTVSPost2010PropOp38
 70
     1
102
RTVSPost2010Prop39
140
1.0
102
RTVSPost2010PropOp39
 70
     1
102
RTVSPost2010Prop40
 90
        0
102
RTVSPost2010PropOp40
 70
     1
102
RTVSPost2010Prop41ColorIndex
 90
       18
102
RTVSPost2010Prop41ColorRGB
 90
        0
102
RTVSPost2010PropOp41
 70
     1
102
RTVSPost2010Prop42
 90
       50
102
RTVSPost2010PropOp42
 70
     1
102
RTVSPost2010Prop43
 90
        3
102
RTVSPost2010PropOp43
 70
     1
102
RTVSPost2010Prop44ColorIndex
 90
        5
102
RTVSPost2010Prop44ColorRGB
 90
      255
102
RTVSPost2010PropOp44
 70
     1
102
RTVSPost2010Prop45
280
     0
102
RTVSPost2010PropOp45
 70
     1
102
RTVSPost2010Prop46
 90
       50
102
RTVSPost2010PropOp46
 70
     1
102
RTVSPost2010Prop47
 90
       50
102
RTVSPost2010PropOp47
 70
     1
102
RTVSPost2010Prop48
 90
       50
102
RTVSPost2010PropOp48
 70
     1
102
RTVSPost2010Prop49
280
     0
102
RTVSPost2010PropOp49
 70
     1
102
RTVSPost2010Prop50
 90
       50
102
RTVSPost2010PropOp50
 70
     1
102
RTVSPost2010Prop51ColorIndex
 90
      256
102
RTVSPost2010Prop51ColorRGB
 90
-16777216
102
RTVSPost2010PropOp51
 70
     0
102
RTVSPost2010Prop52
140
1.0
102
RTVSPost2010PropOp52
 70
     0
102
RTVSPost2010Prop53
 90
        2
102
RTVSPost2010PropOp53
 70
     1
102
RTVSPost2010Prop54
  1
strokes_ogs.tif
102
RTVSPost2010PropOp54
 70
     1
102
RTVSPost2010Prop55
280
     0
102
RTVSPost2010PropOp55
 70
     1
102
RTVSPost2010Prop56
140
1.0
102
RTVSPost2010PropOp56
 70
     1
102
RTVSPost2010Prop57
140
1.0
102
RTVSPost2010PropOp57
 70
     1
  0
XRECORD
  5
219
102
{ACAD_REACTORS
330
218
102
}
330
218
100
AcDbXrecord
280
     1
102
RTVSPropertyOp0
 70
     0
102
RTVSPropertyOp1
 70
     0
102
RTVSPropertyOp2
 70
     0
102
RTVSPropertyOp3
 70
     0
102
RTVSPropertyOp4
 70
     0
102
RTVSPropertyOp5
 70
     0
102
RTVSPropertyOp6
 70
     0
102
RTVSPropertyOp7
 70
     0
102
RTVSPropertyOp8
 70
     0
102
RTVSPropertyOp9
 70
     0
102
RTVSPropertyOp10
 70
     0
102
RTVSPropertyOp11
 70
     0
102
RTVSPropertyOp12
 70
     0
102
RTVSPropertyOp13
 70
     0
102
RTVSPropertyOp14
 70
     2
102
RTVSPropertyOp15
 70
     0
102
RTVSPropertyOp16
 70
     0
102
RTVSPropertyOp17
 70
     0
102
RTVSPropertyOp18
 70
     0
102
RTVSPropertyOp19
 70
     0
102
RTVSPropertyOp20
 70
     0
102
RTVSPropertyOp21
 70
     0
102
RTVSPropertyOp22
 70
     0
102
RTVSPropertyOp23
 70
     0
102
RTVSPropertyOp24
 70
     0
102
RTVSPropertyOp25
 70
     0
102
RTVSPropertyOp26
 70
     0
102
RTVSPropertyOp27
 70
     0
102
RTVSPropertyOp28
 70
     0
102
RTVSPropertyOp29
 70
     0
102
RTVSPropertyOp30
 70
     0
102
RTVSPropertyOp31
 70
     0
102
RTVSPropertyOp32
 70
     0
102
RTVSPropertyOp33
 70
     0
102
RTVSPropertyOp34
 70
     0
102
RTVSPropertyOp35
 70
     0
102
RTVSPropertyOp36
 70
     0
102
RTVSPropertyOp37
 70
     0
102
RTVSPropertyOp38
 70
     0
102
RTVSPropertyOp39
 70
     0
102
RTVSPropertyOp40
 70
     0
102
RTVSPropertyOp41
 70
     0
102
RTVSPropertyOp42
 70
     0
102
RTVSPropertyOp43
 70
     0
102
RTVSPropertyOp44
 70
     0
102
RTVSPropertyOp45
 70
     0
102
RTVSPropertyOp46
 70
     0
102
RTVSPropertyOp47
 70
     0
102
RTVSPropertyOp48
 70
     0
102
RTVSPropertyOp49
 70
     0
102
RTVSPropertyOp50
 70
     0
102
RTVSPropertyOp51
 70
     0
102
RTVSPropertyOp52
 70
     0
102
RTVSPropertyOp53
 70
     0
102
RTVSPropertyOp54
 70
     0
102
RTVSPropertyOp55
 70
     0
102
RTVSPropertyOp56
 70
     0
102
RTVSPropertyOp57
 70
     0
102
RTVSPost2010Prop28
280
     0
102
RTVSPost2010PropOp28
 70
     0
102
RTVSPost2010Prop29
280
     1
102
RTVSPost2010PropOp29
 70
     0
102
RTVSPost2010Prop30
280
     1
102
RTVSPost2010PropOp30
 70
     0
102
RTVSPost2010Prop31
280
     0
102
RTVSPost2010PropOp31
 70
     0
102
RTVSPost2010Prop32
280
     0
102
RTVSPost2010PropOp32
 70
     0
102
RTVSPost2010Prop33
280
     0
102
RTVSPost2010PropOp33
 70
     0
102
RTVSPost2010Prop34
280
     0
102
RTVSPost2010PropOp34
 70
     0
102
RTVSPost2010Prop35
280
     0
102
RTVSPost2010PropOp35
 70
     0
102
RTVSPost2010Prop36
280
     0
102
RTVSPost2010PropOp36
 70
     0
102
RTVSPost2010Prop37
 90
       50
102
RTVSPost2010PropOp37
 70
     0
102
RTVSPost2010Prop38
140
0.0
102
RTVSPost2010PropOp38
 70
     0
102
RTVSPost2010Prop39
140
1.0
102
RTVSPost2010PropOp39
 70
     0
102
RTVSPost2010Prop40
 90
        0
102
RTVSPost2010PropOp40
 70
     0
102
RTVSPost2010Prop41ColorIndex
 90
       18
102
RTVSPost2010Prop41ColorRGB
 90
        0
102
RTVSPost2010PropOp41
 70
     0
102
RTVSPost2010Prop42
 90
       50
102
RTVSPost2010PropOp42
 70
     0
102
RTVSPost2010Prop43
 90
        3
102
RTVSPost2010PropOp43
 70
     0
102
RTVSPost2010Prop44ColorIndex
 90
        5
102
RTVSPost2010Prop44ColorRGB
 90
      255
102
RTVSPost2010PropOp44
 70
     0
102
RTVSPost2010Prop45
280
     0
102
RTVSPost2010PropOp45
 70
     0
102
RTVSPost2010Prop46
 90
       50
102
RTVSPost2010PropOp46
 70
     0
102
RTVSPost2010Prop47
 90
       50
102
RTVSPost2010PropOp47
 70
     0
102
RTVSPost2010Prop48
 90
       50
102
RTVSPost2010PropOp48
 70
     0
102
RTVSPost2010Prop49
280
     0
102
RTVSPost2010PropOp49
 70
     0
102
RTVSPost2010Prop50
 90
       50
102
RTVSPost2010PropOp50
 70
     0
102
RTVSPost2010Prop51ColorIndex
 90
      256
102
RTVSPost2010Prop51ColorRGB
 90
-16777216
102
RTVSPost2010PropOp51
 70
     0
102
RTVSPost2010Prop52
140
1.0
102
RTVSPost2010PropOp52
 70
     0
102
RTVSPost2010Prop53
 90
        2
102
RTVSPost2010PropOp53
 70
     0
102
RTVSPost2010Prop54
  1
strokes_ogs.tif
102
RTVSPost2010PropOp54
 70
     0
102
RTVSPost2010Prop55
280
     0
102
RTVSPost2010PropOp55
 70
     0
102
RTVSPost2010Prop56
140
1.0
102
RTVSPost2010PropOp56
 70
     0
102
RTVSPost2010Prop57
140
1.0
102
RTVSPost2010PropOp57
 70
     0
  0
XRECORD
  5
213
102
{ACAD_REACTORS
330
212
102
}
330
212
100
AcDbXrecord
280
     1
102
RTVSPropertyOp0
 70
     1
102
RTVSPropertyOp1
 70
     1
102
RTVSPropertyOp2
 70
     1
102
RTVSPropertyOp3
 70
     1
102
RTVSPropertyOp4
 70
     1
102
RTVSPropertyOp5
 70
     1
102
RTVSPropertyOp6
 70
     1
102
RTVSPropertyOp7
 70
     1
102
RTVSPropertyOp8
 70
     1
102
RTVSPropertyOp9
 70
     1
102
RTVSPropertyOp10
 70
     1
102
RTVSPropertyOp11
 70
     1
102
RTVSPropertyOp12
 70
     1
102
RTVSPropertyOp13
 70
     1
102
RTVSPropertyOp14
 70
     1
102
RTVSPropertyOp15
 70
     1
102
RTVSPropertyOp16
 70
     1
102
RTVSPropertyOp17
 70
     1
102
RTVSPropertyOp18
 70
     1
102
RTVSPropertyOp19
 70
     1
102
RTVSPropertyOp20
 70
     1
102
RTVSPropertyOp21
 70
     1
102
RTVSPropertyOp22
 70
     1
102
RTVSPropertyOp23
 70
     1
102
RTVSPropertyOp24
 70
     1
102
RTVSPropertyOp25
 70
     1
102
RTVSPropertyOp26
 70
     1
102
RTVSPropertyOp27
 70
     1
102
RTVSPropertyOp28
 70
     1
102
RTVSPropertyOp29
 70
     1
102
RTVSPropertyOp30
 70
     1
102
RTVSPropertyOp31
 70
     1
102
RTVSPropertyOp32
 70
     1
102
RTVSPropertyOp33
 70
     1
102
RTVSPropertyOp34
 70
     1
102
RTVSPropertyOp35
 70
     1
102
RTVSPropertyOp36
 70
     1
102
RTVSPropertyOp37
 70
     1
102
RTVSPropertyOp38
 70
     1
102
RTVSPropertyOp39
 70
     1
102
RTVSPropertyOp40
 70
     1
102
RTVSPropertyOp41
 70
     1
102
RTVSPropertyOp42
 70
     1
102
RTVSPropertyOp43
 70
     1
102
RTVSPropertyOp44
 70
     1
102
RTVSPropertyOp45
 70
     1
102
RTVSPropertyOp46
 70
     1
102
RTVSPropertyOp47
 70
     1
102
RTVSPropertyOp48
 70
     1
102
RTVSPropertyOp49
 70
     1
102
RTVSPropertyOp50
 70
     1
102
RTVSPropertyOp51
 70
     0
102
RTVSPropertyOp52
 70
     0
102
RTVSPropertyOp53
 70
     1
102
RTVSPropertyOp54
 70
     1
102
RTVSPropertyOp55
 70
     1
102
RTVSPropertyOp56
 70
     1
102
RTVSPropertyOp57
 70
     1
102
RTVSPost2010Prop28
280
     0
102
RTVSPost2010PropOp28
 70
     1
102
RTVSPost2010Prop29
280
     1
102
RTVSPost2010PropOp29
 70
     1
102
RTVSPost2010Prop30
280
     1
102
RTVSPost2010PropOp30
 70
     1
102
RTVSPost2010Prop31
280
     0
102
RTVSPost2010PropOp31
 70
     1
102
RTVSPost2010Prop32
280
     0
102
RTVSPost2010PropOp32
 70
     1
102
RTVSPost2010Prop33
280
     0
102
RTVSPost2010PropOp33
 70
     1
102
RTVSPost2010Prop34
280
     0
102
RTVSPost2010PropOp34
 70
     1
102
RTVSPost2010Prop35
280
     0
102
RTVSPost2010PropOp35
 70
     1
102
RTVSPost2010Prop36
280
     0
102
RTVSPost2010PropOp36
 70
     1
102
RTVSPost2010Prop37
 90
       50
102
RTVSPost2010PropOp37
 70
     1
102
RTVSPost2010Prop38
140
0.0
102
RTVSPost2010PropOp38
 70
     1
102
RTVSPost2010Prop39
140
1.0
102
RTVSPost2010PropOp39
 70
     1
102
RTVSPost2010Prop40
 90
        0
102
RTVSPost2010PropOp40
 70
     1
102
RTVSPost2010Prop41ColorIndex
 90
       18
102
RTVSPost2010Prop41ColorRGB
 90
        0
102
RTVSPost2010PropOp41
 70
     1
102
RTVSPost2010Prop42
 90
       50
102
RTVSPost2010PropOp42
 70
     1
102
RTVSPost2010Prop43
 90
        3
102
RTVSPost2010PropOp43
 70
     1
102
RTVSPost2010Prop44ColorIndex
 90
        5
102
RTVSPost2010Prop44ColorRGB
 90
      255
102
RTVSPost2010PropOp44
 70
     1
102
RTVSPost2010Prop45
280
     0
102
RTVSPost2010PropOp45
 70
     1
102
RTVSPost2010Prop46
 90
       50
102
RTVSPost2010PropOp46
 70
     1
102
RTVSPost2010Prop47
 90
       50
102
RTVSPost2010PropOp47
 70
     1
102
RTVSPost2010Prop48
 90
       50
102
RTVSPost2010PropOp48
 70
     1
102
RTVSPost2010Prop49
280
     0
102
RTVSPost2010PropOp49
 70
     1
102
RTVSPost2010Prop50
 90
       50
102
RTVSPost2010PropOp50
 70
     1
102
RTVSPost2010Prop51ColorIndex
 90
      256
102
RTVSPost2010Prop51ColorRGB
 90
-16777216
102
RTVSPost2010PropOp51
 70
     0
102
RTVSPost2010Prop52
140
1.0
102
RTVSPost2010PropOp52
 70
     0
102
RTVSPost2010Prop53
 90
        2
102
RTVSPost2010PropOp53
 70
     1
102
RTVSPost2010Prop54
  1
strokes_ogs.tif
102
RTVSPost2010PropOp54
 70
     1
102
RTVSPost2010Prop55
280
     0
102
RTVSPost2010PropOp55
 70
     1
102
RTVSPost2010Prop56
140
1.0
102
RTVSPost2010PropOp56
 70
     1
102
RTVSPost2010Prop57
140
1.0
102
RTVSPost2010PropOp57
 70
     1
  0
XRECORD
  5
21B
102
{ACAD_REACTORS
330
21A
102
}
330
21A
100
AcDbXrecord
280
     1
102
RTVSPropertyOp0
 70
     0
102
RTVSPropertyOp1
 70
     0
102
RTVSPropertyOp2
 70
     0
102
RTVSPropertyOp3
 70
     0
102
RTVSPropertyOp4
 70
     0
102
RTVSPropertyOp5
 70
     0
102
RTVSPropertyOp6
 70
     0
102
RTVSPropertyOp7
 70
     0
102
RTVSPropertyOp8
 70
     0
102
RTVSPropertyOp9
 70
     0
102
RTVSPropertyOp10
 70
     0
102
RTVSPropertyOp11
 70
     0
102
RTVSPropertyOp12
 70
     0
102
RTVSPropertyOp13
 70
     0
102
RTVSPropertyOp14
 70
     2
102
RTVSPropertyOp15
 70
     0
102
RTVSPropertyOp16
 70
     0
102
RTVSPropertyOp17
 70
     0
102
RTVSPropertyOp18
 70
     0
102
RTVSPropertyOp19
 70
     0
102
RTVSPropertyOp20
 70
     0
102
RTVSPropertyOp21
 70
     0
102
RTVSPropertyOp22
 70
     0
102
RTVSPropertyOp23
 70
     0
102
RTVSPropertyOp24
 70
     0
102
RTVSPropertyOp25
 70
     0
102
RTVSPropertyOp26
 70
     0
102
RTVSPropertyOp27
 70
     0
102
RTVSPropertyOp28
 70
     0
102
RTVSPropertyOp29
 70
     0
102
RTVSPropertyOp30
 70
     0
102
RTVSPropertyOp31
 70
     0
102
RTVSPropertyOp32
 70
     0
102
RTVSPropertyOp33
 70
     0
102
RTVSPropertyOp34
 70
     0
102
RTVSPropertyOp35
 70
     0
102
RTVSPropertyOp36
 70
     0
102
RTVSPropertyOp37
 70
     0
102
RTVSPropertyOp38
 70
     0
102
RTVSPropertyOp39
 70
     0
102
RTVSPropertyOp40
 70
     0
102
RTVSPropertyOp41
 70
     0
102
RTVSPropertyOp42
 70
     0
102
RTVSPropertyOp43
 70
     0
102
RTVSPropertyOp44
 70
     0
102
RTVSPropertyOp45
 70
     0
102
RTVSPropertyOp46
 70
     0
102
RTVSPropertyOp47
 70
     0
102
RTVSPropertyOp48
 70
     0
102
RTVSPropertyOp49
 70
     0
102
RTVSPropertyOp50
 70
     0
102
RTVSPropertyOp51
 70
     0
102
RTVSPropertyOp52
 70
     0
102
RTVSPropertyOp53
 70
     0
102
RTVSPropertyOp54
 70
     0
102
RTVSPropertyOp55
 70
     0
102
RTVSPropertyOp56
 70
     0
102
RTVSPropertyOp57
 70
     0
102
RTVSPost2010Prop28
280
     0
102
RTVSPost2010PropOp28
 70
     0
102
RTVSPost2010Prop29
280
     1
102
RTVSPost2010PropOp29
 70
     0
102
RTVSPost2010Prop30
280
     1
102
RTVSPost2010PropOp30
 70
     0
102
RTVSPost2010Prop31
280
     0
102
RTVSPost2010PropOp31
 70
     0
102
RTVSPost2010Prop32
280
     0
102
RTVSPost2010PropOp32
 70
     0
102
RTVSPost2010Prop33
280
     0
102
RTVSPost2010PropOp33
 70
     0
102
RTVSPost2010Prop34
280
     0
102
RTVSPost2010PropOp34
 70
     0
102
RTVSPost2010Prop35
280
     0
102
RTVSPost2010PropOp35
 70
     0
102
RTVSPost2010Prop36
280
     0
102
RTVSPost2010PropOp36
 70
     0
102
RTVSPost2010Prop37
 90
       50
102
RTVSPost2010PropOp37
 70
     0
102
RTVSPost2010Prop38
140
0.0
102
RTVSPost2010PropOp38
 70
     0
102
RTVSPost2010Prop39
140
1.0
102
RTVSPost2010PropOp39
 70
     0
102
RTVSPost2010Prop40
 90
        0
102
RTVSPost2010PropOp40
 70
     0
102
RTVSPost2010Prop41ColorIndex
 90
       18
102
RTVSPost2010Prop41ColorRGB
 90
        0
102
RTVSPost2010PropOp41
 70
     0
102
RTVSPost2010Prop42
 90
       50
102
RTVSPost2010PropOp42
 70
     0
102
RTVSPost2010Prop43
 90
        3
102
RTVSPost2010PropOp43
 70
     0
102
RTVSPost2010Prop44ColorIndex
 90
        5
102
RTVSPost2010Prop44ColorRGB
 90
      255
102
RTVSPost2010PropOp44
 70
     0
102
RTVSPost2010Prop45
280
     0
102
RTVSPost2010PropOp45
 70
     0
102
RTVSPost2010Prop46
 90
       50
102
RTVSPost2010PropOp46
 70
     0
102
RTVSPost2010Prop47
 90
       50
102
RTVSPost2010PropOp47
 70
     0
102
RTVSPost2010Prop48
 90
       50
102
RTVSPost2010PropOp48
 70
     0
102
RTVSPost2010Prop49
280
     0
102
RTVSPost2010PropOp49
 70
     0
102
RTVSPost2010Prop50
 90
       50
102
RTVSPost2010PropOp50
 70
     0
102
RTVSPost2010Prop51ColorIndex
 90
      256
102
RTVSPost2010Prop51ColorRGB
 90
-16777216
102
RTVSPost2010PropOp51
 70
     0
102
RTVSPost2010Prop52
140
1.0
102
RTVSPost2010PropOp52
 70
     0
102
RTVSPost2010Prop53
 90
        2
102
RTVSPost2010PropOp53
 70
     0
102
RTVSPost2010Prop54
  1
strokes_ogs.tif
102
RTVSPost2010PropOp54
 70
     0
102
RTVSPost2010Prop55
280
     0
102
RTVSPost2010PropOp55
 70
     0
102
RTVSPost2010Prop56
140
1.0
102
RTVSPost2010PropOp56
 70
     0
102
RTVSPost2010Prop57
140
1.0
102
RTVSPost2010PropOp57
 70
     0
  0
XRECORD
  5
209
102
{ACAD_REACTORS
330
208
102
}
330
208
100
AcDbXrecord
280
     1
102
RTVSPropertyOp0
 70
     1
102
RTVSPropertyOp1
 70
     1
102
RTVSPropertyOp2
 70
     1
102
RTVSPropertyOp3
 70
     1
102
RTVSPropertyOp4
 70
     1
102
RTVSPropertyOp5
 70
     1
102
RTVSPropertyOp6
 70
     1
102
RTVSPropertyOp7
 70
     1
102
RTVSPropertyOp8
 70
     1
102
RTVSPropertyOp9
 70
     1
102
RTVSPropertyOp10
 70
     1
102
RTVSPropertyOp11
 70
     1
102
RTVSPropertyOp12
 70
     1
102
RTVSPropertyOp13
 70
     1
102
RTVSPropertyOp14
 70
     1
102
RTVSPropertyOp15
 70
     1
102
RTVSPropertyOp16
 70
     1
102
RTVSPropertyOp17
 70
     1
102
RTVSPropertyOp18
 70
     1
102
RTVSPropertyOp19
 70
     1
102
RTVSPropertyOp20
 70
     1
102
RTVSPropertyOp21
 70
     1
102
RTVSPropertyOp22
 70
     1
102
RTVSPropertyOp23
 70
     1
102
RTVSPropertyOp24
 70
     1
102
RTVSPropertyOp25
 70
     1
102
RTVSPropertyOp26
 70
     1
102
RTVSPropertyOp27
 70
     1
102
RTVSPropertyOp28
 70
     1
102
RTVSPropertyOp29
 70
     1
102
RTVSPropertyOp30
 70
     1
102
RTVSPropertyOp31
 70
     1
102
RTVSPropertyOp32
 70
     1
102
RTVSPropertyOp33
 70
     1
102
RTVSPropertyOp34
 70
     1
102
RTVSPropertyOp35
 70
     1
102
RTVSPropertyOp36
 70
     1
102
RTVSPropertyOp37
 70
     1
102
RTVSPropertyOp38
 70
     1
102
RTVSPropertyOp39
 70
     1
102
RTVSPropertyOp40
 70
     1
102
RTVSPropertyOp41
 70
     1
102
RTVSPropertyOp42
 70
     1
102
RTVSPropertyOp43
 70
     1
102
RTVSPropertyOp44
 70
     1
102
RTVSPropertyOp45
 70
     1
102
RTVSPropertyOp46
 70
     1
102
RTVSPropertyOp47
 70
     1
102
RTVSPropertyOp48
 70
     1
102
RTVSPropertyOp49
 70
     1
102
RTVSPropertyOp50
 70
     1
102
RTVSPropertyOp51
 70
     0
102
RTVSPropertyOp52
 70
     0
102
RTVSPropertyOp53
 70
     1
102
RTVSPropertyOp54
 70
     1
102
RTVSPropertyOp55
 70
     1
102
RTVSPropertyOp56
 70
     1
102
RTVSPropertyOp57
 70
     1
102
RTVSPost2010Prop28
280
     0
102
RTVSPost2010PropOp28
 70
     1
102
RTVSPost2010Prop29
280
     1
102
RTVSPost2010PropOp29
 70
     1
102
RTVSPost2010Prop30
280
     1
102
RTVSPost2010PropOp30
 70
     1
102
RTVSPost2010Prop31
280
     0
102
RTVSPost2010PropOp31
 70
     1
102
RTVSPost2010Prop32
280
     0
102
RTVSPost2010PropOp32
 70
     1
102
RTVSPost2010Prop33
280
     0
102
RTVSPost2010PropOp33
 70
     1
102
RTVSPost2010Prop34
280
     0
102
RTVSPost2010PropOp34
 70
     1
102
RTVSPost2010Prop35
280
     0
102
RTVSPost2010PropOp35
 70
     1
102
RTVSPost2010Prop36
280
     0
102
RTVSPost2010PropOp36
 70
     1
102
RTVSPost2010Prop37
 90
       50
102
RTVSPost2010PropOp37
 70
     1
102
RTVSPost2010Prop38
140
0.0
102
RTVSPost2010PropOp38
 70
     1
102
RTVSPost2010Prop39
140
1.0
102
RTVSPost2010PropOp39
 70
     1
102
RTVSPost2010Prop40
 90
        0
102
RTVSPost2010PropOp40
 70
     1
102
RTVSPost2010Prop41ColorIndex
 90
       18
102
RTVSPost2010Prop41ColorRGB
 90
        0
102
RTVSPost2010PropOp41
 70
     1
102
RTVSPost2010Prop42
 90
       50
102
RTVSPost2010PropOp42
 70
     1
102
RTVSPost2010Prop43
 90
        3
102
RTVSPost2010PropOp43
 70
     1
102
RTVSPost2010Prop44ColorIndex
 90
        5
102
RTVSPost2010Prop44ColorRGB
 90
      255
102
RTVSPost2010PropOp44
 70
     1
102
RTVSPost2010Prop45
280
     0
102
RTVSPost2010PropOp45
 70
     1
102
RTVSPost2010Prop46
 90
       50
102
RTVSPost2010PropOp46
 70
     1
102
RTVSPost2010Prop47
 90
       50
102
RTVSPost2010PropOp47
 70
     1
102
RTVSPost2010Prop48
 90
       50
102
RTVSPost2010PropOp48
 70
     1
102
RTVSPost2010Prop49
280
     0
102
RTVSPost2010PropOp49
 70
     1
102
RTVSPost2010Prop50
 90
       50
102
RTVSPost2010PropOp50
 70
     1
102
RTVSPost2010Prop51ColorIndex
 90
      256
102
RTVSPost2010Prop51ColorRGB
 90
-16777216
102
RTVSPost2010PropOp51
 70
     0
102
RTVSPost2010Prop52
140
1.0
102
RTVSPost2010PropOp52
 70
     0
102
RTVSPost2010Prop53
 90
        2
102
RTVSPost2010PropOp53
 70
     1
102
RTVSPost2010Prop54
  1
strokes_ogs.tif
102
RTVSPost2010PropOp54
 70
     1
102
RTVSPost2010Prop55
280
     0
102
RTVSPost2010PropOp55
 70
     1
102
RTVSPost2010Prop56
140
1.0
102
RTVSPost2010PropOp56
 70
     1
102
RTVSPost2010Prop57
140
1.0
102
RTVSPost2010PropOp57
 70
     1
  0
XRECORD
  5
227
102
{ACAD_REACTORS
330
226
102
}
330
226
100
AcDbXrecord
280
     1
102
RTVSPropertyOp0
 70
     1
102
RTVSPropertyOp1
 70
     1
102
RTVSPropertyOp2
 70
     1
102
RTVSPropertyOp3
 70
     1
102
RTVSPropertyOp4
 70
     1
102
RTVSPropertyOp5
 70
     1
102
RTVSPropertyOp6
 70
     1
102
RTVSPropertyOp7
 70
     1
102
RTVSPropertyOp8
 70
     1
102
RTVSPropertyOp9
 70
     1
102
RTVSPropertyOp10
 70
     1
102
RTVSPropertyOp11
 70
     1
102
RTVSPropertyOp12
 70
     1
102
RTVSPropertyOp13
 70
     1
102
RTVSPropertyOp14
 70
     1
102
RTVSPropertyOp15
 70
     1
102
RTVSPropertyOp16
 70
     1
102
RTVSPropertyOp17
 70
     1
102
RTVSPropertyOp18
 70
     1
102
RTVSPropertyOp19
 70
     1
102
RTVSPropertyOp20
 70
     1
102
RTVSPropertyOp21
 70
     1
102
RTVSPropertyOp22
 70
     1
102
RTVSPropertyOp23
 70
     1
102
RTVSPropertyOp24
 70
     1
102
RTVSPropertyOp25
 70
     1
102
RTVSPropertyOp26
 70
     1
102
RTVSPropertyOp27
 70
     1
102
RTVSPropertyOp28
 70
     1
102
RTVSPropertyOp29
 70
     1
102
RTVSPropertyOp30
 70
     1
102
RTVSPropertyOp31
 70
     1
102
RTVSPropertyOp32
 70
     1
102
RTVSPropertyOp33
 70
     1
102
RTVSPropertyOp34
 70
     1
102
RTVSPropertyOp35
 70
     1
102
RTVSPropertyOp36
 70
     1
102
RTVSPropertyOp37
 70
     1
102
RTVSPropertyOp38
 70
     1
102
RTVSPropertyOp39
 70
     1
102
RTVSPropertyOp40
 70
     1
102
RTVSPropertyOp41
 70
     1
102
RTVSPropertyOp42
 70
     1
102
RTVSPropertyOp43
 70
     1
102
RTVSPropertyOp44
 70
     1
102
RTVSPropertyOp45
 70
     1
102
RTVSPropertyOp46
 70
     1
102
RTVSPropertyOp47
 70
     1
102
RTVSPropertyOp48
 70
     1
102
RTVSPropertyOp49
 70
     1
102
RTVSPropertyOp50
 70
     1
102
RTVSPropertyOp51
 70
     0
102
RTVSPropertyOp52
 70
     0
102
RTVSPropertyOp53
 70
     1
102
RTVSPropertyOp54
 70
     1
102
RTVSPropertyOp55
 70
     1
102
RTVSPropertyOp56
 70
     1
102
RTVSPropertyOp57
 70
     1
102
RTVSPost2010Prop28
280
     0
102
RTVSPost2010PropOp28
 70
     1
102
RTVSPost2010Prop29
280
     1
102
RTVSPost2010PropOp29
 70
     1
102
RTVSPost2010Prop30
280
     1
102
RTVSPost2010PropOp30
 70
     1
102
RTVSPost2010Prop31
280
     0
102
RTVSPost2010PropOp31
 70
     1
102
RTVSPost2010Prop32
280
     0
102
RTVSPost2010PropOp32
 70
     1
102
RTVSPost2010Prop33
280
     0
102
RTVSPost2010PropOp33
 70
     1
102
RTVSPost2010Prop34
280
     0
102
RTVSPost2010PropOp34
 70
     1
102
RTVSPost2010Prop35
280
     0
102
RTVSPost2010PropOp35
 70
     1
102
RTVSPost2010Prop36
280
     0
102
RTVSPost2010PropOp36
 70
     1
102
RTVSPost2010Prop37
 90
       50
102
RTVSPost2010PropOp37
 70
     1
102
RTVSPost2010Prop38
140
0.0
102
RTVSPost2010PropOp38
 70
     1
102
RTVSPost2010Prop39
140
1.0
102
RTVSPost2010PropOp39
 70
     1
102
RTVSPost2010Prop40
 90
        0
102
RTVSPost2010PropOp40
 70
     1
102
RTVSPost2010Prop41ColorIndex
 90
       18
102
RTVSPost2010Prop41ColorRGB
 90
        0
102
RTVSPost2010PropOp41
 70
     1
102
RTVSPost2010Prop42
 90
       50
102
RTVSPost2010PropOp42
 70
     1
102
RTVSPost2010Prop43
 90
        3
102
RTVSPost2010PropOp43
 70
     1
102
RTVSPost2010Prop44ColorIndex
 90
        5
102
RTVSPost2010Prop44ColorRGB
 90
      255
102
RTVSPost2010PropOp44
 70
     1
102
RTVSPost2010Prop45
280
     0
102
RTVSPost2010PropOp45
 70
     1
102
RTVSPost2010Prop46
 90
       50
102
RTVSPost2010PropOp46
 70
     1
102
RTVSPost2010Prop47
 90
       50
102
RTVSPost2010PropOp47
 70
     1
102
RTVSPost2010Prop48
 90
       50
102
RTVSPost2010PropOp48
 70
     1
102
RTVSPost2010Prop49
280
     0
102
RTVSPost2010PropOp49
 70
     1
102
RTVSPost2010Prop50
 90
       50
102
RTVSPost2010PropOp50
 70
     1
102
RTVSPost2010Prop51ColorIndex
 90
      256
102
RTVSPost2010Prop51ColorRGB
 90
-16777216
102
RTVSPost2010PropOp51
 70
     0
102
RTVSPost2010Prop52
140
1.0
102
RTVSPost2010PropOp52
 70
     0
102
RTVSPost2010Prop53
 90
        2
102
RTVSPost2010PropOp53
 70
     1
102
RTVSPost2010Prop54
  1
strokes_ogs.tif
102
RTVSPost2010PropOp54
 70
     1
102
RTVSPost2010Prop55
280
     0
102
RTVSPost2010PropOp55
 70
     1
102
RTVSPost2010Prop56
140
1.0
102
RTVSPost2010PropOp56
 70
     1
102
RTVSPost2010Prop57
140
1.0
102
RTVSPost2010PropOp57
 70
     1
  0
XRECORD
  5
225
102
{ACAD_REACTORS
330
224
102
}
330
224
100
AcDbXrecord
280
     1
102
RTVSPropertyOp0
 70
     1
102
RTVSPropertyOp1
 70
     1
102
RTVSPropertyOp2
 70
     1
102
RTVSPropertyOp3
 70
     1
102
RTVSPropertyOp4
 70
     1
102
RTVSPropertyOp5
 70
     1
102
RTVSPropertyOp6
 70
     1
102
RTVSPropertyOp7
 70
     1
102
RTVSPropertyOp8
 70
     1
102
RTVSPropertyOp9
 70
     1
102
RTVSPropertyOp10
 70
     1
102
RTVSPropertyOp11
 70
     1
102
RTVSPropertyOp12
 70
     1
102
RTVSPropertyOp13
 70
     1
102
RTVSPropertyOp14
 70
     1
102
RTVSPropertyOp15
 70
     1
102
RTVSPropertyOp16
 70
     1
102
RTVSPropertyOp17
 70
     1
102
RTVSPropertyOp18
 70
     1
102
RTVSPropertyOp19
 70
     1
102
RTVSPropertyOp20
 70
     1
102
RTVSPropertyOp21
 70
     1
102
RTVSPropertyOp22
 70
     1
102
RTVSPropertyOp23
 70
     1
102
RTVSPropertyOp24
 70
     1
102
RTVSPropertyOp25
 70
     1
102
RTVSPropertyOp26
 70
     1
102
RTVSPropertyOp27
 70
     1
102
RTVSPropertyOp28
 70
     1
102
RTVSPropertyOp29
 70
     1
102
RTVSPropertyOp30
 70
     1
102
RTVSPropertyOp31
 70
     1
102
RTVSPropertyOp32
 70
     1
102
RTVSPropertyOp33
 70
     1
102
RTVSPropertyOp34
 70
     1
102
RTVSPropertyOp35
 70
     1
102
RTVSPropertyOp36
 70
     1
102
RTVSPropertyOp37
 70
     1
102
RTVSPropertyOp38
 70
     1
102
RTVSPropertyOp39
 70
     1
102
RTVSPropertyOp40
 70
     1
102
RTVSPropertyOp41
 70
     1
102
RTVSPropertyOp42
 70
     1
102
RTVSPropertyOp43
 70
     1
102
RTVSPropertyOp44
 70
     1
102
RTVSPropertyOp45
 70
     1
102
RTVSPropertyOp46
 70
     1
102
RTVSPropertyOp47
 70
     1
102
RTVSPropertyOp48
 70
     1
102
RTVSPropertyOp49
 70
     1
102
RTVSPropertyOp50
 70
     1
102
RTVSPropertyOp51
 70
     0
102
RTVSPropertyOp52
 70
     0
102
RTVSPropertyOp53
 70
     1
102
RTVSPropertyOp54
 70
     1
102
RTVSPropertyOp55
 70
     1
102
RTVSPropertyOp56
 70
     1
102
RTVSPropertyOp57
 70
     1
102
RTVSPost2010Prop28
280
     0
102
RTVSPost2010PropOp28
 70
     1
102
RTVSPost2010Prop29
280
     1
102
RTVSPost2010PropOp29
 70
     1
102
RTVSPost2010Prop30
280
     1
102
RTVSPost2010PropOp30
 70
     1
102
RTVSPost2010Prop31
280
     0
102
RTVSPost2010PropOp31
 70
     1
102
RTVSPost2010Prop32
280
     0
102
RTVSPost2010PropOp32
 70
     1
102
RTVSPost2010Prop33
280
     0
102
RTVSPost2010PropOp33
 70
     1
102
RTVSPost2010Prop34
280
     0
102
RTVSPost2010PropOp34
 70
     1
102
RTVSPost2010Prop35
280
     0
102
RTVSPost2010PropOp35
 70
     1
102
RTVSPost2010Prop36
280
     0
102
RTVSPost2010PropOp36
 70
     1
102
RTVSPost2010Prop37
 90
       50
102
RTVSPost2010PropOp37
 70
     1
102
RTVSPost2010Prop38
140
0.0
102
RTVSPost2010PropOp38
 70
     1
102
RTVSPost2010Prop39
140
1.0
102
RTVSPost2010PropOp39
 70
     1
102
RTVSPost2010Prop40
 90
        0
102
RTVSPost2010PropOp40
 70
     1
102
RTVSPost2010Prop41ColorIndex
 90
       18
102
RTVSPost2010Prop41ColorRGB
 90
        0
102
RTVSPost2010PropOp41
 70
     1
102
RTVSPost2010Prop42
 90
       50
102
RTVSPost2010PropOp42
 70
     1
102
RTVSPost2010Prop43
 90
        3
102
RTVSPost2010PropOp43
 70
     1
102
RTVSPost2010Prop44ColorIndex
 90
        5
102
RTVSPost2010Prop44ColorRGB
 90
      255
102
RTVSPost2010PropOp44
 70
     1
102
RTVSPost2010Prop45
280
     0
102
RTVSPost2010PropOp45
 70
     1
102
RTVSPost2010Prop46
 90
       50
102
RTVSPost2010PropOp46
 70
     1
102
RTVSPost2010Prop47
 90
       50
102
RTVSPost2010PropOp47
 70
     1
102
RTVSPost2010Prop48
 90
       50
102
RTVSPost2010PropOp48
 70
     1
102
RTVSPost2010Prop49
280
     0
102
RTVSPost2010PropOp49
 70
     1
102
RTVSPost2010Prop50
 90
       50
102
RTVSPost2010PropOp50
 70
     1
102
RTVSPost2010Prop51ColorIndex
 90
      256
102
RTVSPost2010Prop51ColorRGB
 90
-16777216
102
RTVSPost2010PropOp51
 70
     0
102
RTVSPost2010Prop52
140
1.0
102
RTVSPost2010PropOp52
 70
     0
102
RTVSPost2010Prop53
 90
        2
102
RTVSPost2010PropOp53
 70
     1
102
RTVSPost2010Prop54
  1
strokes_ogs.tif
102
RTVSPost2010PropOp54
 70
     1
102
RTVSPost2010Prop55
280
     0
102
RTVSPost2010PropOp55
 70
     1
102
RTVSPost2010Prop56
140
1.0
102
RTVSPost2010PropOp56
 70
     1
102
RTVSPost2010Prop57
140
1.0
102
RTVSPost2010PropOp57
 70
     1
  0
XRECORD
  5
21F
102
{ACAD_REACTORS
330
21E
102
}
330
21E
100
AcDbXrecord
280
     1
102
RTVSPropertyOp0
 70
     1
102
RTVSPropertyOp1
 70
     1
102
RTVSPropertyOp2
 70
     1
102
RTVSPropertyOp3
 70
     1
102
RTVSPropertyOp4
 70
     1
102
RTVSPropertyOp5
 70
     1
102
RTVSPropertyOp6
 70
     1
102
RTVSPropertyOp7
 70
     1
102
RTVSPropertyOp8
 70
     1
102
RTVSPropertyOp9
 70
     1
102
RTVSPropertyOp10
 70
     1
102
RTVSPropertyOp11
 70
     1
102
RTVSPropertyOp12
 70
     1
102
RTVSPropertyOp13
 70
     1
102
RTVSPropertyOp14
 70
     1
102
RTVSPropertyOp15
 70
     1
102
RTVSPropertyOp16
 70
     1
102
RTVSPropertyOp17
 70
     1
102
RTVSPropertyOp18
 70
     1
102
RTVSPropertyOp19
 70
     1
102
RTVSPropertyOp20
 70
     1
102
RTVSPropertyOp21
 70
     1
102
RTVSPropertyOp22
 70
     1
102
RTVSPropertyOp23
 70
     1
102
RTVSPropertyOp24
 70
     1
102
RTVSPropertyOp25
 70
     1
102
RTVSPropertyOp26
 70
     1
102
RTVSPropertyOp27
 70
     1
102
RTVSPropertyOp28
 70
     1
102
RTVSPropertyOp29
 70
     1
102
RTVSPropertyOp30
 70
     1
102
RTVSPropertyOp31
 70
     1
102
RTVSPropertyOp32
 70
     1
102
RTVSPropertyOp33
 70
     1
102
RTVSPropertyOp34
 70
     1
102
RTVSPropertyOp35
 70
     1
102
RTVSPropertyOp36
 70
     1
102
RTVSPropertyOp37
 70
     1
102
RTVSPropertyOp38
 70
     1
102
RTVSPropertyOp39
 70
     1
102
RTVSPropertyOp40
 70
     1
102
RTVSPropertyOp41
 70
     1
102
RTVSPropertyOp42
 70
     1
102
RTVSPropertyOp43
 70
     1
102
RTVSPropertyOp44
 70
     1
102
RTVSPropertyOp45
 70
     1
102
RTVSPropertyOp46
 70
     1
102
RTVSPropertyOp47
 70
     1
102
RTVSPropertyOp48
 70
     1
102
RTVSPropertyOp49
 70
     1
102
RTVSPropertyOp50
 70
     1
102
RTVSPropertyOp51
 70
     0
102
RTVSPropertyOp52
 70
     0
102
RTVSPropertyOp53
 70
     1
102
RTVSPropertyOp54
 70
     1
102
RTVSPropertyOp55
 70
     1
102
RTVSPropertyOp56
 70
     1
102
RTVSPropertyOp57
 70
     1
102
RTVSPost2010Prop28
280
     0
102
RTVSPost2010PropOp28
 70
     1
102
RTVSPost2010Prop29
280
     1
102
RTVSPost2010PropOp29
 70
     1
102
RTVSPost2010Prop30
280
     1
102
RTVSPost2010PropOp30
 70
     1
102
RTVSPost2010Prop31
280
     0
102
RTVSPost2010PropOp31
 70
     1
102
RTVSPost2010Prop32
280
     0
102
RTVSPost2010PropOp32
 70
     1
102
RTVSPost2010Prop33
280
     0
102
RTVSPost2010PropOp33
 70
     1
102
RTVSPost2010Prop34
280
     0
102
RTVSPost2010PropOp34
 70
     1
102
RTVSPost2010Prop35
280
     0
102
RTVSPost2010PropOp35
 70
     1
102
RTVSPost2010Prop36
280
     0
102
RTVSPost2010PropOp36
 70
     1
102
RTVSPost2010Prop37
 90
       50
102
RTVSPost2010PropOp37
 70
     1
102
RTVSPost2010Prop38
140
0.0
102
RTVSPost2010PropOp38
 70
     1
102
RTVSPost2010Prop39
140
1.0
102
RTVSPost2010PropOp39
 70
     1
102
RTVSPost2010Prop40
 90
        0
102
RTVSPost2010PropOp40
 70
     1
102
RTVSPost2010Prop41ColorIndex
 90
       18
102
RTVSPost2010Prop41ColorRGB
 90
        0
102
RTVSPost2010PropOp41
 70
     1
102
RTVSPost2010Prop42
 90
       50
102
RTVSPost2010PropOp42
 70
     1
102
RTVSPost2010Prop43
 90
        3
102
RTVSPost2010PropOp43
 70
     1
102
RTVSPost2010Prop44ColorIndex
 90
        5
102
RTVSPost2010Prop44ColorRGB
 90
      255
102
RTVSPost2010PropOp44
 70
     1
102
RTVSPost2010Prop45
280
     0
102
RTVSPost2010PropOp45
 70
     1
102
RTVSPost2010Prop46
 90
       50
102
RTVSPost2010PropOp46
 70
     1
102
RTVSPost2010Prop47
 90
       50
102
RTVSPost2010PropOp47
 70
     1
102
RTVSPost2010Prop48
 90
       50
102
RTVSPost2010PropOp48
 70
     1
102
RTVSPost2010Prop49
280
     0
102
RTVSPost2010PropOp49
 70
     1
102
RTVSPost2010Prop50
 90
       50
102
RTVSPost2010PropOp50
 70
     1
102
RTVSPost2010Prop51ColorIndex
 90
      256
102
RTVSPost2010Prop51ColorRGB
 90
-16777216
102
RTVSPost2010PropOp51
 70
     0
102
RTVSPost2010Prop52
140
1.0
102
RTVSPost2010PropOp52
 70
     0
102
RTVSPost2010Prop53
 90
        2
102
RTVSPost2010PropOp53
 70
     1
102
RTVSPost2010Prop54
  1
strokes_ogs.tif
102
RTVSPost2010PropOp54
 70
     1
102
RTVSPost2010Prop55
280
     0
102
RTVSPost2010PropOp55
 70
     1
102
RTVSPost2010Prop56
140
1.0
102
RTVSPost2010PropOp56
 70
     1
102
RTVSPost2010Prop57
140
1.0
102
RTVSPost2010PropOp57
 70
     1
  0
XRECORD
  5
221
102
{ACAD_REACTORS
330
220
102
}
330
220
100
AcDbXrecord
280
     1
102
RTVSPropertyOp0
 70
     1
102
RTVSPropertyOp1
 70
     1
102
RTVSPropertyOp2
 70
     1
102
RTVSPropertyOp3
 70
     1
102
RTVSPropertyOp4
 70
     1
102
RTVSPropertyOp5
 70
     1
102
RTVSPropertyOp6
 70
     1
102
RTVSPropertyOp7
 70
     1
102
RTVSPropertyOp8
 70
     1
102
RTVSPropertyOp9
 70
     1
102
RTVSPropertyOp10
 70
     1
102
RTVSPropertyOp11
 70
     1
102
RTVSPropertyOp12
 70
     1
102
RTVSPropertyOp13
 70
     1
102
RTVSPropertyOp14
 70
     1
102
RTVSPropertyOp15
 70
     1
102
RTVSPropertyOp16
 70
     1
102
RTVSPropertyOp17
 70
     1
102
RTVSPropertyOp18
 70
     1
102
RTVSPropertyOp19
 70
     1
102
RTVSPropertyOp20
 70
     1
102
RTVSPropertyOp21
 70
     1
102
RTVSPropertyOp22
 70
     1
102
RTVSPropertyOp23
 70
     1
102
RTVSPropertyOp24
 70
     1
102
RTVSPropertyOp25
 70
     1
102
RTVSPropertyOp26
 70
     1
102
RTVSPropertyOp27
 70
     1
102
RTVSPropertyOp28
 70
     1
102
RTVSPropertyOp29
 70
     1
102
RTVSPropertyOp30
 70
     1
102
RTVSPropertyOp31
 70
     1
102
RTVSPropertyOp32
 70
     1
102
RTVSPropertyOp33
 70
     1
102
RTVSPropertyOp34
 70
     1
102
RTVSPropertyOp35
 70
     1
102
RTVSPropertyOp36
 70
     1
102
RTVSPropertyOp37
 70
     1
102
RTVSPropertyOp38
 70
     1
102
RTVSPropertyOp39
 70
     1
102
RTVSPropertyOp40
 70
     1
102
RTVSPropertyOp41
 70
     1
102
RTVSPropertyOp42
 70
     1
102
RTVSPropertyOp43
 70
     1
102
RTVSPropertyOp44
 70
     1
102
RTVSPropertyOp45
 70
     1
102
RTVSPropertyOp46
 70
     1
102
RTVSPropertyOp47
 70
     1
102
RTVSPropertyOp48
 70
     1
102
RTVSPropertyOp49
 70
     1
102
RTVSPropertyOp50
 70
     1
102
RTVSPropertyOp51
 70
     0
102
RTVSPropertyOp52
 70
     0
102
RTVSPropertyOp53
 70
     1
102
RTVSPropertyOp54
 70
     1
102
RTVSPropertyOp55
 70
     1
102
RTVSPropertyOp56
 70
     1
102
RTVSPropertyOp57
 70
     1
102
RTVSPost2010Prop28
280
     0
102
RTVSPost2010PropOp28
 70
     1
102
RTVSPost2010Prop29
280
     1
102
RTVSPost2010PropOp29
 70
     1
102
RTVSPost2010Prop30
280
     1
102
RTVSPost2010PropOp30
 70
     1
102
RTVSPost2010Prop31
280
     0
102
RTVSPost2010PropOp31
 70
     1
102
RTVSPost2010Prop32
280
     0
102
RTVSPost2010PropOp32
 70
     1
102
RTVSPost2010Prop33
280
     0
102
RTVSPost2010PropOp33
 70
     1
102
RTVSPost2010Prop34
280
     0
102
RTVSPost2010PropOp34
 70
     1
102
RTVSPost2010Prop35
280
     0
102
RTVSPost2010PropOp35
 70
     1
102
RTVSPost2010Prop36
280
     0
102
RTVSPost2010PropOp36
 70
     1
102
RTVSPost2010Prop37
 90
       50
102
RTVSPost2010PropOp37
 70
     1
102
RTVSPost2010Prop38
140
0.0
102
RTVSPost2010PropOp38
 70
     1
102
RTVSPost2010Prop39
140
1.0
102
RTVSPost2010PropOp39
 70
     1
102
RTVSPost2010Prop40
 90
        0
102
RTVSPost2010PropOp40
 70
     1
102
RTVSPost2010Prop41ColorIndex
 90
       18
102
RTVSPost2010Prop41ColorRGB
 90
        0
102
RTVSPost2010PropOp41
 70
     1
102
RTVSPost2010Prop42
 90
       50
102
RTVSPost2010PropOp42
 70
     1
102
RTVSPost2010Prop43
 90
        3
102
RTVSPost2010PropOp43
 70
     1
102
RTVSPost2010Prop44ColorIndex
 90
        5
102
RTVSPost2010Prop44ColorRGB
 90
      255
102
RTVSPost2010PropOp44
 70
     1
102
RTVSPost2010Prop45
280
     0
102
RTVSPost2010PropOp45
 70
     1
102
RTVSPost2010Prop46
 90
       50
102
RTVSPost2010PropOp46
 70
     1
102
RTVSPost2010Prop47
 90
       50
102
RTVSPost2010PropOp47
 70
     1
102
RTVSPost2010Prop48
 90
       50
102
RTVSPost2010PropOp48
 70
     1
102
RTVSPost2010Prop49
280
     0
102
RTVSPost2010PropOp49
 70
     1
102
RTVSPost2010Prop50
 90
       50
102
RTVSPost2010PropOp50
 70
     1
102
RTVSPost2010Prop51ColorIndex
 90
      256
102
RTVSPost2010Prop51ColorRGB
 90
-16777216
102
RTVSPost2010PropOp51
 70
     0
102
RTVSPost2010Prop52
140
1.0
102
RTVSPost2010PropOp52
 70
     0
102
RTVSPost2010Prop53
 90
        2
102
RTVSPost2010PropOp53
 70
     1
102
RTVSPost2010Prop54
  1
strokes_ogs.tif
102
RTVSPost2010PropOp54
 70
     1
102
RTVSPost2010Prop55
280
     0
102
RTVSPost2010PropOp55
 70
     1
102
RTVSPost2010Prop56
140
1.0
102
RTVSPost2010PropOp56
 70
     1
102
RTVSPost2010Prop57
140
1.0
102
RTVSPost2010PropOp57
 70
     1
  0
XRECORD
  5
211
102
{ACAD_REACTORS
330
210
102
}
330
210
100
AcDbXrecord
280
     1
102
RTVSPropertyOp0
 70
     1
102
RTVSPropertyOp1
 70
     1
102
RTVSPropertyOp2
 70
     1
102
RTVSPropertyOp3
 70
     1
102
RTVSPropertyOp4
 70
     1
102
RTVSPropertyOp5
 70
     1
102
RTVSPropertyOp6
 70
     1
102
RTVSPropertyOp7
 70
     1
102
RTVSPropertyOp8
 70
     1
102
RTVSPropertyOp9
 70
     1
102
RTVSPropertyOp10
 70
     1
102
RTVSPropertyOp11
 70
     1
102
RTVSPropertyOp12
 70
     1
102
RTVSPropertyOp13
 70
     1
102
RTVSPropertyOp14
 70
     1
102
RTVSPropertyOp15
 70
     1
102
RTVSPropertyOp16
 70
     1
102
RTVSPropertyOp17
 70
     1
102
RTVSPropertyOp18
 70
     1
102
RTVSPropertyOp19
 70
     1
102
RTVSPropertyOp20
 70
     1
102
RTVSPropertyOp21
 70
     1
102
RTVSPropertyOp22
 70
     1
102
RTVSPropertyOp23
 70
     1
102
RTVSPropertyOp24
 70
     1
102
RTVSPropertyOp25
 70
     1
102
RTVSPropertyOp26
 70
     1
102
RTVSPropertyOp27
 70
     1
102
RTVSPropertyOp28
 70
     1
102
RTVSPropertyOp29
 70
     1
102
RTVSPropertyOp30
 70
     1
102
RTVSPropertyOp31
 70
     1
102
RTVSPropertyOp32
 70
     1
102
RTVSPropertyOp33
 70
     1
102
RTVSPropertyOp34
 70
     1
102
RTVSPropertyOp35
 70
     1
102
RTVSPropertyOp36
 70
     1
102
RTVSPropertyOp37
 70
     1
102
RTVSPropertyOp38
 70
     1
102
RTVSPropertyOp39
 70
     1
102
RTVSPropertyOp40
 70
     1
102
RTVSPropertyOp41
 70
     1
102
RTVSPropertyOp42
 70
     1
102
RTVSPropertyOp43
 70
     1
102
RTVSPropertyOp44
 70
     1
102
RTVSPropertyOp45
 70
     1
102
RTVSPropertyOp46
 70
     1
102
RTVSPropertyOp47
 70
     1
102
RTVSPropertyOp48
 70
     1
102
RTVSPropertyOp49
 70
     1
102
RTVSPropertyOp50
 70
     1
102
RTVSPropertyOp51
 70
     0
102
RTVSPropertyOp52
 70
     0
102
RTVSPropertyOp53
 70
     1
102
RTVSPropertyOp54
 70
     1
102
RTVSPropertyOp55
 70
     1
102
RTVSPropertyOp56
 70
     1
102
RTVSPropertyOp57
 70
     1
102
RTVSPost2010Prop28
280
     0
102
RTVSPost2010PropOp28
 70
     1
102
RTVSPost2010Prop29
280
     1
102
RTVSPost2010PropOp29
 70
     1
102
RTVSPost2010Prop30
280
     1
102
RTVSPost2010PropOp30
 70
     1
102
RTVSPost2010Prop31
280
     0
102
RTVSPost2010PropOp31
 70
     1
102
RTVSPost2010Prop32
280
     0
102
RTVSPost2010PropOp32
 70
     1
102
RTVSPost2010Prop33
280
     0
102
RTVSPost2010PropOp33
 70
     1
102
RTVSPost2010Prop34
280
     0
102
RTVSPost2010PropOp34
 70
     1
102
RTVSPost2010Prop35
280
     0
102
RTVSPost2010PropOp35
 70
     1
102
RTVSPost2010Prop36
280
     0
102
RTVSPost2010PropOp36
 70
     1
102
RTVSPost2010Prop37
 90
       50
102
RTVSPost2010PropOp37
 70
     1
102
RTVSPost2010Prop38
140
0.0
102
RTVSPost2010PropOp38
 70
     1
102
RTVSPost2010Prop39
140
1.0
102
RTVSPost2010PropOp39
 70
     1
102
RTVSPost2010Prop40
 90
        0
102
RTVSPost2010PropOp40
 70
     1
102
RTVSPost2010Prop41ColorIndex
 90
       18
102
RTVSPost2010Prop41ColorRGB
 90
        0
102
RTVSPost2010PropOp41
 70
     1
102
RTVSPost2010Prop42
 90
       50
102
RTVSPost2010PropOp42
 70
     1
102
RTVSPost2010Prop43
 90
        3
102
RTVSPost2010PropOp43
 70
     1
102
RTVSPost2010Prop44ColorIndex
 90
        5
102
RTVSPost2010Prop44ColorRGB
 90
      255
102
RTVSPost2010PropOp44
 70
     1
102
RTVSPost2010Prop45
280
     0
102
RTVSPost2010PropOp45
 70
     1
102
RTVSPost2010Prop46
 90
       50
102
RTVSPost2010PropOp46
 70
     1
102
RTVSPost2010Prop47
 90
       50
102
RTVSPost2010PropOp47
 70
     1
102
RTVSPost2010Prop48
 90
       50
102
RTVSPost2010PropOp48
 70
     1
102
RTVSPost2010Prop49
280
     0
102
RTVSPost2010PropOp49
 70
     1
102
RTVSPost2010Prop50
 90
       50
102
RTVSPost2010PropOp50
 70
     1
102
RTVSPost2010Prop51ColorIndex
 90
      256
102
RTVSPost2010Prop51ColorRGB
 90
-16777216
102
RTVSPost2010PropOp51
 70
     0
102
RTVSPost2010Prop52
140
1.0
102
RTVSPost2010PropOp52
 70
     0
102
RTVSPost2010Prop53
 90
        2
102
RTVSPost2010PropOp53
 70
     1
102
RTVSPost2010Prop54
  1
strokes_ogs.tif
102
RTVSPost2010PropOp54
 70
     1
102
RTVSPost2010Prop55
280
     0
102
RTVSPost2010PropOp55
 70
     1
102
RTVSPost2010Prop56
140
1.0
102
RTVSPost2010PropOp56
 70
     1
102
RTVSPost2010Prop57
140
1.0
102
RTVSPost2010PropOp57
 70
     1
  0
XRECORD
  5
203
102
{ACAD_REACTORS
330
202
102
}
330
202
100
AcDbXrecord
280
     1
102
RTVSPropertyOp0
 70
     1
102
RTVSPropertyOp1
 70
     1
102
RTVSPropertyOp2
 70
     1
102
RTVSPropertyOp3
 70
     1
102
RTVSPropertyOp4
 70
     1
102
RTVSPropertyOp5
 70
     1
102
RTVSPropertyOp6
 70
     1
102
RTVSPropertyOp7
 70
     1
102
RTVSPropertyOp8
 70
     1
102
RTVSPropertyOp9
 70
     1
102
RTVSPropertyOp10
 70
     1
102
RTVSPropertyOp11
 70
     1
102
RTVSPropertyOp12
 70
     1
102
RTVSPropertyOp13
 70
     1
102
RTVSPropertyOp14
 70
     1
102
RTVSPropertyOp15
 70
     1
102
RTVSPropertyOp16
 70
     1
102
RTVSPropertyOp17
 70
     1
102
RTVSPropertyOp18
 70
     1
102
RTVSPropertyOp19
 70
     1
102
RTVSPropertyOp20
 70
     1
102
RTVSPropertyOp21
 70
     1
102
RTVSPropertyOp22
 70
     1
102
RTVSPropertyOp23
 70
     1
102
RTVSPropertyOp24
 70
     1
102
RTVSPropertyOp25
 70
     1
102
RTVSPropertyOp26
 70
     1
102
RTVSPropertyOp27
 70
     1
102
RTVSPropertyOp28
 70
     1
102
RTVSPropertyOp29
 70
     1
102
RTVSPropertyOp30
 70
     1
102
RTVSPropertyOp31
 70
     1
102
RTVSPropertyOp32
 70
     1
102
RTVSPropertyOp33
 70
     1
102
RTVSPropertyOp34
 70
     1
102
RTVSPropertyOp35
 70
     1
102
RTVSPropertyOp36
 70
     1
102
RTVSPropertyOp37
 70
     1
102
RTVSPropertyOp38
 70
     1
102
RTVSPropertyOp39
 70
     1
102
RTVSPropertyOp40
 70
     1
102
RTVSPropertyOp41
 70
     1
102
RTVSPropertyOp42
 70
     1
102
RTVSPropertyOp43
 70
     1
102
RTVSPropertyOp44
 70
     1
102
RTVSPropertyOp45
 70
     1
102
RTVSPropertyOp46
 70
     1
102
RTVSPropertyOp47
 70
     1
102
RTVSPropertyOp48
 70
     1
102
RTVSPropertyOp49
 70
     1
102
RTVSPropertyOp50
 70
     1
102
RTVSPropertyOp51
 70
     0
102
RTVSPropertyOp52
 70
     0
102
RTVSPropertyOp53
 70
     1
102
RTVSPropertyOp54
 70
     1
102
RTVSPropertyOp55
 70
     1
102
RTVSPropertyOp56
 70
     1
102
RTVSPropertyOp57
 70
     1
102
RTVSPost2010Prop28
280
     0
102
RTVSPost2010PropOp28
 70
     1
102
RTVSPost2010Prop29
280
     1
102
RTVSPost2010PropOp29
 70
     1
102
RTVSPost2010Prop30
280
     1
102
RTVSPost2010PropOp30
 70
     1
102
RTVSPost2010Prop31
280
     0
102
RTVSPost2010PropOp31
 70
     1
102
RTVSPost2010Prop32
280
     0
102
RTVSPost2010PropOp32
 70
     1
102
RTVSPost2010Prop33
280
     0
102
RTVSPost2010PropOp33
 70
     1
102
RTVSPost2010Prop34
280
     0
102
RTVSPost2010PropOp34
 70
     1
102
RTVSPost2010Prop35
280
     0
102
RTVSPost2010PropOp35
 70
     1
102
RTVSPost2010Prop36
280
     0
102
RTVSPost2010PropOp36
 70
     1
102
RTVSPost2010Prop37
 90
       50
102
RTVSPost2010PropOp37
 70
     1
102
RTVSPost2010Prop38
140
0.0
102
RTVSPost2010PropOp38
 70
     1
102
RTVSPost2010Prop39
140
1.0
102
RTVSPost2010PropOp39
 70
     1
102
RTVSPost2010Prop40
 90
        0
102
RTVSPost2010PropOp40
 70
     1
102
RTVSPost2010Prop41ColorIndex
 90
       18
102
RTVSPost2010Prop41ColorRGB
 90
        0
102
RTVSPost2010PropOp41
 70
     1
102
RTVSPost2010Prop42
 90
       50
102
RTVSPost2010PropOp42
 70
     1
102
RTVSPost2010Prop43
 90
        3
102
RTVSPost2010PropOp43
 70
     1
102
RTVSPost2010Prop44ColorIndex
 90
        5
102
RTVSPost2010Prop44ColorRGB
 90
      255
102
RTVSPost2010PropOp44
 70
     1
102
RTVSPost2010Prop45
280
     0
102
RTVSPost2010PropOp45
 70
     1
102
RTVSPost2010Prop46
 90
       50
102
RTVSPost2010PropOp46
 70
     1
102
RTVSPost2010Prop47
 90
       50
102
RTVSPost2010PropOp47
 70
     1
102
RTVSPost2010Prop48
 90
       50
102
RTVSPost2010PropOp48
 70
     1
102
RTVSPost2010Prop49
280
     0
102
RTVSPost2010PropOp49
 70
     1
102
RTVSPost2010Prop50
 90
       50
102
RTVSPost2010PropOp50
 70
     1
102
RTVSPost2010Prop51ColorIndex
 90
      256
102
RTVSPost2010Prop51ColorRGB
 90
-16777216
102
RTVSPost2010PropOp51
 70
     0
102
RTVSPost2010Prop52
140
1.0
102
RTVSPost2010PropOp52
 70
     0
102
RTVSPost2010Prop53
 90
        2
102
RTVSPost2010PropOp53
 70
     1
102
RTVSPost2010Prop54
  1
strokes_ogs.tif
102
RTVSPost2010PropOp54
 70
     1
102
RTVSPost2010Prop55
280
     0
102
RTVSPost2010PropOp55
 70
     1
102
RTVSPost2010Prop56
140
1.0
102
RTVSPost2010PropOp56
 70
     1
102
RTVSPost2010Prop57
140
1.0
102
RTVSPost2010PropOp57
 70
     1
  0
XRECORD
  5
223
102
{ACAD_REACTORS
330
222
102
}
330
222
100
AcDbXrecord
280
     1
102
RTVSPropertyOp0
 70
     1
102
RTVSPropertyOp1
 70
     1
102
RTVSPropertyOp2
 70
     1
102
RTVSPropertyOp3
 70
     1
102
RTVSPropertyOp4
 70
     1
102
RTVSPropertyOp5
 70
     1
102
RTVSPropertyOp6
 70
     1
102
RTVSPropertyOp7
 70
     1
102
RTVSPropertyOp8
 70
     1
102
RTVSPropertyOp9
 70
     1
102
RTVSPropertyOp10
 70
     1
102
RTVSPropertyOp11
 70
     1
102
RTVSPropertyOp12
 70
     1
102
RTVSPropertyOp13
 70
     1
102
RTVSPropertyOp14
 70
     1
102
RTVSPropertyOp15
 70
     1
102
RTVSPropertyOp16
 70
     1
102
RTVSPropertyOp17
 70
     1
102
RTVSPropertyOp18
 70
     1
102
RTVSPropertyOp19
 70
     1
102
RTVSPropertyOp20
 70
     1
102
RTVSPropertyOp21
 70
     1
102
RTVSPropertyOp22
 70
     1
102
RTVSPropertyOp23
 70
     1
102
RTVSPropertyOp24
 70
     1
102
RTVSPropertyOp25
 70
     1
102
RTVSPropertyOp26
 70
     1
102
RTVSPropertyOp27
 70
     1
102
RTVSPropertyOp28
 70
     1
102
RTVSPropertyOp29
 70
     1
102
RTVSPropertyOp30
 70
     1
102
RTVSPropertyOp31
 70
     1
102
RTVSPropertyOp32
 70
     1
102
RTVSPropertyOp33
 70
     1
102
RTVSPropertyOp34
 70
     1
102
RTVSPropertyOp35
 70
     1
102
RTVSPropertyOp36
 70
     1
102
RTVSPropertyOp37
 70
     1
102
RTVSPropertyOp38
 70
     1
102
RTVSPropertyOp39
 70
     1
102
RTVSPropertyOp40
 70
     1
102
RTVSPropertyOp41
 70
     1
102
RTVSPropertyOp42
 70
     1
102
RTVSPropertyOp43
 70
     1
102
RTVSPropertyOp44
 70
     1
102
RTVSPropertyOp45
 70
     1
102
RTVSPropertyOp46
 70
     1
102
RTVSPropertyOp47
 70
     1
102
RTVSPropertyOp48
 70
     1
102
RTVSPropertyOp49
 70
     1
102
RTVSPropertyOp50
 70
     1
102
RTVSPropertyOp51
 70
     0
102
RTVSPropertyOp52
 70
     0
102
RTVSPropertyOp53
 70
     1
102
RTVSPropertyOp54
 70
     1
102
RTVSPropertyOp55
 70
     1
102
RTVSPropertyOp56
 70
     1
102
RTVSPropertyOp57
 70
     1
102
RTVSPost2010Prop28
280
     0
102
RTVSPost2010PropOp28
 70
     1
102
RTVSPost2010Prop29
280
     1
102
RTVSPost2010PropOp29
 70
     1
102
RTVSPost2010Prop30
280
     1
102
RTVSPost2010PropOp30
 70
     1
102
RTVSPost2010Prop31
280
     0
102
RTVSPost2010PropOp31
 70
     1
102
RTVSPost2010Prop32
280
     0
102
RTVSPost2010PropOp32
 70
     1
102
RTVSPost2010Prop33
280
     0
102
RTVSPost2010PropOp33
 70
     1
102
RTVSPost2010Prop34
280
     0
102
RTVSPost2010PropOp34
 70
     1
102
RTVSPost2010Prop35
280
     0
102
RTVSPost2010PropOp35
 70
     1
102
RTVSPost2010Prop36
280
     0
102
RTVSPost2010PropOp36
 70
     1
102
RTVSPost2010Prop37
 90
       50
102
RTVSPost2010PropOp37
 70
     1
102
RTVSPost2010Prop38
140
0.0
102
RTVSPost2010PropOp38
 70
     1
102
RTVSPost2010Prop39
140
1.0
102
RTVSPost2010PropOp39
 70
     1
102
RTVSPost2010Prop40
 90
        0
102
RTVSPost2010PropOp40
 70
     1
102
RTVSPost2010Prop41ColorIndex
 90
       18
102
RTVSPost2010Prop41ColorRGB
 90
        0
102
RTVSPost2010PropOp41
 70
     1
102
RTVSPost2010Prop42
 90
       50
102
RTVSPost2010PropOp42
 70
     1
102
RTVSPost2010Prop43
 90
        3
102
RTVSPost2010PropOp43
 70
     1
102
RTVSPost2010Prop44ColorIndex
 90
        5
102
RTVSPost2010Prop44ColorRGB
 90
      255
102
RTVSPost2010PropOp44
 70
     1
102
RTVSPost2010Prop45
280
     0
102
RTVSPost2010PropOp45
 70
     1
102
RTVSPost2010Prop46
 90
       50
102
RTVSPost2010PropOp46
 70
     1
102
RTVSPost2010Prop47
 90
       50
102
RTVSPost2010PropOp47
 70
     1
102
RTVSPost2010Prop48
 90
       50
102
RTVSPost2010PropOp48
 70
     1
102
RTVSPost2010Prop49
280
     0
102
RTVSPost2010PropOp49
 70
     1
102
RTVSPost2010Prop50
 90
       50
102
RTVSPost2010PropOp50
 70
     1
102
RTVSPost2010Prop51ColorIndex
 90
      256
102
RTVSPost2010Prop51ColorRGB
 90
-16777216
102
RTVSPost2010PropOp51
 70
     0
102
RTVSPost2010Prop52
140
1.0
102
RTVSPost2010PropOp52
 70
     0
102
RTVSPost2010Prop53
 90
        2
102
RTVSPost2010PropOp53
 70
     1
102
RTVSPost2010Prop54
  1
strokes_ogs.tif
102
RTVSPost2010PropOp54
 70
     1
102
RTVSPost2010Prop55
280
     0
102
RTVSPost2010PropOp55
 70
     1
102
RTVSPost2010Prop56
140
1.0
102
RTVSPost2010PropOp56
 70
     1
102
RTVSPost2010Prop57
140
1.0
102
RTVSPost2010PropOp57
 70
     1
  0
ENDSEC
  0
EOF
