  0
SECTION
  2
HEADER
  9
$ACADVER
  1
AC1021
  9
$ACADMAINTVER
 70
    25
  9
$DWGCODEPAGE
  3
ANSI_1252
  9
$INSBASE
 10
0.0
 20
0.0
 30
0.0
  9
$EXTMIN
 10
0.0
 20
0.0
 30
0.0
  9
$EXTMAX
 10
210.0
 20
297.0
 30
0.0
  9
$LIMMIN
 10
0.0
 20
0.0
  9
$LIMMAX
 10
210.0
 20
297.0
  9
$ORTHOMODE
 70
     0
  9
$REGENMODE
 70
     1
  9
$FILLMODE
 70
     1
  9
$QTEXTMODE
 70
     0
  9
$MIRRTEXT
 70
     1
  9
$LTSCALE
 40
1.0
  9
$ATTMODE
 70
     1
  9
$TEXTSIZE
 40
2.2
  9
$TRACEWID
 40
1.0
  9
$TEXTSTYLE
  7
Standard
  9
$CLAYER
  8
0
  9
$CELTYPE
  6
ByLayer
  9
$CECOLOR
 62
   256
  9
$CELTSCALE
 40
1.0
  9
$DISPSILH
 70
     0
  9
$DIMSCALE
 40
1.0
  9
$DIMASZ
 40
2.5
  9
$DIMEXO
 40
0.625
  9
$DIMDLI
 40
3.75
  9
$DIMRND
 40
0.0
  9
$DIMDLE
 40
0.0
  9
$DIMEXE
 40
1.25
  9
$DIMTP
 40
0.0
  9
$DIMTM
 40
0.0
  9
$DIMTXT
 40
2.5
  9
$DIMCEN
 40
2.5
  9
$DIMTSZ
 40
0.0
  9
$DIMTOL
 70
     0
  9
$DIMLIM
 70
     0
  9
$DIMTIH
 70
     0
  9
$DIMTOH
 70
     0
  9
$DIMSE1
 70
     0
  9
$DIMSE2
 70
     0
  9
$DIMTAD
 70
     1
  9
$DIMZIN
 70
     8
  9
$DIMBLK
  1

  9
$DIMASO
 70
     1
  9
$DIMSHO
 70
     1
  9
$DIMPOST
  1

  9
$DIMAPOST
  1

  9
$DIMALT
 70
     0
  9
$DIMALTD
 70
     3
  9
$DIMALTF
 40
0.0393700787
  9
$DIMLFAC
 40
1.0
  9
$DIMTOFL
 70
     1
  9
$DIMTVP
 40
0.0
  9
$DIMTIX
 70
     0
  9
$DIMSOXD
 70
     0
  9
$DIMSAH
 70
     0
  9
$DIMBLK1
  1

  9
$DIMBLK2
  1

  9
$DIMSTYLE
  2
ISO-25
  9
$DIMCLRD
 70
     0
  9
$DIMCLRE
 70
     0
  9
$DIMCLRT
 70
     0
  9
$DIMTFAC
 40
1.0
  9
$DIMGAP
 40
0.625
  9
$DIMJUST
 70
     0
  9
$DIMSD1
 70
     0
  9
$DIMSD2
 70
     0
  9
$DIMTOLJ
 70
     0
  9
$DIMTZIN
 70
     8
  9
$DIMALTZ
 70
     0
  9
$DIMALTTZ
 70
     0
  9
$DIMUPT
 70
     0
  9
$DIMDEC
 70
     2
  9
$DIMTDEC
 70
     2
  9
$DIMALTU
 70
     2
  9
$DIMALTTD
 70
     3
  9
$DIMTXSTY
  7
Standard
  9
$DIMAUNIT
 70
     0
  9
$DIMADEC
 70
     0
  9
$DIMALTRND
 40
0.0
  9
$DIMAZIN
 70
     0
  9
$DIMDSEP
 70
    44
  9
$DIMATFIT
 70
     3
  9
$DIMFRAC
 70
     0
  9
$DIMLDRBLK
  1

  9
$DIMLUNIT
 70
     2
  9
$DIMLWD
 70
    -2
  9
$DIMLWE
 70
    -2
  9
$DIMTMOVE
 70
     0
  9
$DIMFXL
 40
1.0
  9
$DIMFXLON
 70
     0
  9
$DIMJOGANG
 40
0.7853981634
  9
$DIMTFILL
 70
     0
  9
$DIMTFILLCLR
 70
     0
  9
$DIMARCSYM
 70
     0
  9
$DIMLTYPE
  6

  9
$DIMLTEX1
  6

  9
$DIMLTEX2
  6

  9
$LUNITS
 70
     2
  9
$LUPREC
 70
     4
  9
$SKETCHINC
 40
1.0
  9
$FILLETRAD
 40
10.0
  9
$AUNITS
 70
     0
  9
$AUPREC
 70
     0
  9
$MENU
  1
.
  9
$ELEVATION
 40
0.0
  9
$PELEVATION
 40
0.0
  9
$THICKNESS
 40
0.0
  9
$LIMCHECK
 70
     0
  9
$CHAMFERA
 40
0.0
  9
$CHAMFERB
 40
0.0
  9
$CHAMFERC
 40
0.0
  9
$CHAMFERD
 40
0.0
  9
$SKPOLY
 70
     0
  9
$TDCREATE
 40
2459632.375978646
  9
$TDUCREATE
 40
2459632.334311979
  9
$TDUPDATE
 40
2459632.375988507
  9
$TDUUPDATE
 40
2459632.33432184
  9
$TDINDWG
 40
0.0000000116
  9
$TDUSRTIMER
 40
0.0000000116
  9
$USRTIMER
 70
     1
  9
$ANGBASE
 50
0.0
  9
$ANGDIR
 70
     0
  9
$PDMODE
 70
     0
  9
$PDSIZE
 40
0.0
  9
$PLINEWID
 40
0.0
  9
$SPLFRAME
 70
     0
  9
$SPLINETYPE
 70
     6
  9
$SPLINESEGS
 70
     8
  9
$HANDSEED
  5
268
  9
$SURFTAB1
 70
     6
  9
$SURFTAB2
 70
     6
  9
$SURFTYPE
 70
     6
  9
$SURFU
 70
     6
  9
$SURFV
 70
     6
  9
$UCSBASE
  2

  9
$UCSNAME
  2

  9
$UCSORG
 10
0.0
 20
0.0
 30
0.0
  9
$UCSXDIR
 10
1.0
 20
0.0
 30
0.0
  9
$UCSYDIR
 10
0.0
 20
1.0
 30
0.0
  9
$UCSORTHOREF
  2

  9
$UCSORTHOVIEW
 70
     0
  9
$UCSORGTOP
 10
0.0
 20
0.0
 30
0.0
  9
$UCSORGBOTTOM
 10
0.0
 20
0.0
 30
0.0
  9
$UCSORGLEFT
 10
0.0
 20
0.0
 30
0.0
  9
$UCSORGRIGHT
 10
0.0
 20
0.0
 30
0.0
  9
$UCSORGFRONT
 10
0.0
 20
0.0
 30
0.0
  9
$UCSORGBACK
 10
0.0
 20
0.0
 30
0.0
  9
$PUCSBASE
  2

  9
$PUCSNAME
  2

  9
$PUCSORG
 10
0.0
 20
0.0
 30
0.0
  9
$PUCSXDIR
 10
1.0
 20
0.0
 30
0.0
  9
$PUCSYDIR
 10
0.0
 20
1.0
 30
0.0
  9
$PUCSORTHOREF
  2

  9
$PUCSORTHOVIEW
 70
     0
  9
$PUCSORGTOP
 10
0.0
 20
0.0
 30
0.0
  9
$PUCSORGBOTTOM
 10
0.0
 20
0.0
 30
0.0
  9
$PUCSORGLEFT
 10
0.0
 20
0.0
 30
0.0
  9
$PUCSORGRIGHT
 10
0.0
 20
0.0
 30
0.0
  9
$PUCSORGFRONT
 10
0.0
 20
0.0
 30
0.0
  9
$PUCSORGBACK
 10
0.0
 20
0.0
 30
0.0
  9
$USERI1
 70
     0
  9
$USERI2
 70
     0
  9
$USERI3
 70
     0
  9
$USERI4
 70
     0
  9
$USERI5
 70
     0
  9
$USERR1
 40
0.0
  9
$USERR2
 40
0.0
  9
$USERR3
 40
0.0
  9
$USERR4
 40
0.0
  9
$USERR5
 40
0.0
  9
$WORLDVIEW
 70
     1
  9
$SHADEDGE
 70
     3
  9
$SHADEDIF
 70
    70
  9
$TILEMODE
 70
     1
  9
$MAXACTVP
 70
    64
  9
$PINSBASE
 10
0.0
 20
0.0
 30
0.0
  9
$PLIMCHECK
 70
     0
  9
$PEXTMIN
 10
0.0
 20
0.0
 30
0.0
  9
$PEXTMAX
 10
210.0
 20
297.0
 30
0.0
  9
$PLIMMIN
 10
0.0
 20
0.0
  9
$PLIMMAX
 10
210.0
 20
297.0
  9
$UNITMODE
 70
     0
  9
$VISRETAIN
 70
     1
  9
$PLINEGEN
 70
     0
  9
$PSLTSCALE
 70
     1
  9
$TREEDEPTH
 70
  3020
  9
$CMLSTYLE
  2
Standard
  9
$CMLJUST
 70
     0
  9
$CMLSCALE
 40
20.0
  9
$PROXYGRAPHICS
 70
     1
  9
$MEASUREMENT
 70
     1
  9
$CELWEIGHT
370
    -1
  9
$ENDCAPS
280
     0
  9
$JOINSTYLE
280
     0
  9
$LWDISPLAY
290
     0
  9
$INSUNITS
 70
     4
  9
$HYPERLINKBASE
  1

  9
$STYLESHEET
  1

  9
$XEDIT
290
     1
  9
$CEPSNTYPE
380
     0
  9
$PSTYLEMODE
290
     1
  9
$FINGERPRINTGUID
  2
{28430d69-319d-4f40-8d77-a4673251d905}
  9
$VERSIONGUID
  2
{FAEB1C32-E019-11D5-929B-00C0DF256EC4}
  9
$EXTNAMES
290
     1
  9
$PSVPSCALE
 40
0.0
  9
$OLESTARTUP
290
     0
  9
$SORTENTS
280
   127
  9
$INDEXCTL
280
     0
  9
$HIDETEXT
280
     1
  9
$XCLIPFRAME
290
     0
  9
$HALOGAP
280
     0
  9
$OBSCOLOR
 70
   257
  9
$OBSLTYPE
280
     0
  9
$INTERSECTIONDISPLAY
280
     0
  9
$INTERSECTIONCOLOR
 70
   257
  9
$DIMASSOC
280
     2
  9
$PROJECTNAME
  1

  9
$CAMERADISPLAY
290
     0
  9
$LENSLENGTH
 40
50.0
  9
$CAMERAHEIGHT
 40
0.0
  9
$STEPSPERSEC
 40
2.0
  9
$STEPSIZE
 40
6.0
  9
$3DDWFPREC
 40
2.0
  9
$PSOLWIDTH
 40
5.0
  9
$PSOLHEIGHT
 40
80.0
  9
$LOFTANG1
 40
1.5707963268
  9
$LOFTANG2
 40
1.5707963268
  9
$LOFTMAG1
 40
0.0
  9
$LOFTMAG2
 40
0.0
  9
$LOFTPARAM
 70
     7
  9
$LOFTNORMALS
280
     1
  9
$LATITUDE
 40
37.795
  9
$LONGITUDE
 40
-122.394
  9
$NORTHDIRECTION
 40
0.0
  9
$TIMEZONE
 70
 -8000
  9
$LIGHTGLYPHDISPLAY
280
     1
  9
$TILEMODELIGHTSYNCH
280
     1
  9
$CMATERIAL
347
44
  9
$SOLIDHIST
280
     0
  9
$SHOWHIST
280
     1
  9
$DWFFRAME
280
     2
  9
$DGNFRAME
280
     2
  9
$REALWORLDSCALE
290
     1
  9
$INTERFERECOLOR
 62
   256
  9
$CSHADOW
280
     0
  9
$SHADOWPLANELOCATION
 40
0.0
  0
ENDSEC
  0
SECTION
  2
CLASSES
  0
CLASS
  1
ACDBDICTIONARYWDFLT
  2
AcDbDictionaryWithDefault
  3
ObjectDBX Classes
 90
        0
 91
        3
280
     0
281
     0
  0
CLASS
  1
VISUALSTYLE
  2
AcDbVisualStyle
  3
ObjectDBX Classes
 90
     4095
 91
        3
280
     0
281
     0
  0
CLASS
  1
MATERIAL
  2
AcDbMaterial
  3
ObjectDBX Classes
 90
     1153
 91
        3
280
     0
281
     0
  0
CLASS
  1
SCALE
  2
AcDbScale
  3
ObjectDBX Classes
 90
     1153
 91
        3
280
     0
281
     0
  0
CLASS
  1
TABLESTYLE
  2
AcDbTableStyle
  3
ObjectDBX Classes
 90
     4095
 91
        3
280
     0
281
     0
  0
CLASS
  1
MLEADERSTYLE
  2
AcDbMLeaderStyle
  3
ACDB_MLEADERSTYLE_CLASS
 90
     4095
 91
        3
280
     0
281
     0
  0
CLASS
  1
SUN
  2
AcDbSun
  3
SCENEOE
 90
     1153
 91
        3
280
     0
281
     0
  0
CLASS
  1
MULTILEADER
  2
AcDbMLeader
  3
ACDB_MLEADER_CLASS
 90
     1025
 91
        3
280
     0
281
     1
  0
CLASS
  1
RASTERVARIABLES
  2
AcDbRasterVariables
  3
ISM
 90
        0
 91
        3
280
     0
281
     0
  0
CLASS
  1
IMAGEDEF
  2
AcDbRasterImageDef
  3
ISM
 90
        0
 91
        3
280
     0
281
     0
  0
CLASS
  1
IMAGE
  2
AcDbRasterImage
  3
ISM
 90
      127
 91
        4
280
     0
281
     1
  0
CLASS
  1
IMAGEDEF_REACTOR
  2
AcDbRasterImageDefReactor
  3
ISM
 90
        1
 91
        3
280
     0
281
     0
  0
CLASS
  1
DICTIONARYVAR
  2
AcDbDictionaryVar
  3
ObjectDBX Classes
 90
        0
 91
        3
280
     0
281
     0
  0
CLASS
  1
CELLSTYLEMAP
  2
AcDbCellStyleMap
  3
ObjectDBX Classes
 90
     1152
 91
        3
280
     0
281
     0
  0
ENDSEC
  0
SECTION
  2
TABLES
  0
TABLE
  2
VPORT
  5
8
330
0
100
AcDbSymbolTable
 70
     1
  0
VPORT
  5
29
330
8
100
AcDbSymbolTableRecord
100
AcDbViewportTableRecord
  2
*Active
 70
     0
 10
0.0
 20
0.0
 11
1.0
 21
1.0
 12
344.1869158879
 22
148.5
 13
0.0
 23
0.0
 14
10.0
 24
10.0
 15
10.0
 25
10.0
 16
0.0
 26
0.0
 36
1.0
 17
0.0
 27
0.0
 37
0.0
 40
297.0
 41
1.9729729729
 42
50.0
 43
0.0
 44
0.0
 50
0.0
 51
0.0
 71
     0
 72
   100
 73
     1
 74
     3
 75
     0
 76
     0
 77
     0
 78
     0
281
     0
 65
     1
110
0.0
120
0.0
130
0.0
111
1.0
121
0.0
131
0.0
112
0.0
122
1.0
132
0.0
 79
     0
146
0.0
348
2F
 60
     3
 61
     5
292
     1
282
     1
141
0.0
142
0.0
 63
   250
361
6D
  0
ENDTAB
  0
TABLE
  2
LTYPE
  5
5
330
0
100
AcDbSymbolTable
 70
     1
  0
LTYPE
  5
14
330
5
100
AcDbSymbolTableRecord
100
AcDbLinetypeTableRecord
  2
ByBlock
 70
     0
  3

 72
    65
 73
     0
 40
0.0
  0
LTYPE
  5
15
330
5
100
AcDbSymbolTableRecord
100
AcDbLinetypeTableRecord
  2
ByLayer
 70
     0
  3

 72
    65
 73
     0
 40
0.0
  0
LTYPE
  5
16
330
5
100
AcDbSymbolTableRecord
100
AcDbLinetypeTableRecord
  2
Continuous
 70
     0
  3
Solid line
 72
    65
 73
     0
 40
0.0
  0
ENDTAB
  0
TABLE
  2
LAYER
  5
2
330
0
100
AcDbSymbolTable
 70
     8
  0
LAYER
  5
10
330
2
100
AcDbSymbolTableRecord
100
AcDbLayerTableRecord
  2
0
 70
     0
 62
     7
  6
Continuous
370
    -3
390
F
347
46
  0
LAYER
  5
6E
330
2
100
AcDbSymbolTableRecord
100
AcDbLayerTableRecord
  2
Standard
 70
     0
 62
     7
  6
Continuous
370
    -3
390
F
347
46
  0
LAYER
  5
71
330
2
100
AcDbSymbolTableRecord
100
AcDbLayerTableRecord
  2
30878__AUSSENPROF
 70
     0
 62
     7
  6
Continuous
370
    -3
390
F
347
46
  0
LAYER
  5
9D
330
2
100
AcDbSymbolTableRecord
100
AcDbLayerTableRecord
  2
30882__INNENPROFI
 70
     0
 62
     7
  6
Continuous
370
    -3
390
F
347
46
  0
LAYER
  5
C6
330
2
100
AcDbSymbolTableRecord
100
AcDbLayerTableRecord
  2
27576__DICHTPROFI
 70
     0
 62
     7
  6
Continuous
370
    -3
390
F
347
46
  0
LAYER
  5
10A
330
2
100
AcDbSymbolTableRecord
100
AcDbLayerTableRecord
  2
10472_AUSLÖSERKN
 70
     0
 62
     7
  6
Continuous
370
    -3
390
F
347
46
  0
LAYER
  5
201
330
2
100
AcDbSymbolTableRecord
100
AcDbLayerTableRecord
  2
Default
 70
     0
 62
     7
  6
Continuous
370
    -3
390
F
347
46
  0
LAYER
  5
21F
330
2
100
AcDbSymbolTableRecord
100
AcDbLayerTableRecord
  2
Skizziergeometrie(DIN)
 70
     0
 62
     7
  6
Continuous
370
    -3
390
F
347
46
  0
ENDTAB
  0
TABLE
  2
STYLE
  5
3
330
0
100
AcDbSymbolTable
 70
     2
  0
STYLE
  5
11
330
3
100
AcDbSymbolTableRecord
100
AcDbTextStyleTableRecord
  2
Standard
 70
     0
 40
0.0
 41
1.0
 50
0.0
 71
     0
 42
2.2
  3
txt
  4

  0
STYLE
  5
1E1
330
3
100
AcDbSymbolTableRecord
100
AcDbTextStyleTableRecord
  2
SEACAD_Arial
 70
     0
 40
0.0
 41
1.0
 50
0.0
 71
     0
 42
2.5
  3
arial.ttf
  4

1001
ACAD
1000
Arial
1071
        0
  0
ENDTAB
  0
TABLE
  2
VIEW
  5
6
330
0
100
AcDbSymbolTable
 70
     0
  0
ENDTAB
  0
TABLE
  2
UCS
  5
7
330
0
100
AcDbSymbolTable
 70
     0
  0
ENDTAB
  0
TABLE
  2
APPID
  5
9
330
0
100
AcDbSymbolTable
 70
     2
  0
APPID
  5
12
330
9
100
AcDbSymbolTableRecord
100
AcDbRegAppTableRecord
  2
ACAD
 70
     0
  0
APPID
  5
229
330
9
100
AcDbSymbolTableRecord
100
AcDbRegAppTableRecord
  2
ACAD_MLEADERVER
 70
     0
  0
ENDTAB
  0
TABLE
  2
DIMSTYLE
  5
A
330
0
100
AcDbSymbolTable
 70
     3
100
AcDbDimStyleTable
  0
DIMSTYLE
105
27
330
A
100
AcDbSymbolTableRecord
100
AcDbDimStyleTableRecord
  2
ISO-25
 70
     0
 41
2.5
 42
0.625
 43
3.75
 44
1.25
 73
     0
 74
     0
 77
     1
 78
     8
140
2.5
141
2.5
143
0.0393700787
147
0.625
171
     3
172
     1
178
     0
271
     2
272
     2
274
     3
278
    44
283
     0
284
     8
340
11
  0
DIMSTYLE
105
1D1
330
A
100
AcDbSymbolTableRecord
100
AcDbDimStyleTableRecord
  2
Standard
 70
     0
178
     0
340
11
  0
DIMSTYLE
105
1E2
102
{ACAD_REACTORS
330
1E3
330
1ED
330
1F7
102
}
330
A
100
AcDbSymbolTableRecord
100
AcDbDimStyleTableRecord
  2
E-Katalog
 70
     0
 41
3.75
 42
0.75
 44
1.25
 73
     0
 74
     0
 77
     1
 78
     8
140
2.5
141
1.25
143
0.0393700787
146
0.7
147
0.625
172
     1
173
     1
178
     0
271
     2
272
     3
278
    44
283
     0
284
     8
340
1E1
343
1DB
344
1DB
  0
ENDTAB
  0
TABLE
  2
BLOCK_RECORD
  5
1
330
0
100
AcDbSymbolTable
 70
    10
  0
BLOCK_RECORD
  5
1F
330
1
100
AcDbSymbolTableRecord
100
AcDbBlockTableRecord
  2
*Model_Space
340
22
 70
     0
280
     1
281
     0
  0
BLOCK_RECORD
  5
1B
330
1
100
AcDbSymbolTableRecord
100
AcDbBlockTableRecord
  2
*Paper_Space
340
1E
 70
     0
280
     1
281
     0
  0
BLOCK_RECORD
  5
6F
330
1
100
AcDbSymbolTableRecord
100
AcDbBlockTableRecord
  2
SE
340
0
102
{BLKREFS
331
70
102
}
 70
     0
280
     1
281
     0
  0
BLOCK_RECORD
  5
122
330
1
100
AcDbSymbolTableRecord
100
AcDbBlockTableRecord
  2
SE1
340
0
102
{BLKREFS
331
123
102
}
 70
     0
280
     1
281
     0
  0
BLOCK_RECORD
  5
1D2
330
1
100
AcDbSymbolTableRecord
100
AcDbBlockTableRecord
  2
_Oblique
340
0
 70
     0
280
     1
281
     0
  0
BLOCK_RECORD
  5
1D6
330
1
100
AcDbSymbolTableRecord
100
AcDbBlockTableRecord
  2
_Dot
340
0
 70
     0
280
     1
281
     0
  0
BLOCK_RECORD
  5
1DB
330
1
100
AcDbSymbolTableRecord
100
AcDbBlockTableRecord
  2
_SE_OPEN
340
0
 70
     0
280
     1
281
     0
  0
BLOCK_RECORD
  5
1E4
330
1
100
AcDbSymbolTableRecord
100
AcDbBlockTableRecord
  2
DMBLK4
340
0
 70
     0
280
     1
281
     0
  0
BLOCK_RECORD
  5
1EE
330
1
100
AcDbSymbolTableRecord
100
AcDbBlockTableRecord
  2
DMBLK5
340
0
 70
     0
280
     1
281
     0
  0
BLOCK_RECORD
  5
1F8
330
1
100
AcDbSymbolTableRecord
100
AcDbBlockTableRecord
  2
DMBLK6
340
0
 70
     0
280
     1
281
     0
  0
BLOCK_RECORD
  5
209
330
1
100
AcDbSymbolTableRecord
100
AcDbBlockTableRecord
  2
SEANNOT_GROUP
340
0
102
{BLKREFS
331
20A
102
}
 70
     0
280
     1
281
     0
  0
BLOCK_RECORD
  5
20D
330
1
100
AcDbSymbolTableRecord
100
AcDbBlockTableRecord
  2
_NONE
340
0
 70
     0
280
     1
281
     0
  0
ENDTAB
  0
ENDSEC
  0
SECTION
  2
BLOCKS
  0
BLOCK
  5
20
330
1F
100
AcDbEntity
  8
0
100
AcDbBlockBegin
  2
*Model_Space
 70
     0
 10
0.0
 20
0.0
 30
0.0
  3
*Model_Space
  1

  0
ENDBLK
  5
21
330
1F
100
AcDbEntity
  8
0
100
AcDbBlockEnd
  0
BLOCK
  5
1C
330
1B
100
AcDbEntity
 67
     1
  8
0
100
AcDbBlockBegin
  2
*Paper_Space
 70
     0
 10
0.0
 20
0.0
 30
0.0
  3
*Paper_Space
  1

  0
ENDBLK
  5
1D
330
1B
100
AcDbEntity
 67
     1
  8
0
100
AcDbBlockEnd
  0
BLOCK
  5
120
330
6F
100
AcDbEntity
  8
0
100
AcDbBlockBegin
  2
SE
 70
     0
 10
0.0
 20
0.0
 30
0.0
  3
SE
  1

  0
LINE
  5
72
330
6F
100
AcDbEntity
  8
30878__AUSSENPROF
  6
Continuous
 62
     7
100
AcDbLine
 10
68.6802273743
 20
200.0510102574
 30
0.0
 11
57.0802273743
 21
200.0510102574
 31
0.0
  0
ARC
  5
73
330
6F
100
AcDbEntity
  8
30878__AUSSENPROF
  6
Continuous
 62
     7
100
AcDbCircle
 10
68.6802273743
 20
199.8510102574
 30
0.0
 40
0.1999999999999997
100
AcDbArc
 50
0.0
 51
90.0
  0
LINE
  5
74
330
6F
100
AcDbEntity
  8
30878__AUSSENPROF
  6
Continuous
 62
     7
100
AcDbLine
 10
68.8802273743
 20
173.0510102574
 30
0.0
 11
68.8802273743
 21
199.8510102574
 31
0.0
  0
LINE
  5
75
330
6F
100
AcDbEntity
  8
30878__AUSSENPROF
  6
Continuous
 62
     7
100
AcDbLine
 10
75.9802273743
 20
173.0510102574
 30
0.0
 11
68.8802273743
 21
173.0510102574
 31
0.0
  0
ARC
  5
76
330
6F
100
AcDbEntity
  8
30878__AUSSENPROF
  6
Continuous
 62
     7
100
AcDbCircle
 10
75.9802273743
 20
172.6510102574
 30
0.0
 40
0.400000000000001
100
AcDbArc
 50
0.0
 51
90.0
  0
LINE
  5
77
330
6F
100
AcDbEntity
  8
30878__AUSSENPROF
  6
Continuous
 62
     7
100
AcDbLine
 10
76.3802273743
 20
172.4510102574
 30
0.0
 11
76.3802273743
 21
172.6510102574
 31
0.0
  0
ARC
  5
78
330
6F
100
AcDbEntity
  8
30878__AUSSENPROF
  6
Continuous
 62
     7
100
AcDbCircle
 10
75.9802273743
 20
172.4510102574
 30
0.0
 40
0.3999999999999993
100
AcDbArc
 50
270.0
 51
0.0
  0
LINE
  5
79
330
6F
100
AcDbEntity
  8
30878__AUSSENPROF
  6
Continuous
 62
     7
100
AcDbLine
 10
68.2802273743
 20
172.0510102574
 30
0.0
 11
75.9802273743
 21
172.0510102574
 31
0.0
  0
ARC
  5
7A
330
6F
100
AcDbEntity
  8
30878__AUSSENPROF
  6
Continuous
 62
     7
100
AcDbCircle
 10
68.2802273743
 20
172.4510102574
 30
0.0
 40
0.4000000000000002
100
AcDbArc
 50
180.0
 51
270.0
  0
LINE
  5
7B
330
6F
100
AcDbEntity
  8
30878__AUSSENPROF
  6
Continuous
 62
     7
100
AcDbLine
 10
67.8802273743
 20
188.1510102574
 30
0.0
 11
67.8802273743
 21
172.4510102574
 31
0.0
  0
ARC
  5
7C
330
6F
100
AcDbEntity
  8
30878__AUSSENPROF
  6
Continuous
 62
     7
100
AcDbCircle
 10
67.6802273743
 20
188.1510102574
 30
0.0
 40
0.1999999999999988
100
AcDbArc
 50
0.0
 51
90.0
  0
LINE
  5
7D
330
6F
100
AcDbEntity
  8
30878__AUSSENPROF
  6
Continuous
 62
     7
100
AcDbLine
 10
67.0802273743
 20
188.3510102574
 30
0.0
 11
67.6802273743
 21
188.3510102574
 31
0.0
  0
ARC
  5
7E
330
6F
100
AcDbEntity
  8
30878__AUSSENPROF
  6
Continuous
 62
     7
100
AcDbCircle
 10
66.8802273743
 20
188.3510102574
 30
0.0
 40
0.2000000000000005
100
AcDbArc
 50
0.0
 51
180.0
  0
LINE
  5
7F
330
6F
100
AcDbEntity
  8
30878__AUSSENPROF
  6
Continuous
 62
     7
100
AcDbLine
 10
66.0802273743
 20
188.3510102574
 30
0.0
 11
66.6802273743
 21
188.3510102574
 31
0.0
  0
ARC
  5
80
330
6F
100
AcDbEntity
  8
30878__AUSSENPROF
  6
Continuous
 62
     7
100
AcDbCircle
 10
66.0802273743
 20
188.5510102574
 30
0.0
 40
0.2000000000000001
100
AcDbArc
 50
180.0
 51
270.0
  0
LINE
  5
81
330
6F
100
AcDbEntity
  8
30878__AUSSENPROF
  6
Continuous
 62
     7
100
AcDbLine
 10
65.8802273743
 20
189.1510102574
 30
0.0
 11
65.8802273743
 21
188.5510102574
 31
0.0
  0
ARC
  5
82
330
6F
100
AcDbEntity
  8
30878__AUSSENPROF
  6
Continuous
 62
     7
100
AcDbCircle
 10
66.0802273743
 20
189.1510102574
 30
0.0
 40
0.1999999999999988
100
AcDbArc
 50
90.0
 51
180.0
  0
LINE
  5
83
330
6F
100
AcDbEntity
  8
30878__AUSSENPROF
  6
Continuous
 62
     7
100
AcDbLine
 10
67.6802273743
 20
189.3510102574
 30
0.0
 11
66.0802273743
 21
189.3510102574
 31
0.0
  0
ARC
  5
84
330
6F
100
AcDbEntity
  8
30878__AUSSENPROF
  6
Continuous
 62
     7
100
AcDbCircle
 10
67.6802273743
 20
189.5510102574
 30
0.0
 40
0.1999999999999997
100
AcDbArc
 50
270.0
 51
0.0
  0
LINE
  5
85
330
6F
100
AcDbEntity
  8
30878__AUSSENPROF
  6
Continuous
 62
     7
100
AcDbLine
 10
67.8802273743
 20
198.8510102574
 30
0.0
 11
67.8802273743
 21
189.5510102574
 31
0.0
  0
ARC
  5
86
330
6F
100
AcDbEntity
  8
30878__AUSSENPROF
  6
Continuous
 62
     7
100
AcDbCircle
 10
67.6802273743
 20
198.8510102574
 30
0.0
 40
0.1999999999999988
100
AcDbArc
 50
0.0
 51
90.0
  0
LINE
  5
87
330
6F
100
AcDbEntity
  8
30878__AUSSENPROF
  6
Continuous
 62
     7
100
AcDbLine
 10
58.0802273743
 20
199.0510102574
 30
0.0
 11
67.6802273743
 21
199.0510102574
 31
0.0
  0
ARC
  5
88
330
6F
100
AcDbEntity
  8
30878__AUSSENPROF
  6
Continuous
 62
     7
100
AcDbCircle
 10
58.0802273743
 20
198.8510102574
 30
0.0
 40
0.1999999999999997
100
AcDbArc
 50
90.0
 51
180.0
  0
LINE
  5
89
330
6F
100
AcDbEntity
  8
30878__AUSSENPROF
  6
Continuous
 62
     7
100
AcDbLine
 10
57.8802273743
 20
189.5510102574
 30
0.0
 11
57.8802273743
 21
198.8510102574
 31
0.0
  0
ARC
  5
8A
330
6F
100
AcDbEntity
  8
30878__AUSSENPROF
  6
Continuous
 62
     7
100
AcDbCircle
 10
58.0802273743
 20
189.5510102574
 30
0.0
 40
0.2000000000000023
100
AcDbArc
 50
180.0
 51
270.0
  0
LINE
  5
8B
330
6F
100
AcDbEntity
  8
30878__AUSSENPROF
  6
Continuous
 62
     7
100
AcDbLine
 10
59.6802273743
 20
189.3510102574
 30
0.0
 11
58.0802273743
 21
189.3510102574
 31
0.0
  0
ARC
  5
8C
330
6F
100
AcDbEntity
  8
30878__AUSSENPROF
  6
Continuous
 62
     7
100
AcDbCircle
 10
59.6802273743
 20
189.1510102574
 30
0.0
 40
0.2000000000000001
100
AcDbArc
 50
0.0
 51
90.0
  0
LINE
  5
8D
330
6F
100
AcDbEntity
  8
30878__AUSSENPROF
  6
Continuous
 62
     7
100
AcDbLine
 10
59.8802273743
 20
188.5510102574
 30
0.0
 11
59.8802273743
 21
189.1510102574
 31
0.0
  0
ARC
  5
8E
330
6F
100
AcDbEntity
  8
30878__AUSSENPROF
  6
Continuous
 62
     7
100
AcDbCircle
 10
59.6802273743
 20
188.5510102574
 30
0.0
 40
0.1999999999999988
100
AcDbArc
 50
270.0
 51
0.0
  0
LINE
  5
8F
330
6F
100
AcDbEntity
  8
30878__AUSSENPROF
  6
Continuous
 62
     7
100
AcDbLine
 10
59.0802273743
 20
188.3510102574
 30
0.0
 11
59.6802273743
 21
188.3510102574
 31
0.0
  0
ARC
  5
90
330
6F
100
AcDbEntity
  8
30878__AUSSENPROF
  6
Continuous
 62
     7
100
AcDbCircle
 10
58.8802273743
 20
188.3510102574
 30
0.0
 40
0.2000000000000005
100
AcDbArc
 50
0.0
 51
180.0
  0
LINE
  5
91
330
6F
100
AcDbEntity
  8
30878__AUSSENPROF
  6
Continuous
 62
     7
100
AcDbLine
 10
58.0802273743
 20
188.3510102574
 30
0.0
 11
58.6802273743
 21
188.3510102574
 31
0.0
  0
ARC
  5
92
330
6F
100
AcDbEntity
  8
30878__AUSSENPROF
  6
Continuous
 62
     7
100
AcDbCircle
 10
58.0802273743
 20
188.1510102574
 30
0.0
 40
0.1999999999999997
100
AcDbArc
 50
90.0
 51
180.0
  0
LINE
  5
93
330
6F
100
AcDbEntity
  8
30878__AUSSENPROF
  6
Continuous
 62
     7
100
AcDbLine
 10
57.8802273743
 20
172.4510102574
 30
0.0
 11
57.8802273743
 21
188.1510102574
 31
0.0
  0
ARC
  5
94
330
6F
100
AcDbEntity
  8
30878__AUSSENPROF
  6
Continuous
 62
     7
100
AcDbCircle
 10
57.4802273743
 20
172.4510102574
 30
0.0
 40
0.400000000000001
100
AcDbArc
 50
270.0
 51
0.0
  0
LINE
  5
95
330
6F
100
AcDbEntity
  8
30878__AUSSENPROF
  6
Continuous
 62
     7
100
AcDbLine
 10
49.7802273743
 20
172.0510102574
 30
0.0
 11
57.4802273743
 21
172.0510102574
 31
0.0
  0
ARC
  5
96
330
6F
100
AcDbEntity
  8
30878__AUSSENPROF
  6
Continuous
 62
     7
100
AcDbCircle
 10
49.7802273743
 20
172.4510102574
 30
0.0
 40
0.400000000000001
100
AcDbArc
 50
180.0
 51
270.0
  0
LINE
  5
97
330
6F
100
AcDbEntity
  8
30878__AUSSENPROF
  6
Continuous
 62
     7
100
AcDbLine
 10
49.3802273743
 20
172.6510102574
 30
0.0
 11
49.3802273743
 21
172.4510102574
 31
0.0
  0
ARC
  5
98
330
6F
100
AcDbEntity
  8
30878__AUSSENPROF
  6
Continuous
 62
     7
100
AcDbCircle
 10
49.7802273743
 20
172.6510102574
 30
0.0
 40
0.3999999999999993
100
AcDbArc
 50
90.0
 51
180.0
  0
LINE
  5
99
330
6F
100
AcDbEntity
  8
30878__AUSSENPROF
  6
Continuous
 62
     7
100
AcDbLine
 10
56.6802273743
 20
173.0510102574
 30
0.0
 11
49.7802273743
 21
173.0510102574
 31
0.0
  0
ARC
  5
9A
330
6F
100
AcDbEntity
  8
30878__AUSSENPROF
  6
Continuous
 62
     7
100
AcDbCircle
 10
56.6802273743
 20
173.2510102574
 30
0.0
 40
0.1999999999999997
100
AcDbArc
 50
270.0
 51
0.0
  0
LINE
  5
9B
330
6F
100
AcDbEntity
  8
30878__AUSSENPROF
  6
Continuous
 62
     7
100
AcDbLine
 10
56.8802273743
 20
199.8510102574
 30
0.0
 11
56.8802273743
 21
173.2510102574
 31
0.0
  0
ARC
  5
9C
330
6F
100
AcDbEntity
  8
30878__AUSSENPROF
  6
Continuous
 62
     7
100
AcDbCircle
 10
57.0802273743
 20
199.8510102574
 30
0.0
 40
0.1999999999999988
100
AcDbArc
 50
90.0
 51
180.0
  0
LINE
  5
9E
330
6F
100
AcDbEntity
  8
30882__INNENPROFI
  6
Continuous
 62
     7
100
AcDbLine
 10
66.8802273743
 20
188.2510102574
 30
0.0
 11
67.3802273743
 21
187.7510102574
 31
0.0
  0
LINE
  5
9F
330
6F
100
AcDbEntity
  8
30882__INNENPROFI
  6
Continuous
 62
     7
100
AcDbLine
 10
65.2802273743
 20
188.2510102574
 30
0.0
 11
66.8802273743
 21
188.2510102574
 31
0.0
  0
LINE
  5
A0
330
6F
100
AcDbEntity
  8
30882__INNENPROFI
  6
Continuous
 62
     7
100
AcDbLine
 10
65.2802273743
 20
187.2510102574
 30
0.0
 11
65.2802273743
 21
188.2510102574
 31
0.0
  0
LINE
  5
A1
330
6F
100
AcDbEntity
  8
30882__INNENPROFI
  6
Continuous
 62
     7
100
AcDbLine
 10
66.2802673743
 20
187.2510102574
 30
0.0
 11
65.2802273743
 21
187.2510102574
 31
0.0
  0
LINE
  5
A2
330
6F
100
AcDbEntity
  8
30882__INNENPROFI
  6
Continuous
 62
     7
100
AcDbLine
 10
66.2802673743
 20
185.7510102574
 30
0.0
 11
66.2802673743
 21
187.2510102574
 31
0.0
  0
LINE
  5
A3
330
6F
100
AcDbEntity
  8
30882__INNENPROFI
  6
Continuous
 62
     7
100
AcDbLine
 10
59.4801873743
 20
185.7510102574
 30
0.0
 11
66.2802673743
 21
185.7510102574
 31
0.0
  0
LINE
  5
A4
330
6F
100
AcDbEntity
  8
30882__INNENPROFI
  6
Continuous
 62
     7
100
AcDbLine
 10
59.4801873743
 20
187.2510102574
 30
0.0
 11
59.4801873743
 21
185.7510102574
 31
0.0
  0
LINE
  5
A5
330
6F
100
AcDbEntity
  8
30882__INNENPROFI
  6
Continuous
 62
     7
100
AcDbLine
 10
60.4802273743
 20
187.2510102574
 30
0.0
 11
59.4801873743
 21
187.2510102574
 31
0.0
  0
LINE
  5
A6
330
6F
100
AcDbEntity
  8
30882__INNENPROFI
  6
Continuous
 62
     7
100
AcDbLine
 10
60.4802273743
 20
188.2510102574
 30
0.0
 11
60.4802273743
 21
187.2510102574
 31
0.0
  0
LINE
  5
A7
330
6F
100
AcDbEntity
  8
30882__INNENPROFI
  6
Continuous
 62
     7
100
AcDbLine
 10
58.8802273743
 20
188.2510102574
 30
0.0
 11
60.4802273743
 21
188.2510102574
 31
0.0
  0
LINE
  5
A8
330
6F
100
AcDbEntity
  8
30882__INNENPROFI
  6
Continuous
 62
     7
100
AcDbLine
 10
58.3802273743
 20
187.7510102574
 30
0.0
 11
58.8802273743
 21
188.2510102574
 31
0.0
  0
LINE
  5
A9
330
6F
100
AcDbEntity
  8
30882__INNENPROFI
  6
Continuous
 62
     7
100
AcDbLine
 10
58.3802273743
 20
184.5010502574
 30
0.0
 11
58.3802273743
 21
187.7510102574
 31
0.0
  0
LINE
  5
AA
330
6F
100
AcDbEntity
  8
30882__INNENPROFI
  6
Continuous
 62
     7
100
AcDbLine
 10
58.5216487829
 20
184.3596288487
 30
0.0
 11
58.3802273743
 21
184.5010502574
 31
0.0
  0
LINE
  5
AB
330
6F
100
AcDbEntity
  8
30882__INNENPROFI
  6
Continuous
 62
     7
100
AcDbLine
 10
60.5302273743
 20
184.0010502574
 30
0.0
 11
60.0802273542
 21
184.0010502574
 31
0.0
  0
LINE
  5
AC
330
6F
100
AcDbEntity
  8
30882__INNENPROFI
  6
Continuous
 62
     7
100
AcDbLine
 10
59.9802273793
 20
184.0010502574
 30
0.0
 11
58.8802273743
 21
184.0010502574
 31
0.0
  0
LINE
  5
AD
330
6F
100
AcDbEntity
  8
30882__INNENPROFI
  6
Continuous
 62
     7
100
AcDbLine
 10
60.5302273743
 20
184.7510502574
 30
0.0
 11
60.5302273743
 21
184.0010502574
 31
0.0
  0
LINE
  5
AE
330
6F
100
AcDbEntity
  8
30882__INNENPROFI
  6
Continuous
 62
     7
100
AcDbLine
 10
62.0302273743
 20
184.7510502574
 30
0.0
 11
60.5302273743
 21
184.7510502574
 31
0.0
  0
LINE
  5
AF
330
6F
100
AcDbEntity
  8
30882__INNENPROFI
  6
Continuous
 62
     7
100
AcDbLine
 10
62.0302273743
 20
181.7510502574
 30
0.0
 11
62.0302273743
 21
184.7510502574
 31
0.0
  0
LINE
  5
B0
330
6F
100
AcDbEntity
  8
30882__INNENPROFI
  6
Continuous
 62
     7
100
AcDbLine
 10
60.5302273743
 20
181.7510502574
 30
0.0
 11
62.0302273743
 21
181.7510502574
 31
0.0
  0
LINE
  5
B1
330
6F
100
AcDbEntity
  8
30882__INNENPROFI
  6
Continuous
 62
     7
100
AcDbLine
 10
60.5302273743
 20
182.5010502574
 30
0.0
 11
60.5302273743
 21
181.7510502574
 31
0.0
  0
LINE
  5
B2
330
6F
100
AcDbEntity
  8
30882__INNENPROFI
  6
Continuous
 62
     7
100
AcDbLine
 10
59.5302273743
 20
182.5010502574
 30
0.0
 11
59.9802273793
 21
182.5010502574
 31
0.0
  0
LINE
  5
B3
330
6F
100
AcDbEntity
  8
30882__INNENPROFI
  6
Continuous
 62
     7
100
AcDbLine
 10
60.0802273542
 20
182.5010502574
 30
0.0
 11
60.5302273743
 21
182.5010502574
 31
0.0
  0
LINE
  5
B4
330
6F
100
AcDbEntity
  8
30882__INNENPROFI
  6
Continuous
 62
     7
100
AcDbLine
 10
60.0302273743
 20
180.7510502574
 30
0.0
 11
59.5302273743
 21
181.2510502574
 31
0.0
  0
LINE
  5
B5
330
6F
100
AcDbEntity
  8
30882__INNENPROFI
  6
Continuous
 62
     7
100
AcDbLine
 10
65.7302273743
 20
180.7510502574
 30
0.0
 11
64.6802273743
 21
180.7510502574
 31
0.0
  0
LINE
  5
B6
330
6F
100
AcDbEntity
  8
30882__INNENPROFI
  6
Continuous
 62
     7
100
AcDbLine
 10
66.2302273743
 20
181.2510502574
 30
0.0
 11
65.7302273743
 21
180.7510502574
 31
0.0
  0
LINE
  5
B7
330
6F
100
AcDbEntity
  8
30882__INNENPROFI
  6
Continuous
 62
     7
100
AcDbLine
 10
65.2302273743
 20
182.5010502574
 30
0.0
 11
65.6802273792
 21
182.5010502574
 31
0.0
  0
LINE
  5
B8
330
6F
100
AcDbEntity
  8
30882__INNENPROFI
  6
Continuous
 62
     7
100
AcDbLine
 10
65.7802273542
 20
182.5010502574
 30
0.0
 11
66.2302273743
 21
182.5010502574
 31
0.0
  0
LINE
  5
B9
330
6F
100
AcDbEntity
  8
30882__INNENPROFI
  6
Continuous
 62
     7
100
AcDbLine
 10
65.2302273743
 20
181.7510502574
 30
0.0
 11
65.2302273743
 21
182.5010502574
 31
0.0
  0
LINE
  5
BA
330
6F
100
AcDbEntity
  8
30882__INNENPROFI
  6
Continuous
 62
     7
100
AcDbLine
 10
63.7302273743
 20
181.7510502574
 30
0.0
 11
65.2302273743
 21
181.7510502574
 31
0.0
  0
LINE
  5
BB
330
6F
100
AcDbEntity
  8
30882__INNENPROFI
  6
Continuous
 62
     7
100
AcDbLine
 10
63.7302273743
 20
184.7510502574
 30
0.0
 11
63.7302273743
 21
181.7510502574
 31
0.0
  0
LINE
  5
BC
330
6F
100
AcDbEntity
  8
30882__INNENPROFI
  6
Continuous
 62
     7
100
AcDbLine
 10
65.2302273743
 20
184.7510502574
 30
0.0
 11
63.7302273743
 21
184.7510502574
 31
0.0
  0
LINE
  5
BD
330
6F
100
AcDbEntity
  8
30882__INNENPROFI
  6
Continuous
 62
     7
100
AcDbLine
 10
65.2302273743
 20
184.0010502574
 30
0.0
 11
65.2302273743
 21
184.7510502574
 31
0.0
  0
LINE
  5
BE
330
6F
100
AcDbEntity
  8
30882__INNENPROFI
  6
Continuous
 62
     7
100
AcDbLine
 10
67.3802273743
 20
187.7510102574
 30
0.0
 11
67.3802273743
 21
184.5010502574
 31
0.0
  0
LINE
  5
BF
330
6F
100
AcDbEntity
  8
30882__INNENPROFI
  6
Continuous
 62
     7
100
AcDbLine
 10
61.0802273743
 20
180.7510502574
 30
0.0
 11
60.0302273743
 21
180.7510502574
 31
0.0
  0
ARC
  5
C0
330
6F
100
AcDbEntity
  8
30882__INNENPROFI
  6
Continuous
 62
     7
100
AcDbCircle
 10
61.2802273743
 20
180.7510502574
 30
0.0
 40
0.2000000000000001
100
AcDbArc
 50
0.0
 51
180.0
  0
LINE
  5
C1
330
6F
100
AcDbEntity
  8
30882__INNENPROFI
  6
Continuous
 62
     7
100
AcDbLine
 10
64.2802273743
 20
180.7510502574
 30
0.0
 11
61.4802273743
 21
180.7510502574
 31
0.0
  0
ARC
  5
C2
330
6F
100
AcDbEntity
  8
30882__INNENPROFI
  6
Continuous
 62
     7
100
AcDbCircle
 10
64.4802273743
 20
180.7510502574
 30
0.0
 40
0.2000000000000001
100
AcDbArc
 50
0.0
 51
180.0
  0
LINE
  5
C3
330
6F
100
AcDbEntity
  8
30882__INNENPROFI
  6
Continuous
 62
     7
100
AcDbLine
 10
66.8802273743
 20
184.0010502574
 30
0.0
 11
65.7802273113
 21
184.0010502574
 31
0.0
  0
LINE
  5
C4
330
6F
100
AcDbEntity
  8
30882__INNENPROFI
  6
Continuous
 62
     7
100
AcDbLine
 10
65.6802274221
 20
184.0010502574
 30
0.0
 11
65.2302273743
 21
184.0010502574
 31
0.0
  0
LINE
  5
C5
330
6F
100
AcDbEntity
  8
30882__INNENPROFI
  6
Continuous
 62
     7
100
AcDbLine
 10
66.8802273743
 20
184.0010502574
 30
0.0
 11
67.3802273743
 21
184.5010502574
 31
0.0
  0
LINE
  5
C7
330
6F
100
AcDbEntity
  8
27576__DICHTPROFI
  6
Continuous
 62
     7
100
AcDbLine
 10
60.5302273667
 20
182.6510502699
 30
0.0
 11
60.2302273668
 21
182.6510502699
 31
0.0
  0
LINE
  5
C8
330
6F
100
AcDbEntity
  8
27576__DICHTPROFI
  6
Continuous
 62
     7
100
AcDbLine
 10
60.6536563666
 20
181.9510502708
 30
0.0
 11
60.5302273667
 21
182.6510502699
 31
0.0
  0
LINE
  5
C9
330
6F
100
AcDbEntity
  8
27576__DICHTPROFI
  6
Continuous
 62
     7
100
AcDbLine
 10
60.8336563656
 20
181.9510502708
 30
0.0
 11
60.6536563666
 21
181.9510502708
 31
0.0
  0
LINE
  5
CA
330
6F
100
AcDbEntity
  8
27576__DICHTPROFI
  6
Continuous
 62
     7
100
AcDbLine
 10
61.5925801656
 20
182.8686498708
 30
0.0
 11
60.8336563656
 21
181.9510502708
 31
0.0
  0
ARC
  5
CB
330
6F
100
AcDbEntity
  8
27576__DICHTPROFI
  6
Continuous
 62
     7
100
AcDbCircle
 10
61.1302275277
 20
183.2510502346
 30
0.0
 40
0.6000000000000012
100
AcDbArc
 50
320.4066958468
 51
39.5933019441
  0
LINE
  5
CC
330
6F
100
AcDbEntity
  8
27576__DICHTPROFI
  6
Continuous
 62
     7
100
AcDbLine
 10
60.8336563667
 20
184.5510502691
 30
0.0
 11
61.5925801803
 21
183.6334505806
 31
0.0
  0
LINE
  5
CD
330
6F
100
AcDbEntity
  8
27576__DICHTPROFI
  6
Continuous
 62
     7
100
AcDbLine
 10
60.653656371
 20
184.5510502691
 30
0.0
 11
60.8336563667
 21
184.5510502691
 31
0.0
  0
LINE
  5
CE
330
6F
100
AcDbEntity
  8
27576__DICHTPROFI
  6
Continuous
 62
     7
100
AcDbLine
 10
60.5302273667
 20
183.8510502448
 30
0.0
 11
60.653656371
 21
184.5510502691
 31
0.0
  0
LINE
  5
CF
330
6F
100
AcDbEntity
  8
27576__DICHTPROFI
  6
Continuous
 62
     7
100
AcDbLine
 10
60.2302273668
 20
183.8510502448
 30
0.0
 11
60.5302273667
 21
183.8510502448
 31
0.0
  0
LINE
  5
D0
330
6F
100
AcDbEntity
  8
27576__DICHTPROFI
  6
Continuous
 62
     7
100
AcDbLine
 10
60.0302273668
 20
184.0510502448
 30
0.0
 11
60.2302273668
 21
183.8510502448
 31
0.0
  0
LINE
  5
D1
330
6F
100
AcDbEntity
  8
27576__DICHTPROFI
  6
Continuous
 62
     7
100
AcDbLine
 10
59.8302273668
 20
183.8510502448
 30
0.0
 11
60.0302273668
 21
184.0510502448
 31
0.0
  0
LINE
  5
D2
330
6F
100
AcDbEntity
  8
27576__DICHTPROFI
  6
Continuous
 62
     7
100
AcDbLine
 10
59.0302273416
 20
183.8510502448
 30
0.0
 11
59.8302273668
 21
183.8510502448
 31
0.0
  0
LINE
  5
D3
330
6F
100
AcDbEntity
  8
27576__DICHTPROFI
  6
Continuous
 62
     7
100
AcDbLine
 10
58.5216487603
 20
184.3596288261
 30
0.0
 11
59.0302273416
 21
183.8510502448
 31
0.0
  0
ARC
  5
D4
330
6F
100
AcDbEntity
  8
27576__DICHTPROFI
  6
Continuous
 62
     7
100
AcDbCircle
 10
58.3802274041
 20
184.2182074699
 30
0.0
 40
0.1999999999999997
100
AcDbArc
 50
45.0
 51
180.0
  0
LINE
  5
D5
330
6F
100
AcDbEntity
  8
27576__DICHTPROFI
  6
Continuous
 62
     7
100
AcDbLine
 10
58.1802274041
 20
183.8510502719
 30
0.0
 11
58.1802274041
 21
184.2182074699
 31
0.0
  0
LINE
  5
D6
330
6F
100
AcDbEntity
  8
27576__DICHTPROFI
  6
Continuous
 62
     7
100
AcDbLine
 10
58.611372403
 20
175.7183678922
 30
0.0
 11
58.1802274041
 21
183.8510502719
 31
0.0
  0
ARC
  5
D7
330
6F
100
AcDbEntity
  8
27576__DICHTPROFI
  6
Continuous
 62
     7
100
AcDbCircle
 10
59.6099701227
 20
175.7713074259
 30
0.0
 40
0.9999999999999996
100
AcDbArc
 50
183.0346304496
 51
225.0
  0
LINE
  5
D8
330
6F
100
AcDbEntity
  8
27576__DICHTPROFI
  6
Continuous
 62
     7
100
AcDbLine
 10
60.1043129415
 20
173.8627510447
 30
0.0
 11
58.9028633415
 21
175.0642006447
 31
0.0
  0
LINE
  5
D9
330
6F
100
AcDbEntity
  8
27576__DICHTPROFI
  6
Continuous
 62
     7
100
AcDbLine
 10
58.7254547667
 20
172.4838928699
 30
0.0
 11
60.1043129415
 21
173.8627510447
 31
0.0
  0
ARC
  5
DA
330
6F
100
AcDbEntity
  8
27576__DICHTPROFI
  6
Continuous
 62
     7
100
AcDbCircle
 10
59.0082974792
 20
172.2010501574
 30
0.0
 40
0.4000000000000002
100
AcDbArc
 50
135.0
 51
315.0
  0
LINE
  5
DB
330
6F
100
AcDbEntity
  8
27576__DICHTPROFI
  6
Continuous
 62
     7
100
AcDbLine
 10
60.6699984575
 20
173.2970657108
 30
0.0
 11
59.2911401917
 21
171.9182074449
 31
0.0
  0
LINE
  5
DC
330
6F
100
AcDbEntity
  8
27576__DICHTPROFI
  6
Continuous
 62
     7
100
AcDbLine
 10
62.1731206514
 20
171.7939435169
 30
0.0
 11
60.6699984575
 21
173.2970657108
 31
0.0
  0
ARC
  5
DD
330
6F
100
AcDbEntity
  8
27576__DICHTPROFI
  6
Continuous
 62
     7
100
AcDbCircle
 10
62.8802274326
 20
172.5010502981
 30
0.0
 40
0.9999999999999998
100
AcDbArc
 50
225.0
 51
314.9999961882
  0
LINE
  5
DE
330
6F
100
AcDbEntity
  8
27576__DICHTPROFI
  6
Continuous
 62
     7
100
AcDbLine
 10
65.0904565667
 20
173.2970656699
 30
0.0
 11
63.5873341667
 21
171.7939434699
 31
0.0
  0
LINE
  5
DF
330
6F
100
AcDbEntity
  8
27576__DICHTPROFI
  6
Continuous
 62
     7
100
AcDbLine
 10
66.4693147667
 20
171.9182074699
 30
0.0
 11
65.0904565667
 21
173.2970656699
 31
0.0
  0
ARC
  5
E0
330
6F
100
AcDbEntity
  8
27576__DICHTPROFI
  6
Continuous
 62
     7
100
AcDbCircle
 10
66.7521574792
 20
172.2010501824
 30
0.0
 40
0.4
100
AcDbArc
 50
225.0
 51
45.0
  0
LINE
  5
E1
330
6F
100
AcDbEntity
  8
27576__DICHTPROFI
  6
Continuous
 62
     7
100
AcDbLine
 10
65.656141991
 20
173.8627510955
 30
0.0
 11
67.0350001917
 21
172.4838928948
 31
0.0
  0
LINE
  5
E2
330
6F
100
AcDbEntity
  8
27576__DICHTPROFI
  6
Continuous
 62
     7
100
AcDbLine
 10
66.857591566
 20
175.0642006706
 30
0.0
 11
65.656141991
 21
173.8627510955
 31
0.0
  0
ARC
  5
E3
330
6F
100
AcDbEntity
  8
27576__DICHTPROFI
  6
Continuous
 62
     7
100
AcDbCircle
 10
66.1504847848
 20
175.7713074518
 30
0.0
 40
1.000000000000002
100
AcDbArc
 50
315.0
 51
356.9653695504
  0
LINE
  5
E4
330
6F
100
AcDbEntity
  8
27576__DICHTPROFI
  6
Continuous
 62
     7
100
AcDbLine
 10
67.6334430411
 20
184.2182074699
 30
0.0
 11
67.1490825045
 21
175.7183679181
 31
0.0
  0
ARC
  5
E5
330
6F
100
AcDbEntity
  8
27576__DICHTPROFI
  6
Continuous
 62
     7
100
AcDbCircle
 10
67.4334430411
 20
184.2182074699
 30
0.0
 40
0.2000000000000017
100
AcDbArc
 50
0.0
 51
132.1721927378
  0
LINE
  5
E6
330
6F
100
AcDbEntity
  8
27576__DICHTPROFI
  6
Continuous
 62
     7
100
AcDbLine
 10
66.7302274792
 20
183.851050159
 30
0.0
 11
67.2991708458
 21
184.3664335727
 31
0.0
  0
LINE
  5
E7
330
6F
100
AcDbEntity
  8
27576__DICHTPROFI
  6
Continuous
 62
     7
100
AcDbLine
 10
65.9302274096
 20
183.851050159
 30
0.0
 11
66.7302274792
 21
183.851050159
 31
0.0
  0
LINE
  5
E8
330
6F
100
AcDbEntity
  8
27576__DICHTPROFI
  6
Continuous
 62
     7
100
AcDbLine
 10
65.7302273667
 20
184.0510502019
 30
0.0
 11
65.9302274096
 21
183.851050159
 31
0.0
  0
LINE
  5
E9
330
6F
100
AcDbEntity
  8
27576__DICHTPROFI
  6
Continuous
 62
     7
100
AcDbLine
 10
65.5302273238
 20
183.851050159
 30
0.0
 11
65.7302273667
 21
184.0510502019
 31
0.0
  0
LINE
  5
EA
330
6F
100
AcDbEntity
  8
27576__DICHTPROFI
  6
Continuous
 62
     7
100
AcDbLine
 10
65.2302273762
 20
183.851050159
 30
0.0
 11
65.5302273238
 21
183.851050159
 31
0.0
  0
LINE
  5
EB
330
6F
100
AcDbEntity
  8
27576__DICHTPROFI
  6
Continuous
 62
     7
100
AcDbLine
 10
65.1067985475
 20
184.5510503217
 30
0.0
 11
65.2302273762
 21
183.851050159
 31
0.0
  0
LINE
  5
EC
330
6F
100
AcDbEntity
  8
27576__DICHTPROFI
  6
Continuous
 62
     7
100
AcDbLine
 10
64.926798504
 20
184.5510503217
 30
0.0
 11
65.1067985475
 21
184.5510503217
 31
0.0
  0
LINE
  5
ED
330
6F
100
AcDbEntity
  8
27576__DICHTPROFI
  6
Continuous
 62
     7
100
AcDbLine
 10
64.1678747258
 20
183.633450548
 30
0.0
 11
64.926798504
 21
184.5510503217
 31
0.0
  0
ARC
  5
EE
330
6F
100
AcDbEntity
  8
27576__DICHTPROFI
  6
Continuous
 62
     7
100
AcDbCircle
 10
64.6302274046
 20
183.2510502337
 30
0.0
 40
0.5999999999999998
100
AcDbArc
 50
140.40670198
 51
219.5933041532
  0
LINE
  5
EF
330
6F
100
AcDbEntity
  8
27576__DICHTPROFI
  6
Continuous
 62
     7
100
AcDbLine
 10
64.9267985667
 20
181.9510502699
 30
0.0
 11
64.1678747667
 21
182.8686498699
 31
0.0
  0
LINE
  5
F0
330
6F
100
AcDbEntity
  8
27576__DICHTPROFI
  6
Continuous
 62
     7
100
AcDbLine
 10
65.1067985667
 20
181.9510502699
 30
0.0
 11
64.9267985667
 21
181.9510502699
 31
0.0
  0
LINE
  5
F1
330
6F
100
AcDbEntity
  8
27576__DICHTPROFI
  6
Continuous
 62
     7
100
AcDbLine
 10
65.2302273667
 20
182.6510502699
 30
0.0
 11
65.1067985667
 21
181.9510502699
 31
0.0
  0
LINE
  5
F2
330
6F
100
AcDbEntity
  8
27576__DICHTPROFI
  6
Continuous
 62
     7
100
AcDbLine
 10
65.5302273667
 20
182.6510502699
 30
0.0
 11
65.2302273667
 21
182.6510502699
 31
0.0
  0
LINE
  5
F3
330
6F
100
AcDbEntity
  8
27576__DICHTPROFI
  6
Continuous
 62
     7
100
AcDbLine
 10
65.7302273667
 20
182.4510502699
 30
0.0
 11
65.5302273667
 21
182.6510502699
 31
0.0
  0
LINE
  5
F4
330
6F
100
AcDbEntity
  8
27576__DICHTPROFI
  6
Continuous
 62
     7
100
AcDbLine
 10
65.9302273667
 20
182.6510502699
 30
0.0
 11
65.7302273667
 21
182.4510502699
 31
0.0
  0
LINE
  5
F5
330
6F
100
AcDbEntity
  8
27576__DICHTPROFI
  6
Continuous
 62
     7
100
AcDbLine
 10
66.2302273667
 20
182.6510502699
 30
0.0
 11
65.9302273667
 21
182.6510502699
 31
0.0
  0
LINE
  5
F6
330
6F
100
AcDbEntity
  8
27576__DICHTPROFI
  6
Continuous
 62
     7
100
AcDbLine
 10
66.2302273667
 20
181.1510502699
 30
0.0
 11
66.2302273667
 21
182.6510502699
 31
0.0
  0
LINE
  5
F7
330
6F
100
AcDbEntity
  8
27576__DICHTPROFI
  6
Continuous
 62
     7
100
AcDbLine
 10
65.7302273667
 20
180.6510502699
 30
0.0
 11
66.2302273667
 21
181.1510502699
 31
0.0
  0
LINE
  5
F8
330
6F
100
AcDbEntity
  8
27576__DICHTPROFI
  6
Continuous
 62
     7
100
AcDbLine
 10
64.3802273667
 20
180.6510502699
 30
0.0
 11
65.7302273667
 21
180.6510502699
 31
0.0
  0
ARC
  5
F9
330
6F
100
AcDbEntity
  8
27576__DICHTPROFI
  6
Continuous
 62
     7
100
AcDbCircle
 10
64.3802273667
 20
179.9010502699
 30
0.0
 40
0.7500000000000007
100
AcDbArc
 50
90.0
 51
270.0
  0
LINE
  5
FA
330
6F
100
AcDbEntity
  8
27576__DICHTPROFI
  6
Continuous
 62
     7
100
AcDbLine
 10
66.1302273819
 20
179.1510502699
 30
0.0
 11
64.3802273667
 21
179.1510502699
 31
0.0
  0
LINE
  5
FB
330
6F
100
AcDbEntity
  8
27576__DICHTPROFI
  6
Continuous
 62
     7
100
AcDbLine
 10
66.1302273819
 20
175.6800108514
 30
0.0
 11
66.1302273819
 21
179.1510502699
 31
0.0
  0
ARC
  5
FC
330
6F
100
AcDbEntity
  8
27576__DICHTPROFI
  6
Continuous
 62
     7
100
AcDbCircle
 10
66.2302274037
 20
175.568207472
 30
0.0
 40
0.1499999999999997
100
AcDbArc
 50
183.1896672823
 51
131.8103260471
  0
LINE
  5
FD
330
6F
100
AcDbEntity
  8
27576__DICHTPROFI
  6
Continuous
 62
     7
100
AcDbLine
 10
62.888573765
 20
172.3679750387
 30
0.0
 11
66.0804597815
 21
175.5598612552
 31
0.0
  0
ARC
  5
FE
330
6F
100
AcDbEntity
  8
27576__DICHTPROFI
  6
Continuous
 62
     7
100
AcDbCircle
 10
62.8802273678
 20
172.2182074265
 30
0.0
 40
0.1500000000000001
100
AcDbArc
 50
93.1896694913
 51
86.8102637121
  0
LINE
  5
FF
330
6F
100
AcDbEntity
  8
27576__DICHTPROFI
  6
Continuous
 62
     7
100
AcDbLine
 10
59.6799949869
 20
175.5598612067
 30
0.0
 11
62.8718811452
 21
172.3679750484
 31
0.0
  0
ARC
  5
100
330
6F
100
AcDbEntity
  8
27576__DICHTPROFI
  6
Continuous
 62
     7
100
AcDbCircle
 10
59.5302273673
 20
175.5682074705
 30
0.0
 40
0.1499999999999998
100
AcDbArc
 50
48.1896853907
 51
356.8103147497
  0
LINE
  5
101
330
6F
100
AcDbEntity
  8
27576__DICHTPROFI
  6
Continuous
 62
     7
100
AcDbLine
 10
59.6302273667
 20
179.1510502699
 30
0.0
 11
59.6302273667
 21
175.6800108699
 31
0.0
  0
LINE
  5
102
330
6F
100
AcDbEntity
  8
27576__DICHTPROFI
  6
Continuous
 62
     7
100
AcDbLine
 10
61.3802273667
 20
179.1510502699
 30
0.0
 11
59.6302273667
 21
179.1510502699
 31
0.0
  0
ARC
  5
103
330
6F
100
AcDbEntity
  8
27576__DICHTPROFI
  6
Continuous
 62
     7
100
AcDbCircle
 10
61.3802273667
 20
179.9010502699
 30
0.0
 40
0.7500000000000007
100
AcDbArc
 50
270.0
 51
90.0
  0
LINE
  5
104
330
6F
100
AcDbEntity
  8
27576__DICHTPROFI
  6
Continuous
 62
     7
100
AcDbLine
 10
60.0302273667
 20
180.6510502699
 30
0.0
 11
61.3802273667
 21
180.6510502699
 31
0.0
  0
LINE
  5
105
330
6F
100
AcDbEntity
  8
27576__DICHTPROFI
  6
Continuous
 62
     7
100
AcDbLine
 10
59.5302273667
 20
181.1510502699
 30
0.0
 11
60.0302273667
 21
180.6510502699
 31
0.0
  0
LINE
  5
106
330
6F
100
AcDbEntity
  8
27576__DICHTPROFI
  6
Continuous
 62
     7
100
AcDbLine
 10
59.5302273667
 20
182.6510502699
 30
0.0
 11
59.5302273667
 21
181.1510502699
 31
0.0
  0
LINE
  5
107
330
6F
100
AcDbEntity
  8
27576__DICHTPROFI
  6
Continuous
 62
     7
100
AcDbLine
 10
59.8302273668
 20
182.6510502699
 30
0.0
 11
59.5302273667
 21
182.6510502699
 31
0.0
  0
LINE
  5
108
330
6F
100
AcDbEntity
  8
27576__DICHTPROFI
  6
Continuous
 62
     7
100
AcDbLine
 10
60.0302273668
 20
182.4510502699
 30
0.0
 11
59.8302273668
 21
182.6510502699
 31
0.0
  0
LINE
  5
109
330
6F
100
AcDbEntity
  8
27576__DICHTPROFI
  6
Continuous
 62
     7
100
AcDbLine
 10
60.2302273668
 20
182.6510502699
 30
0.0
 11
60.0302273668
 21
182.4510502699
 31
0.0
  0
CIRCLE
  5
10B
330
6F
100
AcDbEntity
  8
10472_AUSLÖSERKN
  6
Continuous
 62
     7
100
AcDbCircle
 10
62.8802273743
 20
194.2010102574
 30
0.0
 40
4.6
  0
ARC
  5
10C
330
6F
100
AcDbEntity
  8
10472_AUSLÖSERKN
  6
Continuous
 62
     7
100
AcDbCircle
 10
62.8802273743
 20
194.2010102574
 30
0.0
 40
2.067
100
AcDbArc
 50
166.0015014717
 51
193.9984985283
  0
ARC
  5
10D
330
6F
100
AcDbEntity
  8
10472_AUSLÖSERKN
  6
Continuous
 62
     7
100
AcDbCircle
 10
62.8802273743
 20
194.2010102574
 30
0.0
 40
2.066999999999998
100
AcDbArc
 50
76.0015014717
 51
103.9984985283
  0
ARC
  5
10E
330
6F
100
AcDbEntity
  8
10472_AUSLÖSERKN
  6
Continuous
 62
     7
100
AcDbCircle
 10
62.8802273743
 20
194.2010102574
 30
0.0
 40
2.067
100
AcDbArc
 50
346.0015014717
 51
13.9984985283
  0
ARC
  5
10F
330
6F
100
AcDbEntity
  8
10472_AUSLÖSERKN
  6
Continuous
 62
     7
100
AcDbCircle
 10
62.8802273743
 20
194.2010102574
 30
0.0
 40
2.066999999999998
100
AcDbArc
 50
256.0015014717
 51
283.9984985283
  0
ARC
  5
110
330
6F
100
AcDbEntity
  8
10472_AUSLÖSERKN
  6
Continuous
 62
     7
100
AcDbCircle
 10
62.8802273743
 20
194.2010102574
 30
0.0
 40
3.0
100
AcDbArc
 50
170.4059317731
 51
189.5940682269
  0
ARC
  5
111
330
6F
100
AcDbEntity
  8
10472_AUSLÖSERKN
  6
Continuous
 62
     7
100
AcDbCircle
 10
62.8802273743
 20
194.2010102574
 30
0.0
 40
3.000000000000001
100
AcDbArc
 50
260.4059317731
 51
279.5940682269
  0
ARC
  5
112
330
6F
100
AcDbEntity
  8
10472_AUSLÖSERKN
  6
Continuous
 62
     7
100
AcDbCircle
 10
62.8802273743
 20
194.2010102574
 30
0.0
 40
3.0
100
AcDbArc
 50
350.4059317731
 51
9.5940682269
  0
ARC
  5
113
330
6F
100
AcDbEntity
  8
10472_AUSLÖSERKN
  6
Continuous
 62
     7
100
AcDbCircle
 10
62.8802273743
 20
194.2010102574
 30
0.0
 40
3.0
100
AcDbArc
 50
80.4059317731
 51
99.5940682269
  0
LINE
  5
114
330
6F
100
AcDbEntity
  8
10472_AUSLÖSERKN
  6
Continuous
 62
     7
100
AcDbLine
 10
63.3802273743
 20
197.1590501489
 30
0.0
 11
63.3802273743
 21
195.7010102574
 31
0.0
  0
LINE
  5
115
330
6F
100
AcDbEntity
  8
10472_AUSLÖSERKN
  6
Continuous
 62
     7
100
AcDbLine
 10
65.8382672659
 20
193.7010102574
 30
0.0
 11
64.3802273743
 21
193.7010102574
 31
0.0
  0
LINE
  5
116
330
6F
100
AcDbEntity
  8
10472_AUSLÖSERKN
  6
Continuous
 62
     7
100
AcDbLine
 10
62.3802273743
 20
191.2429703658
 30
0.0
 11
62.3802273743
 21
192.7010102574
 31
0.0
  0
LINE
  5
117
330
6F
100
AcDbEntity
  8
10472_AUSLÖSERKN
  6
Continuous
 62
     7
100
AcDbLine
 10
59.9221874828
 20
194.7010102574
 30
0.0
 11
61.3802273743
 21
194.7010102574
 31
0.0
  0
LINE
  5
118
330
6F
100
AcDbEntity
  8
10472_AUSLÖSERKN
  6
Continuous
 62
     7
100
AcDbLine
 10
62.3802273743
 20
195.7010102574
 30
0.0
 11
62.3802273743
 21
197.1590501489
 31
0.0
  0
ARC
  5
119
330
6F
100
AcDbEntity
  8
10472_AUSLÖSERKN
  6
Continuous
 62
     7
100
AcDbCircle
 10
61.3802273743
 20
195.7010102574
 30
0.0
 40
0.9999999999999996
100
AcDbArc
 50
270.0
 51
0.0
  0
LINE
  5
11A
330
6F
100
AcDbEntity
  8
10472_AUSLÖSERKN
  6
Continuous
 62
     7
100
AcDbLine
 10
61.3802273743
 20
193.7010102574
 30
0.0
 11
59.9221874912
 21
193.7010102574
 31
0.0
  0
ARC
  5
11B
330
6F
100
AcDbEntity
  8
10472_AUSLÖSERKN
  6
Continuous
 62
     7
100
AcDbCircle
 10
61.3802273743
 20
192.7010102574
 30
0.0
 40
1.0
100
AcDbArc
 50
0.0
 51
90.0
  0
LINE
  5
11C
330
6F
100
AcDbEntity
  8
10472_AUSLÖSERKN
  6
Continuous
 62
     7
100
AcDbLine
 10
63.3802273743
 20
192.7010102574
 30
0.0
 11
63.3802273743
 21
191.2429704157
 31
0.0
  0
ARC
  5
11D
330
6F
100
AcDbEntity
  8
10472_AUSLÖSERKN
  6
Continuous
 62
     7
100
AcDbCircle
 10
64.3802273743
 20
192.7010102574
 30
0.0
 40
0.9999999999999987
100
AcDbArc
 50
90.0
 51
180.0
  0
LINE
  5
11E
330
6F
100
AcDbEntity
  8
10472_AUSLÖSERKN
  6
Continuous
 62
     7
100
AcDbLine
 10
64.3802273743
 20
194.7010102574
 30
0.0
 11
65.8382672743
 21
194.7010102574
 31
0.0
  0
ARC
  5
11F
330
6F
100
AcDbEntity
  8
10472_AUSLÖSERKN
  6
Continuous
 62
     7
100
AcDbCircle
 10
64.3802273743
 20
195.7010102574
 30
0.0
 40
0.9999999999999979
100
AcDbArc
 50
180.0
 51
270.0
  0
ENDBLK
  5
121
330
6F
100
AcDbEntity
  8
0
100
AcDbBlockEnd
  0
BLOCK
  5
1CF
330
122
100
AcDbEntity
  8
0
100
AcDbBlockBegin
  2
SE1
 70
     0
 10
0.0
 20
0.0
 30
0.0
  3
SE1
  1

  0
LINE
  5
124
330
122
100
AcDbEntity
  8
30878__AUSSENPROF
  6
Continuous
 62
     7
100
AcDbLine
 10
143.748158778
 20
200.0510102574
 30
0.0
 11
132.148158778
 21
200.0510102574
 31
0.0
  0
ARC
  5
125
330
122
100
AcDbEntity
  8
30878__AUSSENPROF
  6
Continuous
 62
     7
100
AcDbCircle
 10
143.748158778
 20
199.8510102574
 30
0.0
 40
0.1999999999999997
100
AcDbArc
 50
0.0
 51
90.0
  0
LINE
  5
126
330
122
100
AcDbEntity
  8
30878__AUSSENPROF
  6
Continuous
 62
     7
100
AcDbLine
 10
143.948158778
 20
173.0510102574
 30
0.0
 11
143.948158778
 21
199.8510102574
 31
0.0
  0
LINE
  5
127
330
122
100
AcDbEntity
  8
30878__AUSSENPROF
  6
Continuous
 62
     7
100
AcDbLine
 10
151.048158778
 20
173.0510102574
 30
0.0
 11
143.948158778
 21
173.0510102574
 31
0.0
  0
ARC
  5
128
330
122
100
AcDbEntity
  8
30878__AUSSENPROF
  6
Continuous
 62
     7
100
AcDbCircle
 10
151.048158778
 20
172.6510102574
 30
0.0
 40
0.400000000000001
100
AcDbArc
 50
0.0
 51
90.0
  0
LINE
  5
129
330
122
100
AcDbEntity
  8
30878__AUSSENPROF
  6
Continuous
 62
     7
100
AcDbLine
 10
151.448158778
 20
172.4510102574
 30
0.0
 11
151.448158778
 21
172.6510102574
 31
0.0
  0
ARC
  5
12A
330
122
100
AcDbEntity
  8
30878__AUSSENPROF
  6
Continuous
 62
     7
100
AcDbCircle
 10
151.048158778
 20
172.4510102574
 30
0.0
 40
0.3999999999999993
100
AcDbArc
 50
270.0
 51
0.0
  0
LINE
  5
12B
330
122
100
AcDbEntity
  8
30878__AUSSENPROF
  6
Continuous
 62
     7
100
AcDbLine
 10
143.348158778
 20
172.0510102574
 30
0.0
 11
151.048158778
 21
172.0510102574
 31
0.0
  0
ARC
  5
12C
330
122
100
AcDbEntity
  8
30878__AUSSENPROF
  6
Continuous
 62
     7
100
AcDbCircle
 10
143.348158778
 20
172.4510102574
 30
0.0
 40
0.4000000000000002
100
AcDbArc
 50
180.0
 51
270.0
  0
LINE
  5
12D
330
122
100
AcDbEntity
  8
30878__AUSSENPROF
  6
Continuous
 62
     7
100
AcDbLine
 10
142.948158778
 20
188.1510102574
 30
0.0
 11
142.948158778
 21
172.4510102574
 31
0.0
  0
ARC
  5
12E
330
122
100
AcDbEntity
  8
30878__AUSSENPROF
  6
Continuous
 62
     7
100
AcDbCircle
 10
142.748158778
 20
188.1510102574
 30
0.0
 40
0.1999999999999988
100
AcDbArc
 50
0.0
 51
90.0
  0
LINE
  5
12F
330
122
100
AcDbEntity
  8
30878__AUSSENPROF
  6
Continuous
 62
     7
100
AcDbLine
 10
142.148158778
 20
188.3510102574
 30
0.0
 11
142.748158778
 21
188.3510102574
 31
0.0
  0
ARC
  5
130
330
122
100
AcDbEntity
  8
30878__AUSSENPROF
  6
Continuous
 62
     7
100
AcDbCircle
 10
141.948158778
 20
188.3510102574
 30
0.0
 40
0.2000000000000005
100
AcDbArc
 50
0.0
 51
180.0
  0
LINE
  5
131
330
122
100
AcDbEntity
  8
30878__AUSSENPROF
  6
Continuous
 62
     7
100
AcDbLine
 10
141.148158778
 20
188.3510102574
 30
0.0
 11
141.748158778
 21
188.3510102574
 31
0.0
  0
ARC
  5
132
330
122
100
AcDbEntity
  8
30878__AUSSENPROF
  6
Continuous
 62
     7
100
AcDbCircle
 10
141.148158778
 20
188.5510102574
 30
0.0
 40
0.2000000000000001
100
AcDbArc
 50
180.0
 51
270.0
  0
LINE
  5
133
330
122
100
AcDbEntity
  8
30878__AUSSENPROF
  6
Continuous
 62
     7
100
AcDbLine
 10
140.948158778
 20
189.1510102574
 30
0.0
 11
140.948158778
 21
188.5510102574
 31
0.0
  0
ARC
  5
134
330
122
100
AcDbEntity
  8
30878__AUSSENPROF
  6
Continuous
 62
     7
100
AcDbCircle
 10
141.148158778
 20
189.1510102574
 30
0.0
 40
0.1999999999999988
100
AcDbArc
 50
90.0
 51
180.0
  0
LINE
  5
135
330
122
100
AcDbEntity
  8
30878__AUSSENPROF
  6
Continuous
 62
     7
100
AcDbLine
 10
142.748158778
 20
189.3510102574
 30
0.0
 11
141.148158778
 21
189.3510102574
 31
0.0
  0
ARC
  5
136
330
122
100
AcDbEntity
  8
30878__AUSSENPROF
  6
Continuous
 62
     7
100
AcDbCircle
 10
142.748158778
 20
189.5510102574
 30
0.0
 40
0.1999999999999997
100
AcDbArc
 50
270.0
 51
0.0
  0
LINE
  5
137
330
122
100
AcDbEntity
  8
30878__AUSSENPROF
  6
Continuous
 62
     7
100
AcDbLine
 10
142.948158778
 20
198.8510102574
 30
0.0
 11
142.948158778
 21
189.5510102574
 31
0.0
  0
ARC
  5
138
330
122
100
AcDbEntity
  8
30878__AUSSENPROF
  6
Continuous
 62
     7
100
AcDbCircle
 10
142.748158778
 20
198.8510102574
 30
0.0
 40
0.1999999999999988
100
AcDbArc
 50
0.0
 51
90.0
  0
LINE
  5
139
330
122
100
AcDbEntity
  8
30878__AUSSENPROF
  6
Continuous
 62
     7
100
AcDbLine
 10
133.148158778
 20
199.0510102574
 30
0.0
 11
142.748158778
 21
199.0510102574
 31
0.0
  0
ARC
  5
13A
330
122
100
AcDbEntity
  8
30878__AUSSENPROF
  6
Continuous
 62
     7
100
AcDbCircle
 10
133.148158778
 20
198.8510102574
 30
0.0
 40
0.1999999999999997
100
AcDbArc
 50
90.0
 51
180.0
  0
LINE
  5
13B
330
122
100
AcDbEntity
  8
30878__AUSSENPROF
  6
Continuous
 62
     7
100
AcDbLine
 10
132.948158778
 20
189.5510102574
 30
0.0
 11
132.948158778
 21
198.8510102574
 31
0.0
  0
ARC
  5
13C
330
122
100
AcDbEntity
  8
30878__AUSSENPROF
  6
Continuous
 62
     7
100
AcDbCircle
 10
133.148158778
 20
189.5510102574
 30
0.0
 40
0.2000000000000023
100
AcDbArc
 50
180.0
 51
270.0
  0
LINE
  5
13D
330
122
100
AcDbEntity
  8
30878__AUSSENPROF
  6
Continuous
 62
     7
100
AcDbLine
 10
134.748158778
 20
189.3510102574
 30
0.0
 11
133.148158778
 21
189.3510102574
 31
0.0
  0
ARC
  5
13E
330
122
100
AcDbEntity
  8
30878__AUSSENPROF
  6
Continuous
 62
     7
100
AcDbCircle
 10
134.748158778
 20
189.1510102574
 30
0.0
 40
0.2000000000000001
100
AcDbArc
 50
0.0
 51
90.0
  0
LINE
  5
13F
330
122
100
AcDbEntity
  8
30878__AUSSENPROF
  6
Continuous
 62
     7
100
AcDbLine
 10
134.948158778
 20
188.5510102574
 30
0.0
 11
134.948158778
 21
189.1510102574
 31
0.0
  0
ARC
  5
140
330
122
100
AcDbEntity
  8
30878__AUSSENPROF
  6
Continuous
 62
     7
100
AcDbCircle
 10
134.748158778
 20
188.5510102574
 30
0.0
 40
0.1999999999999988
100
AcDbArc
 50
270.0
 51
0.0
  0
LINE
  5
141
330
122
100
AcDbEntity
  8
30878__AUSSENPROF
  6
Continuous
 62
     7
100
AcDbLine
 10
134.148158778
 20
188.3510102574
 30
0.0
 11
134.748158778
 21
188.3510102574
 31
0.0
  0
ARC
  5
142
330
122
100
AcDbEntity
  8
30878__AUSSENPROF
  6
Continuous
 62
     7
100
AcDbCircle
 10
133.948158778
 20
188.3510102574
 30
0.0
 40
0.2000000000000005
100
AcDbArc
 50
0.0
 51
180.0
  0
LINE
  5
143
330
122
100
AcDbEntity
  8
30878__AUSSENPROF
  6
Continuous
 62
     7
100
AcDbLine
 10
133.148158778
 20
188.3510102574
 30
0.0
 11
133.748158778
 21
188.3510102574
 31
0.0
  0
ARC
  5
144
330
122
100
AcDbEntity
  8
30878__AUSSENPROF
  6
Continuous
 62
     7
100
AcDbCircle
 10
133.148158778
 20
188.1510102574
 30
0.0
 40
0.1999999999999997
100
AcDbArc
 50
90.0
 51
180.0
  0
LINE
  5
145
330
122
100
AcDbEntity
  8
30878__AUSSENPROF
  6
Continuous
 62
     7
100
AcDbLine
 10
132.948158778
 20
172.4510102574
 30
0.0
 11
132.948158778
 21
188.1510102574
 31
0.0
  0
ARC
  5
146
330
122
100
AcDbEntity
  8
30878__AUSSENPROF
  6
Continuous
 62
     7
100
AcDbCircle
 10
132.548158778
 20
172.4510102574
 30
0.0
 40
0.400000000000001
100
AcDbArc
 50
270.0
 51
0.0
  0
LINE
  5
147
330
122
100
AcDbEntity
  8
30878__AUSSENPROF
  6
Continuous
 62
     7
100
AcDbLine
 10
124.848158778
 20
172.0510102574
 30
0.0
 11
132.548158778
 21
172.0510102574
 31
0.0
  0
ARC
  5
148
330
122
100
AcDbEntity
  8
30878__AUSSENPROF
  6
Continuous
 62
     7
100
AcDbCircle
 10
124.848158778
 20
172.4510102574
 30
0.0
 40
0.400000000000001
100
AcDbArc
 50
180.0
 51
270.0
  0
LINE
  5
149
330
122
100
AcDbEntity
  8
30878__AUSSENPROF
  6
Continuous
 62
     7
100
AcDbLine
 10
124.448158778
 20
172.6510102574
 30
0.0
 11
124.448158778
 21
172.4510102574
 31
0.0
  0
ARC
  5
14A
330
122
100
AcDbEntity
  8
30878__AUSSENPROF
  6
Continuous
 62
     7
100
AcDbCircle
 10
124.848158778
 20
172.6510102574
 30
0.0
 40
0.3999999999999993
100
AcDbArc
 50
90.0
 51
180.0
  0
LINE
  5
14B
330
122
100
AcDbEntity
  8
30878__AUSSENPROF
  6
Continuous
 62
     7
100
AcDbLine
 10
131.748158778
 20
173.0510102574
 30
0.0
 11
124.848158778
 21
173.0510102574
 31
0.0
  0
ARC
  5
14C
330
122
100
AcDbEntity
  8
30878__AUSSENPROF
  6
Continuous
 62
     7
100
AcDbCircle
 10
131.748158778
 20
173.2510102574
 30
0.0
 40
0.1999999999999997
100
AcDbArc
 50
270.0
 51
0.0
  0
LINE
  5
14D
330
122
100
AcDbEntity
  8
30878__AUSSENPROF
  6
Continuous
 62
     7
100
AcDbLine
 10
131.948158778
 20
199.8510102574
 30
0.0
 11
131.948158778
 21
173.2510102574
 31
0.0
  0
ARC
  5
14E
330
122
100
AcDbEntity
  8
30878__AUSSENPROF
  6
Continuous
 62
     7
100
AcDbCircle
 10
132.148158778
 20
199.8510102574
 30
0.0
 40
0.1999999999999988
100
AcDbArc
 50
90.0
 51
180.0
  0
LINE
  5
14F
330
122
100
AcDbEntity
  8
30882__INNENPROFI
  6
Continuous
 62
     7
100
AcDbLine
 10
141.948158778
 20
188.2510102574
 30
0.0
 11
142.448158778
 21
187.7510102574
 31
0.0
  0
LINE
  5
150
330
122
100
AcDbEntity
  8
30882__INNENPROFI
  6
Continuous
 62
     7
100
AcDbLine
 10
140.348158778
 20
188.2510102574
 30
0.0
 11
141.948158778
 21
188.2510102574
 31
0.0
  0
LINE
  5
151
330
122
100
AcDbEntity
  8
30882__INNENPROFI
  6
Continuous
 62
     7
100
AcDbLine
 10
140.348158778
 20
187.2510102574
 30
0.0
 11
140.348158778
 21
188.2510102574
 31
0.0
  0
LINE
  5
152
330
122
100
AcDbEntity
  8
30882__INNENPROFI
  6
Continuous
 62
     7
100
AcDbLine
 10
141.348198778
 20
187.2510102574
 30
0.0
 11
140.348158778
 21
187.2510102574
 31
0.0
  0
LINE
  5
153
330
122
100
AcDbEntity
  8
30882__INNENPROFI
  6
Continuous
 62
     7
100
AcDbLine
 10
141.348198778
 20
185.7510102574
 30
0.0
 11
141.348198778
 21
187.2510102574
 31
0.0
  0
LINE
  5
154
330
122
100
AcDbEntity
  8
30882__INNENPROFI
  6
Continuous
 62
     7
100
AcDbLine
 10
134.548118778
 20
185.7510102574
 30
0.0
 11
141.348198778
 21
185.7510102574
 31
0.0
  0
LINE
  5
155
330
122
100
AcDbEntity
  8
30882__INNENPROFI
  6
Continuous
 62
     7
100
AcDbLine
 10
134.548118778
 20
187.2510102574
 30
0.0
 11
134.548118778
 21
185.7510102574
 31
0.0
  0
LINE
  5
156
330
122
100
AcDbEntity
  8
30882__INNENPROFI
  6
Continuous
 62
     7
100
AcDbLine
 10
135.548158778
 20
187.2510102574
 30
0.0
 11
134.548118778
 21
187.2510102574
 31
0.0
  0
LINE
  5
157
330
122
100
AcDbEntity
  8
30882__INNENPROFI
  6
Continuous
 62
     7
100
AcDbLine
 10
135.548158778
 20
188.2510102574
 30
0.0
 11
135.548158778
 21
187.2510102574
 31
0.0
  0
LINE
  5
158
330
122
100
AcDbEntity
  8
30882__INNENPROFI
  6
Continuous
 62
     7
100
AcDbLine
 10
133.948158778
 20
188.2510102574
 30
0.0
 11
135.548158778
 21
188.2510102574
 31
0.0
  0
LINE
  5
159
330
122
100
AcDbEntity
  8
30882__INNENPROFI
  6
Continuous
 62
     7
100
AcDbLine
 10
133.448158778
 20
187.7510102574
 30
0.0
 11
133.948158778
 21
188.2510102574
 31
0.0
  0
LINE
  5
15A
330
122
100
AcDbEntity
  8
30882__INNENPROFI
  6
Continuous
 62
     7
100
AcDbLine
 10
133.448158778
 20
184.5010502574
 30
0.0
 11
133.448158778
 21
187.7510102574
 31
0.0
  0
LINE
  5
15B
330
122
100
AcDbEntity
  8
30882__INNENPROFI
  6
Continuous
 62
     7
100
AcDbLine
 10
133.5895801866
 20
184.3596288487
 30
0.0
 11
133.448158778
 21
184.5010502574
 31
0.0
  0
LINE
  5
15C
330
122
100
AcDbEntity
  8
30882__INNENPROFI
  6
Continuous
 62
     7
100
AcDbLine
 10
135.598158778
 20
184.0010502574
 30
0.0
 11
135.1481587579
 21
184.0010502574
 31
0.0
  0
LINE
  5
15D
330
122
100
AcDbEntity
  8
30882__INNENPROFI
  6
Continuous
 62
     7
100
AcDbLine
 10
135.048158783
 20
184.0010502574
 30
0.0
 11
133.948158778
 21
184.0010502574
 31
0.0
  0
LINE
  5
15E
330
122
100
AcDbEntity
  8
30882__INNENPROFI
  6
Continuous
 62
     7
100
AcDbLine
 10
135.598158778
 20
184.7510502574
 30
0.0
 11
135.598158778
 21
184.0010502574
 31
0.0
  0
LINE
  5
15F
330
122
100
AcDbEntity
  8
30882__INNENPROFI
  6
Continuous
 62
     7
100
AcDbLine
 10
137.098158778
 20
184.7510502574
 30
0.0
 11
135.598158778
 21
184.7510502574
 31
0.0
  0
LINE
  5
160
330
122
100
AcDbEntity
  8
30882__INNENPROFI
  6
Continuous
 62
     7
100
AcDbLine
 10
137.098158778
 20
181.7510502574
 30
0.0
 11
137.098158778
 21
184.7510502574
 31
0.0
  0
LINE
  5
161
330
122
100
AcDbEntity
  8
30882__INNENPROFI
  6
Continuous
 62
     7
100
AcDbLine
 10
135.598158778
 20
181.7510502574
 30
0.0
 11
137.098158778
 21
181.7510502574
 31
0.0
  0
LINE
  5
162
330
122
100
AcDbEntity
  8
30882__INNENPROFI
  6
Continuous
 62
     7
100
AcDbLine
 10
135.598158778
 20
182.5010502574
 30
0.0
 11
135.598158778
 21
181.7510502574
 31
0.0
  0
LINE
  5
163
330
122
100
AcDbEntity
  8
30882__INNENPROFI
  6
Continuous
 62
     7
100
AcDbLine
 10
134.598158778
 20
182.5010502574
 30
0.0
 11
135.048158783
 21
182.5010502574
 31
0.0
  0
LINE
  5
164
330
122
100
AcDbEntity
  8
30882__INNENPROFI
  6
Continuous
 62
     7
100
AcDbLine
 10
135.1481587579
 20
182.5010502574
 30
0.0
 11
135.598158778
 21
182.5010502574
 31
0.0
  0
LINE
  5
165
330
122
100
AcDbEntity
  8
30882__INNENPROFI
  6
Continuous
 62
     7
100
AcDbLine
 10
135.098158778
 20
180.7510502574
 30
0.0
 11
134.598158778
 21
181.2510502574
 31
0.0
  0
LINE
  5
166
330
122
100
AcDbEntity
  8
30882__INNENPROFI
  6
Continuous
 62
     7
100
AcDbLine
 10
140.798158778
 20
180.7510502574
 30
0.0
 11
139.748158778
 21
180.7510502574
 31
0.0
  0
LINE
  5
167
330
122
100
AcDbEntity
  8
30882__INNENPROFI
  6
Continuous
 62
     7
100
AcDbLine
 10
141.298158778
 20
181.2510502574
 30
0.0
 11
140.798158778
 21
180.7510502574
 31
0.0
  0
LINE
  5
168
330
122
100
AcDbEntity
  8
30882__INNENPROFI
  6
Continuous
 62
     7
100
AcDbLine
 10
140.298158778
 20
182.5010502574
 30
0.0
 11
140.7481587829
 21
182.5010502574
 31
0.0
  0
LINE
  5
169
330
122
100
AcDbEntity
  8
30882__INNENPROFI
  6
Continuous
 62
     7
100
AcDbLine
 10
140.8481587579
 20
182.5010502574
 30
0.0
 11
141.298158778
 21
182.5010502574
 31
0.0
  0
LINE
  5
16A
330
122
100
AcDbEntity
  8
30882__INNENPROFI
  6
Continuous
 62
     7
100
AcDbLine
 10
140.298158778
 20
181.7510502574
 30
0.0
 11
140.298158778
 21
182.5010502574
 31
0.0
  0
LINE
  5
16B
330
122
100
AcDbEntity
  8
30882__INNENPROFI
  6
Continuous
 62
     7
100
AcDbLine
 10
138.798158778
 20
181.7510502574
 30
0.0
 11
140.298158778
 21
181.7510502574
 31
0.0
  0
LINE
  5
16C
330
122
100
AcDbEntity
  8
30882__INNENPROFI
  6
Continuous
 62
     7
100
AcDbLine
 10
138.798158778
 20
184.7510502574
 30
0.0
 11
138.798158778
 21
181.7510502574
 31
0.0
  0
LINE
  5
16D
330
122
100
AcDbEntity
  8
30882__INNENPROFI
  6
Continuous
 62
     7
100
AcDbLine
 10
140.298158778
 20
184.7510502574
 30
0.0
 11
138.798158778
 21
184.7510502574
 31
0.0
  0
LINE
  5
16E
330
122
100
AcDbEntity
  8
30882__INNENPROFI
  6
Continuous
 62
     7
100
AcDbLine
 10
140.298158778
 20
184.0010502574
 30
0.0
 11
140.298158778
 21
184.7510502574
 31
0.0
  0
LINE
  5
16F
330
122
100
AcDbEntity
  8
30882__INNENPROFI
  6
Continuous
 62
     7
100
AcDbLine
 10
142.448158778
 20
187.7510102574
 30
0.0
 11
142.448158778
 21
184.5010502574
 31
0.0
  0
LINE
  5
170
330
122
100
AcDbEntity
  8
30882__INNENPROFI
  6
Continuous
 62
     7
100
AcDbLine
 10
136.148158778
 20
180.7510502574
 30
0.0
 11
135.098158778
 21
180.7510502574
 31
0.0
  0
ARC
  5
171
330
122
100
AcDbEntity
  8
30882__INNENPROFI
  6
Continuous
 62
     7
100
AcDbCircle
 10
136.348158778
 20
180.7510502574
 30
0.0
 40
0.2000000000000001
100
AcDbArc
 50
0.0
 51
180.0
  0
LINE
  5
172
330
122
100
AcDbEntity
  8
30882__INNENPROFI
  6
Continuous
 62
     7
100
AcDbLine
 10
139.348158778
 20
180.7510502574
 30
0.0
 11
136.548158778
 21
180.7510502574
 31
0.0
  0
ARC
  5
173
330
122
100
AcDbEntity
  8
30882__INNENPROFI
  6
Continuous
 62
     7
100
AcDbCircle
 10
139.548158778
 20
180.7510502574
 30
0.0
 40
0.2000000000000001
100
AcDbArc
 50
0.0
 51
180.0
  0
LINE
  5
174
330
122
100
AcDbEntity
  8
30882__INNENPROFI
  6
Continuous
 62
     7
100
AcDbLine
 10
141.948158778
 20
184.0010502574
 30
0.0
 11
140.848158715
 21
184.0010502574
 31
0.0
  0
LINE
  5
175
330
122
100
AcDbEntity
  8
30882__INNENPROFI
  6
Continuous
 62
     7
100
AcDbLine
 10
140.7481588258
 20
184.0010502574
 30
0.0
 11
140.298158778
 21
184.0010502574
 31
0.0
  0
LINE
  5
176
330
122
100
AcDbEntity
  8
30882__INNENPROFI
  6
Continuous
 62
     7
100
AcDbLine
 10
141.948158778
 20
184.0010502574
 30
0.0
 11
142.448158778
 21
184.5010502574
 31
0.0
  0
LINE
  5
177
330
122
100
AcDbEntity
  8
27576__DICHTPROFI
  6
Continuous
 62
     7
100
AcDbLine
 10
135.5981587704
 20
182.6510502699
 30
0.0
 11
135.2981587705
 21
182.6510502699
 31
0.0
  0
LINE
  5
178
330
122
100
AcDbEntity
  8
27576__DICHTPROFI
  6
Continuous
 62
     7
100
AcDbLine
 10
135.7215877702
 20
181.9510502708
 30
0.0
 11
135.5981587704
 21
182.6510502699
 31
0.0
  0
LINE
  5
179
330
122
100
AcDbEntity
  8
27576__DICHTPROFI
  6
Continuous
 62
     7
100
AcDbLine
 10
135.9015877693
 20
181.9510502708
 30
0.0
 11
135.7215877702
 21
181.9510502708
 31
0.0
  0
LINE
  5
17A
330
122
100
AcDbEntity
  8
27576__DICHTPROFI
  6
Continuous
 62
     7
100
AcDbLine
 10
136.6605115693
 20
182.8686498708
 30
0.0
 11
135.9015877693
 21
181.9510502708
 31
0.0
  0
ARC
  5
17B
330
122
100
AcDbEntity
  8
27576__DICHTPROFI
  6
Continuous
 62
     7
100
AcDbCircle
 10
136.1981589314
 20
183.2510502346
 30
0.0
 40
0.6000000000000012
100
AcDbArc
 50
320.4066958468
 51
39.5933019441
  0
LINE
  5
17C
330
122
100
AcDbEntity
  8
27576__DICHTPROFI
  6
Continuous
 62
     7
100
AcDbLine
 10
135.9015877704
 20
184.5510502691
 30
0.0
 11
136.660511584
 21
183.6334505806
 31
0.0
  0
LINE
  5
17D
330
122
100
AcDbEntity
  8
27576__DICHTPROFI
  6
Continuous
 62
     7
100
AcDbLine
 10
135.7215877747
 20
184.5510502691
 30
0.0
 11
135.9015877704
 21
184.5510502691
 31
0.0
  0
LINE
  5
17E
330
122
100
AcDbEntity
  8
27576__DICHTPROFI
  6
Continuous
 62
     7
100
AcDbLine
 10
135.5981587704
 20
183.8510502448
 30
0.0
 11
135.7215877747
 21
184.5510502691
 31
0.0
  0
LINE
  5
17F
330
122
100
AcDbEntity
  8
27576__DICHTPROFI
  6
Continuous
 62
     7
100
AcDbLine
 10
135.2981587705
 20
183.8510502448
 30
0.0
 11
135.5981587704
 21
183.8510502448
 31
0.0
  0
LINE
  5
180
330
122
100
AcDbEntity
  8
27576__DICHTPROFI
  6
Continuous
 62
     7
100
AcDbLine
 10
135.0981587705
 20
184.0510502448
 30
0.0
 11
135.2981587705
 21
183.8510502448
 31
0.0
  0
LINE
  5
181
330
122
100
AcDbEntity
  8
27576__DICHTPROFI
  6
Continuous
 62
     7
100
AcDbLine
 10
134.8981587705
 20
183.8510502448
 30
0.0
 11
135.0981587705
 21
184.0510502448
 31
0.0
  0
LINE
  5
182
330
122
100
AcDbEntity
  8
27576__DICHTPROFI
  6
Continuous
 62
     7
100
AcDbLine
 10
134.0981587453
 20
183.8510502448
 30
0.0
 11
134.8981587705
 21
183.8510502448
 31
0.0
  0
LINE
  5
183
330
122
100
AcDbEntity
  8
27576__DICHTPROFI
  6
Continuous
 62
     7
100
AcDbLine
 10
133.589580164
 20
184.3596288261
 30
0.0
 11
134.0981587453
 21
183.8510502448
 31
0.0
  0
ARC
  5
184
330
122
100
AcDbEntity
  8
27576__DICHTPROFI
  6
Continuous
 62
     7
100
AcDbCircle
 10
133.4481588078
 20
184.2182074699
 30
0.0
 40
0.1999999999999997
100
AcDbArc
 50
45.0
 51
180.0
  0
LINE
  5
185
330
122
100
AcDbEntity
  8
27576__DICHTPROFI
  6
Continuous
 62
     7
100
AcDbLine
 10
133.2481588078
 20
183.8510502719
 30
0.0
 11
133.2481588078
 21
184.2182074699
 31
0.0
  0
LINE
  5
186
330
122
100
AcDbEntity
  8
27576__DICHTPROFI
  6
Continuous
 62
     7
100
AcDbLine
 10
133.6793038067
 20
175.7183678922
 30
0.0
 11
133.2481588078
 21
183.8510502719
 31
0.0
  0
ARC
  5
187
330
122
100
AcDbEntity
  8
27576__DICHTPROFI
  6
Continuous
 62
     7
100
AcDbCircle
 10
134.6779015264
 20
175.7713074259
 30
0.0
 40
0.9999999999999996
100
AcDbArc
 50
183.0346304496
 51
225.0
  0
LINE
  5
188
330
122
100
AcDbEntity
  8
27576__DICHTPROFI
  6
Continuous
 62
     7
100
AcDbLine
 10
135.1722443452
 20
173.8627510447
 30
0.0
 11
133.9707947452
 21
175.0642006447
 31
0.0
  0
LINE
  5
189
330
122
100
AcDbEntity
  8
27576__DICHTPROFI
  6
Continuous
 62
     7
100
AcDbLine
 10
133.7933861704
 20
172.4838928699
 30
0.0
 11
135.1722443452
 21
173.8627510447
 31
0.0
  0
ARC
  5
18A
330
122
100
AcDbEntity
  8
27576__DICHTPROFI
  6
Continuous
 62
     7
100
AcDbCircle
 10
134.0762288829
 20
172.2010501574
 30
0.0
 40
0.4000000000000002
100
AcDbArc
 50
135.0
 51
315.0
  0
LINE
  5
18B
330
122
100
AcDbEntity
  8
27576__DICHTPROFI
  6
Continuous
 62
     7
100
AcDbLine
 10
135.7379298612
 20
173.2970657108
 30
0.0
 11
134.3590715953
 21
171.9182074449
 31
0.0
  0
LINE
  5
18C
330
122
100
AcDbEntity
  8
27576__DICHTPROFI
  6
Continuous
 62
     7
100
AcDbLine
 10
137.2410520551
 20
171.7939435169
 30
0.0
 11
135.7379298612
 21
173.2970657108
 31
0.0
  0
ARC
  5
18D
330
122
100
AcDbEntity
  8
27576__DICHTPROFI
  6
Continuous
 62
     7
100
AcDbCircle
 10
137.9481588363
 20
172.5010502981
 30
0.0
 40
0.9999999999999998
100
AcDbArc
 50
225.0
 51
314.9999961882
  0
LINE
  5
18E
330
122
100
AcDbEntity
  8
27576__DICHTPROFI
  6
Continuous
 62
     7
100
AcDbLine
 10
140.1583879704
 20
173.2970656699
 30
0.0
 11
138.6552655704
 21
171.7939434699
 31
0.0
  0
LINE
  5
18F
330
122
100
AcDbEntity
  8
27576__DICHTPROFI
  6
Continuous
 62
     7
100
AcDbLine
 10
141.5372461704
 20
171.9182074699
 30
0.0
 11
140.1583879704
 21
173.2970656699
 31
0.0
  0
ARC
  5
190
330
122
100
AcDbEntity
  8
27576__DICHTPROFI
  6
Continuous
 62
     7
100
AcDbCircle
 10
141.8200888829
 20
172.2010501824
 30
0.0
 40
0.4
100
AcDbArc
 50
225.0
 51
45.0
  0
LINE
  5
191
330
122
100
AcDbEntity
  8
27576__DICHTPROFI
  6
Continuous
 62
     7
100
AcDbLine
 10
140.7240733947
 20
173.8627510955
 30
0.0
 11
142.1029315953
 21
172.4838928948
 31
0.0
  0
LINE
  5
192
330
122
100
AcDbEntity
  8
27576__DICHTPROFI
  6
Continuous
 62
     7
100
AcDbLine
 10
141.9255229697
 20
175.0642006706
 30
0.0
 11
140.7240733947
 21
173.8627510955
 31
0.0
  0
ARC
  5
193
330
122
100
AcDbEntity
  8
27576__DICHTPROFI
  6
Continuous
 62
     7
100
AcDbCircle
 10
141.2184161885
 20
175.7713074518
 30
0.0
 40
1.000000000000002
100
AcDbArc
 50
315.0
 51
356.9653695504
  0
LINE
  5
194
330
122
100
AcDbEntity
  8
27576__DICHTPROFI
  6
Continuous
 62
     7
100
AcDbLine
 10
142.7013744448
 20
184.2182074699
 30
0.0
 11
142.2170139082
 21
175.7183679181
 31
0.0
  0
ARC
  5
195
330
122
100
AcDbEntity
  8
27576__DICHTPROFI
  6
Continuous
 62
     7
100
AcDbCircle
 10
142.5013744448
 20
184.2182074699
 30
0.0
 40
0.2000000000000017
100
AcDbArc
 50
0.0
 51
132.1721927378
  0
LINE
  5
196
330
122
100
AcDbEntity
  8
27576__DICHTPROFI
  6
Continuous
 62
     7
100
AcDbLine
 10
141.7981588829
 20
183.851050159
 30
0.0
 11
142.3671022494
 21
184.3664335727
 31
0.0
  0
LINE
  5
197
330
122
100
AcDbEntity
  8
27576__DICHTPROFI
  6
Continuous
 62
     7
100
AcDbLine
 10
140.9981588133
 20
183.851050159
 30
0.0
 11
141.7981588829
 21
183.851050159
 31
0.0
  0
LINE
  5
198
330
122
100
AcDbEntity
  8
27576__DICHTPROFI
  6
Continuous
 62
     7
100
AcDbLine
 10
140.7981587704
 20
184.0510502019
 30
0.0
 11
140.9981588133
 21
183.851050159
 31
0.0
  0
LINE
  5
199
330
122
100
AcDbEntity
  8
27576__DICHTPROFI
  6
Continuous
 62
     7
100
AcDbLine
 10
140.5981587275
 20
183.851050159
 30
0.0
 11
140.7981587704
 21
184.0510502019
 31
0.0
  0
LINE
  5
19A
330
122
100
AcDbEntity
  8
27576__DICHTPROFI
  6
Continuous
 62
     7
100
AcDbLine
 10
140.2981587798
 20
183.851050159
 30
0.0
 11
140.5981587275
 21
183.851050159
 31
0.0
  0
LINE
  5
19B
330
122
100
AcDbEntity
  8
27576__DICHTPROFI
  6
Continuous
 62
     7
100
AcDbLine
 10
140.1747299512
 20
184.5510503217
 30
0.0
 11
140.2981587798
 21
183.851050159
 31
0.0
  0
LINE
  5
19C
330
122
100
AcDbEntity
  8
27576__DICHTPROFI
  6
Continuous
 62
     7
100
AcDbLine
 10
139.9947299077
 20
184.5510503217
 30
0.0
 11
140.1747299512
 21
184.5510503217
 31
0.0
  0
LINE
  5
19D
330
122
100
AcDbEntity
  8
27576__DICHTPROFI
  6
Continuous
 62
     7
100
AcDbLine
 10
139.2358061295
 20
183.633450548
 30
0.0
 11
139.9947299077
 21
184.5510503217
 31
0.0
  0
ARC
  5
19E
330
122
100
AcDbEntity
  8
27576__DICHTPROFI
  6
Continuous
 62
     7
100
AcDbCircle
 10
139.6981588083
 20
183.2510502337
 30
0.0
 40
0.5999999999999998
100
AcDbArc
 50
140.40670198
 51
219.5933041532
  0
LINE
  5
19F
330
122
100
AcDbEntity
  8
27576__DICHTPROFI
  6
Continuous
 62
     7
100
AcDbLine
 10
139.9947299704
 20
181.9510502699
 30
0.0
 11
139.2358061704
 21
182.8686498699
 31
0.0
  0
LINE
  5
1A0
330
122
100
AcDbEntity
  8
27576__DICHTPROFI
  6
Continuous
 62
     7
100
AcDbLine
 10
140.1747299704
 20
181.9510502699
 30
0.0
 11
139.9947299704
 21
181.9510502699
 31
0.0
  0
LINE
  5
1A1
330
122
100
AcDbEntity
  8
27576__DICHTPROFI
  6
Continuous
 62
     7
100
AcDbLine
 10
140.2981587704
 20
182.6510502699
 30
0.0
 11
140.1747299704
 21
181.9510502699
 31
0.0
  0
LINE
  5
1A2
330
122
100
AcDbEntity
  8
27576__DICHTPROFI
  6
Continuous
 62
     7
100
AcDbLine
 10
140.5981587704
 20
182.6510502699
 30
0.0
 11
140.2981587704
 21
182.6510502699
 31
0.0
  0
LINE
  5
1A3
330
122
100
AcDbEntity
  8
27576__DICHTPROFI
  6
Continuous
 62
     7
100
AcDbLine
 10
140.7981587704
 20
182.4510502699
 30
0.0
 11
140.5981587704
 21
182.6510502699
 31
0.0
  0
LINE
  5
1A4
330
122
100
AcDbEntity
  8
27576__DICHTPROFI
  6
Continuous
 62
     7
100
AcDbLine
 10
140.9981587704
 20
182.6510502699
 30
0.0
 11
140.7981587704
 21
182.4510502699
 31
0.0
  0
LINE
  5
1A5
330
122
100
AcDbEntity
  8
27576__DICHTPROFI
  6
Continuous
 62
     7
100
AcDbLine
 10
141.2981587704
 20
182.6510502699
 30
0.0
 11
140.9981587704
 21
182.6510502699
 31
0.0
  0
LINE
  5
1A6
330
122
100
AcDbEntity
  8
27576__DICHTPROFI
  6
Continuous
 62
     7
100
AcDbLine
 10
141.2981587704
 20
181.1510502699
 30
0.0
 11
141.2981587704
 21
182.6510502699
 31
0.0
  0
LINE
  5
1A7
330
122
100
AcDbEntity
  8
27576__DICHTPROFI
  6
Continuous
 62
     7
100
AcDbLine
 10
140.7981587704
 20
180.6510502699
 30
0.0
 11
141.2981587704
 21
181.1510502699
 31
0.0
  0
LINE
  5
1A8
330
122
100
AcDbEntity
  8
27576__DICHTPROFI
  6
Continuous
 62
     7
100
AcDbLine
 10
139.4481587704
 20
180.6510502699
 30
0.0
 11
140.7981587704
 21
180.6510502699
 31
0.0
  0
ARC
  5
1A9
330
122
100
AcDbEntity
  8
27576__DICHTPROFI
  6
Continuous
 62
     7
100
AcDbCircle
 10
139.4481587704
 20
179.9010502699
 30
0.0
 40
0.7500000000000007
100
AcDbArc
 50
90.0
 51
270.0
  0
LINE
  5
1AA
330
122
100
AcDbEntity
  8
27576__DICHTPROFI
  6
Continuous
 62
     7
100
AcDbLine
 10
141.1981587856
 20
179.1510502699
 30
0.0
 11
139.4481587704
 21
179.1510502699
 31
0.0
  0
LINE
  5
1AB
330
122
100
AcDbEntity
  8
27576__DICHTPROFI
  6
Continuous
 62
     7
100
AcDbLine
 10
141.1981587856
 20
175.6800108514
 30
0.0
 11
141.1981587856
 21
179.1510502699
 31
0.0
  0
ARC
  5
1AC
330
122
100
AcDbEntity
  8
27576__DICHTPROFI
  6
Continuous
 62
     7
100
AcDbCircle
 10
141.2981588074
 20
175.568207472
 30
0.0
 40
0.1499999999999997
100
AcDbArc
 50
183.1896672823
 51
131.8103260471
  0
LINE
  5
1AD
330
122
100
AcDbEntity
  8
27576__DICHTPROFI
  6
Continuous
 62
     7
100
AcDbLine
 10
137.9565051687
 20
172.3679750387
 30
0.0
 11
141.1483911851
 21
175.5598612552
 31
0.0
  0
ARC
  5
1AE
330
122
100
AcDbEntity
  8
27576__DICHTPROFI
  6
Continuous
 62
     7
100
AcDbCircle
 10
137.9481587715
 20
172.2182074265
 30
0.0
 40
0.1500000000000001
100
AcDbArc
 50
93.1896694913
 51
86.8102637121
  0
LINE
  5
1AF
330
122
100
AcDbEntity
  8
27576__DICHTPROFI
  6
Continuous
 62
     7
100
AcDbLine
 10
134.7479263906
 20
175.5598612067
 30
0.0
 11
137.9398125489
 21
172.3679750484
 31
0.0
  0
ARC
  5
1B0
330
122
100
AcDbEntity
  8
27576__DICHTPROFI
  6
Continuous
 62
     7
100
AcDbCircle
 10
134.598158771
 20
175.5682074705
 30
0.0
 40
0.1499999999999998
100
AcDbArc
 50
48.1896853907
 51
356.8103147497
  0
LINE
  5
1B1
330
122
100
AcDbEntity
  8
27576__DICHTPROFI
  6
Continuous
 62
     7
100
AcDbLine
 10
134.6981587704
 20
179.1510502699
 30
0.0
 11
134.6981587704
 21
175.6800108699
 31
0.0
  0
LINE
  5
1B2
330
122
100
AcDbEntity
  8
27576__DICHTPROFI
  6
Continuous
 62
     7
100
AcDbLine
 10
136.4481587704
 20
179.1510502699
 30
0.0
 11
134.6981587704
 21
179.1510502699
 31
0.0
  0
ARC
  5
1B3
330
122
100
AcDbEntity
  8
27576__DICHTPROFI
  6
Continuous
 62
     7
100
AcDbCircle
 10
136.4481587704
 20
179.9010502699
 30
0.0
 40
0.7500000000000007
100
AcDbArc
 50
270.0
 51
90.0
  0
LINE
  5
1B4
330
122
100
AcDbEntity
  8
27576__DICHTPROFI
  6
Continuous
 62
     7
100
AcDbLine
 10
135.0981587704
 20
180.6510502699
 30
0.0
 11
136.4481587704
 21
180.6510502699
 31
0.0
  0
LINE
  5
1B5
330
122
100
AcDbEntity
  8
27576__DICHTPROFI
  6
Continuous
 62
     7
100
AcDbLine
 10
134.5981587704
 20
181.1510502699
 30
0.0
 11
135.0981587704
 21
180.6510502699
 31
0.0
  0
LINE
  5
1B6
330
122
100
AcDbEntity
  8
27576__DICHTPROFI
  6
Continuous
 62
     7
100
AcDbLine
 10
134.5981587704
 20
182.6510502699
 30
0.0
 11
134.5981587704
 21
181.1510502699
 31
0.0
  0
LINE
  5
1B7
330
122
100
AcDbEntity
  8
27576__DICHTPROFI
  6
Continuous
 62
     7
100
AcDbLine
 10
134.8981587705
 20
182.6510502699
 30
0.0
 11
134.5981587704
 21
182.6510502699
 31
0.0
  0
LINE
  5
1B8
330
122
100
AcDbEntity
  8
27576__DICHTPROFI
  6
Continuous
 62
     7
100
AcDbLine
 10
135.0981587705
 20
182.4510502699
 30
0.0
 11
134.8981587705
 21
182.6510502699
 31
0.0
  0
LINE
  5
1B9
330
122
100
AcDbEntity
  8
27576__DICHTPROFI
  6
Continuous
 62
     7
100
AcDbLine
 10
135.2981587705
 20
182.6510502699
 30
0.0
 11
135.0981587705
 21
182.4510502699
 31
0.0
  0
CIRCLE
  5
1BA
330
122
100
AcDbEntity
  8
10472_AUSLÖSERKN
  6
Continuous
 62
     7
100
AcDbCircle
 10
137.948158778
 20
194.2010102574
 30
0.0
 40
4.6
  0
ARC
  5
1BB
330
122
100
AcDbEntity
  8
10472_AUSLÖSERKN
  6
Continuous
 62
     7
100
AcDbCircle
 10
137.948158778
 20
194.2010102574
 30
0.0
 40
2.067
100
AcDbArc
 50
166.0015014717
 51
193.9984985283
  0
ARC
  5
1BC
330
122
100
AcDbEntity
  8
10472_AUSLÖSERKN
  6
Continuous
 62
     7
100
AcDbCircle
 10
137.948158778
 20
194.2010102574
 30
0.0
 40
2.066999999999998
100
AcDbArc
 50
76.0015014717
 51
103.9984985283
  0
ARC
  5
1BD
330
122
100
AcDbEntity
  8
10472_AUSLÖSERKN
  6
Continuous
 62
     7
100
AcDbCircle
 10
137.948158778
 20
194.2010102574
 30
0.0
 40
2.067
100
AcDbArc
 50
346.0015014717
 51
13.9984985283
  0
ARC
  5
1BE
330
122
100
AcDbEntity
  8
10472_AUSLÖSERKN
  6
Continuous
 62
     7
100
AcDbCircle
 10
137.948158778
 20
194.2010102574
 30
0.0
 40
2.066999999999998
100
AcDbArc
 50
256.0015014717
 51
283.9984985283
  0
ARC
  5
1BF
330
122
100
AcDbEntity
  8
10472_AUSLÖSERKN
  6
Continuous
 62
     7
100
AcDbCircle
 10
137.948158778
 20
194.2010102574
 30
0.0
 40
3.0
100
AcDbArc
 50
170.4059317731
 51
189.5940682269
  0
ARC
  5
1C0
330
122
100
AcDbEntity
  8
10472_AUSLÖSERKN
  6
Continuous
 62
     7
100
AcDbCircle
 10
137.948158778
 20
194.2010102574
 30
0.0
 40
3.000000000000001
100
AcDbArc
 50
260.4059317731
 51
279.5940682269
  0
ARC
  5
1C1
330
122
100
AcDbEntity
  8
10472_AUSLÖSERKN
  6
Continuous
 62
     7
100
AcDbCircle
 10
137.948158778
 20
194.2010102574
 30
0.0
 40
3.0
100
AcDbArc
 50
350.4059317731
 51
9.5940682269
  0
ARC
  5
1C2
330
122
100
AcDbEntity
  8
10472_AUSLÖSERKN
  6
Continuous
 62
     7
100
AcDbCircle
 10
137.948158778
 20
194.2010102574
 30
0.0
 40
3.0
100
AcDbArc
 50
80.4059317731
 51
99.5940682269
  0
LINE
  5
1C3
330
122
100
AcDbEntity
  8
10472_AUSLÖSERKN
  6
Continuous
 62
     7
100
AcDbLine
 10
138.448158778
 20
197.1590501489
 30
0.0
 11
138.448158778
 21
195.7010102574
 31
0.0
  0
LINE
  5
1C4
330
122
100
AcDbEntity
  8
10472_AUSLÖSERKN
  6
Continuous
 62
     7
100
AcDbLine
 10
140.9061986695
 20
193.7010102574
 30
0.0
 11
139.448158778
 21
193.7010102574
 31
0.0
  0
LINE
  5
1C5
330
122
100
AcDbEntity
  8
10472_AUSLÖSERKN
  6
Continuous
 62
     7
100
AcDbLine
 10
137.448158778
 20
191.2429703658
 30
0.0
 11
137.448158778
 21
192.7010102574
 31
0.0
  0
LINE
  5
1C6
330
122
100
AcDbEntity
  8
10472_AUSLÖSERKN
  6
Continuous
 62
     7
100
AcDbLine
 10
134.9901188864
 20
194.7010102574
 30
0.0
 11
136.448158778
 21
194.7010102574
 31
0.0
  0
LINE
  5
1C7
330
122
100
AcDbEntity
  8
10472_AUSLÖSERKN
  6
Continuous
 62
     7
100
AcDbLine
 10
137.448158778
 20
195.7010102574
 30
0.0
 11
137.448158778
 21
197.1590501489
 31
0.0
  0
ARC
  5
1C8
330
122
100
AcDbEntity
  8
10472_AUSLÖSERKN
  6
Continuous
 62
     7
100
AcDbCircle
 10
136.448158778
 20
195.7010102574
 30
0.0
 40
0.9999999999999996
100
AcDbArc
 50
270.0
 51
0.0
  0
LINE
  5
1C9
330
122
100
AcDbEntity
  8
10472_AUSLÖSERKN
  6
Continuous
 62
     7
100
AcDbLine
 10
136.448158778
 20
193.7010102574
 30
0.0
 11
134.9901188949
 21
193.7010102574
 31
0.0
  0
ARC
  5
1CA
330
122
100
AcDbEntity
  8
10472_AUSLÖSERKN
  6
Continuous
 62
     7
100
AcDbCircle
 10
136.448158778
 20
192.7010102574
 30
0.0
 40
1.0
100
AcDbArc
 50
0.0
 51
90.0
  0
LINE
  5
1CB
330
122
100
AcDbEntity
  8
10472_AUSLÖSERKN
  6
Continuous
 62
     7
100
AcDbLine
 10
138.448158778
 20
192.7010102574
 30
0.0
 11
138.448158778
 21
191.2429704157
 31
0.0
  0
ARC
  5
1CC
330
122
100
AcDbEntity
  8
10472_AUSLÖSERKN
  6
Continuous
 62
     7
100
AcDbCircle
 10
139.448158778
 20
192.7010102574
 30
0.0
 40
0.9999999999999987
100
AcDbArc
 50
90.0
 51
180.0
  0
LINE
  5
1CD
330
122
100
AcDbEntity
  8
10472_AUSLÖSERKN
  6
Continuous
 62
     7
100
AcDbLine
 10
139.448158778
 20
194.7010102574
 30
0.0
 11
140.906198678
 21
194.7010102574
 31
0.0
  0
ARC
  5
1CE
330
122
100
AcDbEntity
  8
10472_AUSLÖSERKN
  6
Continuous
 62
     7
100
AcDbCircle
 10
139.448158778
 20
195.7010102574
 30
0.0
 40
0.9999999999999979
100
AcDbArc
 50
180.0
 51
270.0
  0
ENDBLK
  5
1D0
330
122
100
AcDbEntity
  8
0
100
AcDbBlockEnd
  0
BLOCK
  5
1D3
330
1D2
100
AcDbEntity
  8
0
100
AcDbBlockBegin
  2
_Oblique
 70
     0
 10
0.0
 20
0.0
 30
0.0
  3
_Oblique
  1

  0
LINE
  5
1D5
330
1D2
100
AcDbEntity
  8
0
  6
ByBlock
 62
     0
370
    -2
100
AcDbLine
 10
-0.5
 20
-0.5
 30
0.0
 11
0.5
 21
0.5
 31
0.0
  0
ENDBLK
  5
1D4
330
1D2
100
AcDbEntity
  8
0
100
AcDbBlockEnd
  0
BLOCK
  5
1D7
330
1D6
100
AcDbEntity
  8
0
100
AcDbBlockBegin
  2
_Dot
 70
     0
 10
0.0
 20
0.0
 30
0.0
  3
_Dot
  1

  0
LWPOLYLINE
  5
1D9
330
1D6
100
AcDbEntity
  8
0
  6
ByBlock
 62
     0
100
AcDbPolyline
 90
        2
 70
     1
 43
0.5
 10
-0.25
 20
0.0
 42
1.0
 10
0.25
 20
0.0
 42
1.0
  0
LINE
  5
1DA
330
1D6
100
AcDbEntity
  8
0
  6
ByBlock
 62
     0
370
    -2
100
AcDbLine
 10
-0.5
 20
0.0
 30
0.0
 11
-1.0
 21
0.0
 31
0.0
  0
ENDBLK
  5
1D8
330
1D6
100
AcDbEntity
  8
0
100
AcDbBlockEnd
  0
BLOCK
  5
1DF
330
1DB
100
AcDbEntity
  8
0
100
AcDbBlockBegin
  2
_SE_OPEN
 70
     0
 10
0.0
 20
0.0
 30
0.0
  3
_SE_OPEN
  1

  0
LINE
  5
1DC
330
1DB
100
AcDbEntity
  8
0
 62
     0
100
AcDbLine
 10
0.0
 20
0.0
 30
0.0
 11
-1.0
 21
-0.1665
 31
0.0
  0
LINE
  5
1DD
330
1DB
100
AcDbEntity
  8
0
 62
     0
100
AcDbLine
 10
-1.0
 20
0.1665
 30
0.0
 11
0.0
 21
0.0
 31
0.0
  0
LINE
  5
1DE
330
1DB
100
AcDbEntity
  8
0
 62
     0
100
AcDbLine
 10
0.0
 20
0.0
 30
0.0
 11
-1.0
 21
0.0
 31
0.0
  0
ENDBLK
  5
1E0
330
1DB
100
AcDbEntity
  8
0
100
AcDbBlockEnd
  0
BLOCK
  5
1EB
330
1E4
100
AcDbEntity
  8
0
100
AcDbBlockBegin
  2
DMBLK4
 70
     0
 10
0.0
 20
0.0
 30
0.0
  3
DMBLK4
  1

  0
LWPOLYLINE
  5
1E5
330
1E4
100
AcDbEntity
  8
Standard
  6
Continuous
 62
     7
100
AcDbPolyline
 90
        3
 70
     0
 43
0.0
 10
65.1302274581
 20
205.0979241328
 10
68.8802273743
 20
205.7229241189
 10
65.1302274581
 20
206.3479241049
  0
LWPOLYLINE
  5
1E6
330
1E4
100
AcDbEntity
  8
Standard
  6
Continuous
 62
     7
100
AcDbPolyline
 90
        3
 70
     0
 43
0.0
 10
60.6302271862
 20
205.0979241328
 10
56.88022727
 20
205.7229241189
 10
60.6302271862
 20
206.3479241049
  0
LINE
  5
1E7
330
1E4
100
AcDbEntity
  8
Standard
  6
Continuous
 62
     7
100
AcDbLine
 10
68.8802273743
 20
200.6010102639
 30
0.0
 11
68.8802273743
 21
206.9729240909
 31
0.0
  0
LINE
  5
1E8
330
1E4
100
AcDbEntity
  8
Standard
  6
Continuous
 62
     7
100
AcDbLine
 10
56.8802273743
 20
200.6010102639
 30
0.0
 11
56.8802273743
 21
206.9729240909
 31
0.0
  0
LINE
  5
1E9
330
1E4
100
AcDbEntity
  8
Standard
  6
Continuous
 62
     7
100
AcDbLine
 10
68.8802273743
 20
205.7229241189
 30
0.0
 11
56.88022727
 21
205.7229241189
 31
0.0
  0
TEXT
  5
1EA
330
1E4
100
AcDbEntity
  8
Standard
  6
Continuous
 62
     7
100
AcDbText
 10
60.923705583
 20
206.3479241189
 30
0.0
 40
2.5
  1
12
  7
SEACAD_Arial
 11
60.923705583
 21
208.8479241189
 31
0.0
100
AcDbText
 73
     3
  0
ENDBLK
  5
1EC
330
1E4
100
AcDbEntity
  8
0
100
AcDbBlockEnd
  0
BLOCK
  5
1F5
330
1EE
100
AcDbEntity
  8
0
100
AcDbBlockBegin
  2
DMBLK5
 70
     0
 10
0.0
 20
0.0
 30
0.0
  3
DMBLK5
  1

  0
LWPOLYLINE
  5
1EF
330
1EE
100
AcDbEntity
  8
Standard
  6
Continuous
 62
     7
100
AcDbPolyline
 90
        3
 70
     0
 43
0.0
 10
80.1677431947
 20
175.8010101735
 10
80.7927431807
 20
172.0510102574
 10
81.4177431668
 20
175.8010101735
  0
LWPOLYLINE
  5
1F0
330
1EE
100
AcDbEntity
  8
Standard
  6
Continuous
 62
     7
100
AcDbPolyline
 90
        3
 70
     0
 43
0.0
 10
80.1677431947
 20
196.3010112055
 10
80.7927431807
 20
200.0510111216
 10
81.4177431668
 20
196.3010112055
  0
LINE
  5
1F1
330
1EE
100
AcDbEntity
  8
Standard
  6
Continuous
 62
     7
100
AcDbLine
 10
76.7302273808
 20
172.0510102574
 30
0.0
 11
82.0427431528
 21
172.0510102574
 31
0.0
  0
LINE
  5
1F2
330
1EE
100
AcDbEntity
  8
Standard
  6
Continuous
 62
     7
100
AcDbLine
 10
69.4302273808
 20
200.0510102574
 30
0.0
 11
82.0427431528
 21
200.0510102574
 31
0.0
  0
LINE
  5
1F3
330
1EE
100
AcDbEntity
  8
Standard
  6
Continuous
 62
     7
100
AcDbLine
 10
80.7927431807
 20
172.0510102574
 30
0.0
 11
80.7927431807
 21
200.0510111216
 31
0.0
  0
TEXT
  5
1F4
330
1EE
100
AcDbEntity
  8
Standard
  6
Continuous
 62
     7
100
AcDbText
 10
80.1677431807
 20
184.0944889504
 30
0.0
 40
2.5
  1
28
 50
90.0
  7
SEACAD_Arial
 11
77.6677431807
 21
184.0944889504
 31
0.0
100
AcDbText
 73
     3
  0
ENDBLK
  5
1F6
330
1EE
100
AcDbEntity
  8
0
100
AcDbBlockEnd
  0
BLOCK
  5
1FF
330
1F8
100
AcDbEntity
  8
0
100
AcDbBlockBegin
  2
DMBLK6
 70
     0
 10
0.0
 20
0.0
 30
0.0
  3
DMBLK6
  1

  0
LWPOLYLINE
  5
1F9
330
1F8
100
AcDbEntity
  8
Standard
  6
Continuous
 62
     7
100
AcDbPolyline
 90
        3
 70
     0
 43
0.0
 10
53.1302272905
 20
210.5289418662
 10
49.3802273743
 20
211.1539418522
 10
53.1302272905
 20
211.7789418382
  0
LWPOLYLINE
  5
1FA
330
1F8
100
AcDbEntity
  8
Standard
  6
Continuous
 62
     7
100
AcDbPolyline
 90
        3
 70
     0
 43
0.0
 10
72.6302281585
 20
210.5289418662
 10
76.3802280747
 20
211.1539418522
 10
72.6302281585
 20
211.7789418382
  0
LINE
  5
1FB
330
1F8
100
AcDbEntity
  8
Standard
  6
Continuous
 62
     7
100
AcDbLine
 10
49.3802273743
 20
173.4010102639
 30
0.0
 11
49.3802273743
 21
212.4039418243
 31
0.0
  0
LINE
  5
1FC
330
1F8
100
AcDbEntity
  8
Standard
  6
Continuous
 62
     7
100
AcDbLine
 10
76.3802273743
 20
173.2010102639
 30
0.0
 11
76.3802273743
 21
212.4039418243
 31
0.0
  0
LINE
  5
1FD
330
1F8
100
AcDbEntity
  8
Standard
  6
Continuous
 62
     7
100
AcDbLine
 10
49.3802273743
 20
211.1539418522
 30
0.0
 11
76.3802280747
 21
211.1539418522
 31
0.0
  0
TEXT
  5
1FE
330
1F8
100
AcDbEntity
  8
Standard
  6
Continuous
 62
     7
100
AcDbText
 10
60.9237059854
 20
211.7789418522
 30
0.0
 40
2.5
  1
27
  7
SEACAD_Arial
 11
60.9237059854
 21
214.2789418522
 31
0.0
100
AcDbText
 73
     3
  0
ENDBLK
  5
200
330
1F8
100
AcDbEntity
  8
0
100
AcDbBlockEnd
  0
BLOCK
  5
20B
330
209
100
AcDbEntity
  8
0
100
AcDbBlockBegin
  2
SEANNOT_GROUP
 70
     0
 10
0.0
 20
0.0
 30
0.0
  3
SEANNOT_GROUP
  1

  0
ENDBLK
  5
20C
330
209
100
AcDbEntity
  8
0
100
AcDbBlockEnd
  0
BLOCK
  5
20E
330
20D
100
AcDbEntity
  8
0
100
AcDbBlockBegin
  2
_NONE
 70
     0
 10
0.0
 20
0.0
 30
0.0
  3
_NONE
  1

  0
ENDBLK
  5
20F
330
20D
100
AcDbEntity
  8
0
100
AcDbBlockEnd
  0
ENDSEC
  0
SECTION
  2
ENTITIES
  0
INSERT
  5
70
330
1F
100
AcDbEntity
  8
Standard
100
AcDbBlockReference
  2
SE
 10
0.0
 20
0.0
 30
0.0
  0
INSERT
  5
123
330
1F
100
AcDbEntity
  8
Standard
100
AcDbBlockReference
  2
SE1
 10
0.0
 20
0.0
 30
0.0
  0
DIMENSION
  5
1E3
330
1F
100
AcDbEntity
  8
Standard
  6
Continuous
 62
     7
100
AcDbDimension
  2
DMBLK4
 10
56.8802273743
 20
205.7229241189
 30
0.0
 11
62.8802273222
 21
205.7229241189
 31
0.0
 70
   160
  1
\A1;<>
 71
     5
 42
-1.0
 73
     0
 74
     0
 75
     0
  3
E-Katalog
100
AcDbAlignedDimension
 13
68.8802273743
 23
199.8510102574
 33
0.0
 14
56.8802273743
 24
199.8510102574
 34
0.0
100
AcDbRotatedDimension
  0
DIMENSION
  5
1ED
330
1F
100
AcDbEntity
  8
Standard
  6
Continuous
 62
     7
100
AcDbDimension
  2
DMBLK5
 10
80.7927431807
 20
200.0510102574
 30
0.0
 11
80.7927431807
 21
186.0510106895
 31
0.0
 70
   160
  1
\A1;<>
 71
     5
 42
-1.0
 73
     0
 74
     0
 75
     0
  3
E-Katalog
100
AcDbAlignedDimension
 13
75.9802273743
 23
172.0510102574
 33
0.0
 14
68.6802273743
 24
200.0510102574
 34
0.0
 50
90.0
100
AcDbRotatedDimension
  0
DIMENSION
  5
1F7
330
1F
100
AcDbEntity
  8
Standard
  6
Continuous
 62
     7
100
AcDbDimension
  2
DMBLK6
 10
76.3802273743
 20
211.1539418522
 30
0.0
 11
62.8802277245
 21
211.1539418522
 31
0.0
 70
   160
  1
\A1;<>
 71
     5
 42
-1.0
 73
     0
 74
     0
 75
     0
  3
E-Katalog
100
AcDbAlignedDimension
 13
49.3802273743
 23
172.6510102574
 33
0.0
 14
76.3802273743
 24
172.4510102574
 34
0.0
100
AcDbRotatedDimension
  0
MTEXT
  5
202
330
1F
100
AcDbEntity
  8
Default
100
AcDbMText
 10
139.6221177889
 20
28.161474171
 30
0.0
 40
2.5
 41
60.0887616677
 46
5.4782708696
 71
     4
 72
     1
  1
{\fSolid Edge ISO|b0||i0||c0|p34;\C7;\H2.5;\W1.;Isolporte Omega 1.-seit}
 73
     1
 44
1.0
1001
ACAD
1000
ACAD_MTEXT_DEFINED_HEIGHT_BEGIN
1070
    46
1040
5.4782708696
1000
ACAD_MTEXT_DEFINED_HEIGHT_END
  0
LINE
  5
203
330
1F
100
AcDbEntity
  8
Default
  6
Continuous
 62
     7
100
AcDbLine
 10
138.2000000051
 20
9.9999999541
 30
0.0
 11
138.2000000051
 21
34.3502211504
 31
0.0
  0
MTEXT
  5
204
330
1F
100
AcDbEntity
  8
Default
100
AcDbMText
 10
122.5168744495
 20
17.5485405285
 30
0.0
 40
2.2
 41
15.7520375387
 46
4.0615484615
 71
     1
 72
     1
  1
{\fSolid Edge ANSI|b0||i0||c0|p34;\C7;\H2.2;\W1.;Maßst.}{\fSolid Edge ANSI|b0||i0||c0|p34;\C7;\H1.5;\W1.;/ scale}
 73
     1
 44
1.0
1001
ACAD
1000
ACAD_MTEXT_DEFINED_HEIGHT_BEGIN
1070
    46
1040
4.0615484615
1000
ACAD_MTEXT_DEFINED_HEIGHT_END
  0
MTEXT
  5
205
330
1F
100
AcDbEntity
  8
Default
100
AcDbMText
 10
148.2238718478
 20
15.907103298
 30
0.0
 40
2.2
 41
18.1206027323
 46
4.0615484615
 71
     5
 72
     1
  1
{\fSolid Edge ANSI|b0||i0||c0|p34;\C7;\H2.2;\W1.;Art. Nr.}{\fSolid Edge ANSI|b0||i0||c0|p34;\C7;\H1.5;\W1.;/ art. no.}
 73
     1
 44
1.0
1001
ACAD
1000
ACAD_MTEXT_DEFINED_HEIGHT_BEGIN
1070
    46
1040
4.0615484615
1000
ACAD_MTEXT_DEFINED_HEIGHT_END
  0
MTEXT
  5
206
330
1F
100
AcDbEntity
  8
Default
100
AcDbMText
 10
139.5512791446
 20
32.9682471949
 30
0.0
 40
2.2
 41
21.7100432289
 46
4.0615484615
 71
     1
 72
     1
  1
{\fSolid Edge ANSI|b0||i0||c0|p34;\C7;\H2.2;\W1.;Benennung}{\fSolid Edge ANSI|b0||i0||c0|p34;\C7;\H1.5;\W1.;/ title}
 73
     1
 44
1.0
1001
ACAD
1000
ACAD_MTEXT_DEFINED_HEIGHT_BEGIN
1070
    46
1040
4.0615484615
1000
ACAD_MTEXT_DEFINED_HEIGHT_END
  0
LINE
  5
207
330
1F
100
AcDbEntity
  8
Default
  6
Continuous
 62
     7
100
AcDbLine
 10
9.9999999859
 20
25.9987912971
 30
0.0
 11
199.9999999859
 21
25.9987912971
 31
0.0
  0
LINE
  5
208
330
1F
100
AcDbEntity
  8
Default
  6
Continuous
 62
     7
100
AcDbLine
 10
138.2000000051
 20
34.3502211504
 30
0.0
 11
199.9999999859
 21
34.3502211504
 31
0.0
  0
INSERT
  5
20A
330
1F
100
AcDbEntity
  8
Standard
100
AcDbBlockReference
  2
SEANNOT_GROUP
 10
0.0
 20
0.0
 30
0.0
  0
MULTILEADER
  5
210
330
1F
100
AcDbEntity
  8
Standard
  6
Continuous
 62
     7
 92
      224
310
E0000000020000000C00000013000000993A0000CC0000002600000024AC20655A0D60407E6F6387C31D2640000000000000000000000000000000000000000000000000000000000000F03F000000000000F03F0000000000000000000000000000000031003A003100000003000000010000003333333333330940000000
310
000000F03F0000000000000000000000000000F03F00000000000000000000000000000000000000000000000000000000000000002200000053006F006C0069006400200045006400670065002000490053004F00000000000000000000000000
100
AcDbMLeader
300
CONTEXT_DATA{
 40
1.0
 10
126.5558845495
 20
12.6331323918
 30
0.0
 41
3.15
140
4.725
145
1.1025
174
     1
175
     1
176
     0
177
     0
290
     1
304
{\pxsm1.;\fSolid Edge ISO|b0||i0||c0|p34;\W1.;1:1\P}
 11
0.0
 21
0.0
 31
1.0
340
11
 12
128.5558845495
 22
14.2112823918
 32
0.0
 13
1.0
 23
0.0
 33
0.0
 42
0.0
 43
0.0
 44
0.0
 45
1.0
170
     1
 90
-1023410169
171
     1
172
     1
 91
-939524096
141
1.5
 92
        0
291
     0
292
     0
173
     0
293
     0
142
0.0
143
0.0
294
     0
295
     0
296
     0
110
0.0
120
0.0
130
0.0
111
1.0
121
0.0
131
0.0
112
0.0
122
1.0
132
0.0
297
     0
301
}
340
6C
 90
 35119009
170
     0
 91
-1056964608
341
14
171
    -2
290
     1
291
     1
 41
0.0
342
20D
 42
4.725
172
     2
343
11
173
     1
 95
        1
174
     1
175
     0
 92
-1023410169
292
     0
 93
-1023410169
 10
1.0
 20
1.0
 30
1.0
 43
0.0
176
     0
293
     0
294
     0
178
     0
179
     1
 45
1.0
1001
ACAD_MLEADERVER
1070
     2
  0
MTEXT
  5
211
330
1F
100
AcDbEntity
  8
Default
100
AcDbMText
 10
139.7786414766
 20
12.1030055624
 30
0.0
 40
3.0
 41
18.7991063348
 46
5.0845858028
 71
     4
 72
     1
  1
{\fSolid Edge ISO|b0||i0||c0|p34;\C7;\H3.;\W1.;1-147}
 73
     1
 44
1.0
1001
ACAD
1000
ACAD_MTEXT_DEFINED_HEIGHT_BEGIN
1070
    46
1040
5.0845858028
1000
ACAD_MTEXT_DEFINED_HEIGHT_END
  0
MTEXT
  5
212
330
1F
100
AcDbEntity
  8
Standard
100
AcDbMText
 10
128.2243715112
 20
21.9523050455
 30
0.0
 40
2.5
 41
4.125011
 46
4.0909190909
 71
     1
 72
     1
  1
{\fSolid Edge ISO|b0||i0||c0|p34;\C7;\H2.5;\W1.;mm}
 73
     1
 44
1.0
1001
ACAD
1000
ACAD_MTEXT_DEFINED_HEIGHT_BEGIN
1070
    46
1040
4.0909190909
1000
ACAD_MTEXT_DEFINED_HEIGHT_END
  0
LINE
  5
213
330
1F
100
AcDbEntity
  8
Standard
  6
Continuous
 62
     7
100
AcDbLine
 10
138.2000000051
 20
18.2287912793
 30
0.0
 11
106.3095894048
 21
18.2287912793
 31
0.0
  0
LINE
  5
214
330
1F
100
AcDbEntity
  8
Standard
  6
Continuous
 62
     7
100
AcDbLine
 10
106.3095894048
 20
25.9987912971
 30
0.0
 11
106.3095894048
 21
9.9999999541
 31
0.0
  0
MTEXT
  5
215
330
1F
100
AcDbEntity
  8
Standard
100
AcDbMText
 10
106.9145404388
 20
25.2290846617
 30
0.0
 40
2.2
 41
14.4015494615
 46
4.0615484615
 71
     1
 72
     1
  1
{\fSolid Edge ANSI|b0||i0||c0|p34;\C7;\H2.2;\W1.;freig.}{\fSolid Edge ANSI|b0||i0||c0|p34;\C7;\H1.5;\W1.;/ appr.}
 73
     1
 44
1.0
1001
ACAD
1000
ACAD_MTEXT_DEFINED_HEIGHT_BEGIN
1070
    46
1040
4.0615484615
1000
ACAD_MTEXT_DEFINED_HEIGHT_END
  0
MTEXT
  5
216
330
1F
100
AcDbEntity
  8
Default
100
AcDbMText
 10
107.6188207159
 20
17.6037681847
 30
0.0
 40
2.2
 41
13.1956831311
 46
4.0615484615
 71
     1
 72
     1
  1
{\fSolid Edge ANSI|b0||i0||c0|p34;\C7;\H2.2;\W1.;Blatt}{\fSolid Edge ANSI|b0||i0||c0|p34;\C7;\H1.5;\W1.;/ sheet}
 73
     1
 44
1.0
1001
ACAD
1000
ACAD_MTEXT_DEFINED_HEIGHT_BEGIN
1070
    46
1040
4.0615484615
1000
ACAD_MTEXT_DEFINED_HEIGHT_END
  0
MTEXT
  5
217
330
1F
100
AcDbEntity
  8
Standard
100
AcDbMText
 10
112.0531670475
 20
14.2192192227
 30
0.0
 40
3.0
 41
3.750011
 46
4.9091009091
 71
     1
 72
     1
  1
{\fSolid Edge ISO|b0||i0||c0|p34;\C7;\H3.;\W1.;A4}
 73
     1
 44
1.0
1001
ACAD
1000
ACAD_MTEXT_DEFINED_HEIGHT_BEGIN
1070
    46
1040
4.9091009091
1000
ACAD_MTEXT_DEFINED_HEIGHT_END
  0
MTEXT
  5
218
330
1F
100
AcDbEntity
  8
Standard
100
AcDbMText
 10
10.6587314417
 20
33.7981133176
 30
0.0
 40
1.2
 41
127.5412685634
 46
8.1685527897
 71
     1
 72
     1
  3
{\fSolid Edge ANSI|b0||i0||c0|p34;\C7;\H1.2;\W1.;Weitergabe sowie Vervielfältigung dieser vertraulichen Unterlage(n), Verwertung und Mitteilung ihres Inhalts nicht ohne unsere vorherige schriftliche Genehmigung gestattet. \P}{\fSolid Edge ANSI|b0||i0
  3
||c0|p34;\C7;\H1.2;\W1.;Zuwiderhandlungen verpflichten zu Schadenersatz. Alle Rechte für den Fall der Patenterteilung oder Gebrauchsmuster-Eintragung vorbehalten.\P}{\fSolid Edge ANSI|b0||i0||c0|p34;\C7;\H1.;\W1.;The copying, use, distribution or dis
  3
closure of the confidential and proprietary information contained in this document(s) is strictly prohibited without prior written consent. Any breach shall subject the \P}{\fSolid Edge ANSI|b0||i0||c0|p34;\C7;\H1.;\W1.;infringing party to remedies. 
  1
The owner reserves all rights in the event of the grant of a patent or the registration of a utility model or design.}
 73
     1
 44
1.0
1001
ACAD
1000
ACAD_MTEXT_DEFINED_HEIGHT_BEGIN
1070
    46
1040
8.1685527897
1000
ACAD_MTEXT_DEFINED_HEIGHT_END
  0
MTEXT
  5
219
330
1F
100
AcDbEntity
  8
Default
100
AcDbMText
 10
139.5531289039
 20
20.5520608538
 30
0.0
 40
2.5
 41
59.872727305
 46
4.6153946154
 71
     4
 72
     1
  1
{\fSolid Edge ISO|b0||i0||c0|p34;\C7;\H2.5;\W1.;technische Zeichnung_mkt}
 73
     1
 44
1.0
1001
ACAD
1000
ACAD_MTEXT_DEFINED_HEIGHT_BEGIN
1070
    46
1040
4.6153946154
1000
ACAD_MTEXT_DEFINED_HEIGHT_END
  0
MTEXT
  5
21A
330
1F
100
AcDbEntity
  8
Default
100
AcDbMText
 10
139.645932934
 20
25.5772390452
 30
0.0
 40
2.2
 41
33.0612482929
 46
4.0615484615
 71
     1
 72
     1
  1
{\fSolid Edge ANSI|b0||i0||c0|p34;\C7;\H2.2;\W1.;Zeichnungsart}{\fSolid Edge ANSI|b0||i0||c0|p34;\C7;\H1.5;\W1.;/ drawing type}
 73
     1
 44
1.0
1001
ACAD
1000
ACAD_MTEXT_DEFINED_HEIGHT_BEGIN
1070
    46
1040
4.0615484615
1000
ACAD_MTEXT_DEFINED_HEIGHT_END
  0
MTEXT
  5
21B
330
1F
100
AcDbEntity
  8
Standard
100
AcDbMText
 10
122.722860057
 20
25.1473558409
 30
0.0
 40
2.2
 41
15.8428315128
 46
4.0615484615
 71
     1
 72
     1
  1
{\fSolid Edge ANSI|b0||i0||c0|p34;\C7;\H2.2;\W1.;Einheit}{\fSolid Edge ANSI|b0||i0||c0|p34;\C7;\H1.5;\W1.;/ unit}
 73
     1
 44
1.0
1001
ACAD
1000
ACAD_MTEXT_DEFINED_HEIGHT_BEGIN
1070
    46
1040
4.0615484615
1000
ACAD_MTEXT_DEFINED_HEIGHT_END
  0
LINE
  5
21C
330
1F
100
AcDbEntity
  8
Standard
  6
Continuous
 62
     7
100
AcDbLine
 10
122.1841943695
 20
25.9987912971
 30
0.0
 11
122.1841943695
 21
10.0
 31
0.0
  0
LINE
  5
21D
330
1F
100
AcDbEntity
  8
Standard
  6
Continuous
 62
     7
100
AcDbLine
 10
138.2000000051
 20
18.2287912793
 30
0.0
 11
200.0
 21
18.2287912793
 31
0.0
  0
LINE
  5
21E
330
1F
100
AcDbEntity
  8
Standard
  6
Continuous
 62
     7
100
AcDbLine
 10
138.2000000051
 20
34.3502211504
 30
0.0
 11
10.0
 21
34.3502211504
 31
0.0
  0
LINE
  5
220
330
1F
100
AcDbEntity
  8
Skizziergeometrie(DIN)
  6
Continuous
 62
     7
100
AcDbLine
 10
10.0
 20
287.0
 30
0.0
 11
200.0
 21
287.0
 31
0.0
  0
LINE
  5
221
330
1F
100
AcDbEntity
  8
Skizziergeometrie(DIN)
  6
Continuous
 62
     7
100
AcDbLine
 10
200.0
 20
287.0
 30
0.0
 11
200.0
 21
9.9999926436
 31
0.0
  0
LINE
  5
222
330
1F
100
AcDbEntity
  8
Skizziergeometrie(DIN)
  6
Continuous
 62
     7
100
AcDbLine
 10
200.0
 20
9.9999926436
 30
0.0
 11
10.0
 21
9.9999926436
 31
0.0
  0
LINE
  5
223
330
1F
100
AcDbEntity
  8
Skizziergeometrie(DIN)
  6
Continuous
 62
     7
100
AcDbLine
 10
10.0
 20
10.0
 30
0.0
 11
10.0
 21
287.0
 31
0.0
  0
IMAGE
  5
227
330
1F
100
AcDbEntity
  8
0
 92
      140
310
8C00000001000000840000000600000005000000132FCF2C236F2B40E2F8C052077A25400000000000000000B2C0EF17296D4740E2F8C052077A25400000000000000000B2C0EF17296D47405B153790EE6A38400000000000000000132FCF2C236F2B405B153790EE6A38400000000000000000132FCF2C236F2B40E2F8C0
310
52077A25400000000000000000
100
AcDbRasterImage
 90
        0
 10
13.7170652392
 20
10.738337122
 30
0.0
 11
0.009660568902312008
 21
0.0
 31
0.0
 12
0.0
 22
0.009660568902311975
 32
0.0
 13
3430.0
 23
1416.0
340
226
 70
     7
280
     0
281
    50
282
    50
283
     0
360
228
 71
     1
 91
        2
 14
-0.5
 24
-0.5
 14
3429.5
 24
1415.5
  0
ENDSEC
  0
SECTION
  2
OBJECTS
  0
DICTIONARY
  5
C
330
0
100
AcDbDictionary
281
     1
  3
ACAD_DETAILVIEWSTYLE
350
264
  3
ACAD_GROUP
350
D
  3
ACAD_IMAGE_DICT
350
225
  3
ACAD_IMAGE_VARS
350
224
  3
ACAD_LAYOUT
350
1A
  3
ACAD_MATERIAL
350
43
  3
ACAD_MLEADERSTYLE
350
6B
  3
ACAD_MLINESTYLE
350
17
  3
ACAD_PLOTSETTINGS
350
19
  3
ACAD_PLOTSTYLENAME
350
E
  3
ACAD_SCALELIST
350
47
  3
ACAD_SECTIONVIEWSTYLE
350
265
  3
ACAD_TABLESTYLE
350
69
  3
ACAD_VISUALSTYLE
350
2A
  3
ACDB_RECOMPOSE_DATA
350
261
  3
AcDbVariableDictionary
350
22A
  0
SUN
  5
6D
330
29
100
AcDbSun
 90
        1
290
     0
 63
     7
421
 16777215
 40
1.0
291
     1
 91
  2455826
 92
 54000000
292
     0
 70
     2
 71
   256
280
     1
  0
IMAGEDEF_REACTOR
  5
228
330
227
100
AcDbRasterImageDefReactor
 90
        2
330
227
  0
DICTIONARY
  5
264
102
{ACAD_REACTORS
330
C
102
}
330
C
100
AcDbDictionary
281
     1
  0
DICTIONARY
  5
D
102
{ACAD_REACTORS
330
C
102
}
330
C
100
AcDbDictionary
281
     1
  0
DICTIONARY
  5
225
102
{ACAD_REACTORS
330
C
102
}
330
C
100
AcDbDictionary
281
     1
  3
1-147_Bodendichtung_IMAGE_PASTED_FROM_CLIPBOARD_INTO_SOLID_EDGE_2_0.bmp
350
226
  0
RASTERVARIABLES
  5
224
102
{ACAD_REACTORS
330
C
102
}
330
C
100
AcDbRasterVariables
 90
        0
 70
     1
 71
     1
 72
     1
  0
DICTIONARY
  5
1A
102
{ACAD_REACTORS
330
C
102
}
330
C
100
AcDbDictionary
281
     1
  3
Layout1
350
1E
  3
Model
350
22
  0
DICTIONARY
  5
43
102
{ACAD_REACTORS
330
C
102
}
330
C
100
AcDbDictionary
281
     1
  3
ByBlock
350
45
  3
ByLayer
350
44
  3
Global
350
46
  0
DICTIONARY
  5
6B
102
{ACAD_REACTORS
330
C
102
}
330
C
100
AcDbDictionary
281
     1
  3
Standard
350
6C
  0
DICTIONARY
  5
17
102
{ACAD_REACTORS
330
C
102
}
330
C
100
AcDbDictionary
281
     1
  3
Standard
350
18
  0
DICTIONARY
  5
19
102
{ACAD_REACTORS
330
C
102
}
330
C
100
AcDbDictionary
281
     1
  0
ACDBDICTIONARYWDFLT
  5
E
102
{ACAD_REACTORS
330
C
102
}
330
C
100
AcDbDictionary
281
     1
  3
Normal
350
F
100
AcDbDictionaryWithDefault
340
F
  0
DICTIONARY
  5
47
102
{ACAD_REACTORS
330
C
102
}
330
C
100
AcDbDictionary
281
     1
  3
A0
350
48
  3
A1
350
49
  3
A2
350
4A
  3
A3
350
4B
  3
A4
350
4C
  3
A5
350
4D
  3
A6
350
4E
  3
A7
350
4F
  3
A8
350
50
  3
A9
350
51
  3
B0
350
52
  3
B1
350
53
  3
B2
350
54
  3
B3
350
55
  3
B4
350
56
  3
B5
350
57
  3
B6
350
58
  3
B7
350
59
  3
B8
350
5A
  3
B9
350
5B
  3
C0
350
5C
  3
C1
350
5D
  3
C2
350
5E
  3
C3
350
5F
  3
C4
350
60
  3
C5
350
61
  3
C6
350
62
  3
C7
350
63
  3
C8
350
64
  3
C9
350
65
  3
D0
350
66
  3
D1
350
67
  3
D2
350
68
  0
DICTIONARY
  5
265
102
{ACAD_REACTORS
330
C
102
}
330
C
100
AcDbDictionary
281
     1
  0
DICTIONARY
  5
69
102
{ACAD_REACTORS
330
C
102
}
330
C
100
AcDbDictionary
281
     1
  3
Standard
350
6A
  0
DICTIONARY
  5
2A
102
{ACAD_REACTORS
330
C
102
}
330
C
100
AcDbDictionary
281
     1
  3
2dWireframe
350
2F
  3
Basic
350
32
  3
Brighten
350
36
  3
ColorChange
350
3A
  3
Conceptual
350
34
  3
Dim
350
35
  3
EdgeColorOff
350
3D
  3
Facepattern
350
39
  3
Flat
350
2B
  3
FlatWithEdges
350
2C
  3
Gouraud
350
2D
  3
GouraudWithEdges
350
2E
  3
Hidden
350
31
  3
JitterOff
350
3B
  3
Linepattern
350
38
  3
OverhangOff
350
3C
  3
Realistic
350
33
  3
Shaded
350
42
  3
Shaded with edges
350
41
  3
Shades of Gray
350
3E
  3
Sketchy
350
3F
  3
Thicken
350
37
  3
Wireframe
350
30
  3
X-Ray
350
40
  0
XRECORD
  5
261
102
{ACAD_REACTORS
330
C
102
}
330
C
100
AcDbXrecord
280
     1
 90
        1
330
6A
  0
DICTIONARY
  5
22A
102
{ACAD_REACTORS
330
C
102
}
330
C
100
AcDbDictionary
281
     1
  3
CANNOSCALE
350
22B
  3
CENTEREXE
350
266
  3
CENTERLTYPEFILE
350
267
  3
CMLEADERSTYLE
350
263
  3
CTABLESTYLE
350
262
  3
XCLIPFRAME
350
22C
  0
IMAGEDEF
  5
226
102
{ACAD_REACTORS
330
225
330
228
102
}
330
225
100
AcDbRasterImageDef
 90
        0
  1
1-147_Bodendichtung_IMAGE_PASTED_FROM_CLIPBOARD_INTO_SOLID_EDGE_2_0.bmp
 10
3430.0
 20
1416.0
 11
0.0002915451895043732
 21
0.0002915451895043732
280
     1
281
     5
  0
LAYOUT
  5
1E
102
{ACAD_REACTORS
330
1A
102
}
330
1A
100
AcDbPlotSettings
  1

  2
none_device
  4

  6

 40
0.0
 41
0.0
 42
0.0
 43
0.0
 44
0.0
 45
0.0
 46
0.0
 47
0.0
 48
0.0
 49
0.0
140
0.0
141
0.0
142
1.0
143
1.0
 70
   688
 72
     1
 73
     0
 74
     5
  7

 75
    16
 76
     0
 77
     2
 78
   300
147
1.0
148
0.0
149
0.0
100
AcDbLayout
  1
Layout1
 70
     1
 71
     1
 10
0.0
 20
0.0
 11
210.0
 21
297.0
 12
0.0
 22
0.0
 32
0.0
 14
0.0
 24
0.0
 34
0.0
 15
210.0
 25
297.0
 35
0.0
146
0.0
 13
0.0
 23
0.0
 33
0.0
 16
1.0
 26
0.0
 36
0.0
 17
0.0
 27
1.0
 37
0.0
 76
     0
330
1B
  0
LAYOUT
  5
22
102
{ACAD_REACTORS
330
1A
102
}
330
1A
100
AcDbPlotSettings
  1

  2
none_device
  4
Letter_(8.50_x_11.00_Inches)
  6

 40
6.35
 41
6.35
 42
6.35000508
 43
6.35000508
 44
215.9
 45
279.4
 46
0.0
 47
0.0
 48
0.0
 49
0.0
140
0.0
141
0.0
142
1.0
143
1.0
 70
  1712
 72
     1
 73
     0
 74
     0
  7

 75
     0
 76
     0
 77
     2
 78
   300
147
1.0
148
0.0
149
0.0
100
AcDbLayout
  1
Model
 70
     1
 71
     0
 10
0.0
 20
0.0
 11
210.0
 21
297.0
 12
0.0
 22
0.0
 32
0.0
 14
0.0
 24
0.0
 34
0.0
 15
210.0
 25
297.0
 35
0.0
146
0.0
 13
0.0
 23
0.0
 33
0.0
 16
1.0
 26
0.0
 36
0.0
 17
0.0
 27
1.0
 37
0.0
 76
     0
330
1F
331
29
  0
MATERIAL
  5
45
102
{ACAD_REACTORS
330
43
102
}
330
43
100
AcDbMaterial
  1
ByBlock
 72
     1
 94
      127
  0
MATERIAL
  5
44
102
{ACAD_REACTORS
330
43
102
}
330
43
100
AcDbMaterial
  1
ByLayer
 72
     1
 94
      127
  0
MATERIAL
  5
46
102
{ACAD_REACTORS
330
43
102
}
330
43
100
AcDbMaterial
  1
Global
 72
     1
 94
      127
  0
MLEADERSTYLE
  5
6C
102
{ACAD_REACTORS
330
6B
102
}
102
{ACAD_XDICTIONARY
360
25F
102
}
330
6B
100
AcDbMLeaderStyle
170
     2
171
     1
172
     0
 90
        2
 40
0.0
 41
0.0
173
     1
 91
-1056964608
340
14
 92
       -2
290
     1
 42
2.0
291
     1
 43
8.0
  3
Standard
341
0
 44
4.0
300

342
11
174
     1
178
     6
175
     1
176
     0
 93
-1056964608
 45
4.0
292
     0
297
     0
 46
4.0
343
0
 94
-1056964608
 47
1.0
 49
1.0
140
1.0
293
     1
141
0.0
294
     1
177
     0
142
1.0
295
     0
296
     0
143
3.75
1001
ACAD_MLEADERVER
1070
     2
  0
MLINESTYLE
  5
18
102
{ACAD_REACTORS
330
17
102
}
330
17
100
AcDbMlineStyle
  2
Standard
 70
     0
  3

 62
   256
 51
90.0
 52
90.0
 71
     2
 49
0.5
 62
   256
  6
BYLAYER
 49
-0.5
 62
   256
  6
BYLAYER
  0
ACDBPLACEHOLDER
  5
F
102
{ACAD_REACTORS
330
E
102
}
330
E
  0
SCALE
  5
48
102
{ACAD_REACTORS
330
47
102
}
330
47
100
AcDbScale
 70
     0
300
1:1
140
1.0
141
1.0
290
     1
  0
SCALE
  5
49
102
{ACAD_REACTORS
330
47
102
}
330
47
100
AcDbScale
 70
     0
300
1:2
140
1.0
141
2.0
290
     0
  0
SCALE
  5
4A
102
{ACAD_REACTORS
330
47
102
}
330
47
100
AcDbScale
 70
     0
300
1:4
140
1.0
141
4.0
290
     0
  0
SCALE
  5
4B
102
{ACAD_REACTORS
330
47
102
}
330
47
100
AcDbScale
 70
     0
300
1:5
140
1.0
141
5.0
290
     0
  0
SCALE
  5
4C
102
{ACAD_REACTORS
330
47
102
}
330
47
100
AcDbScale
 70
     0
300
1:8
140
1.0
141
8.0
290
     0
  0
SCALE
  5
4D
102
{ACAD_REACTORS
330
47
102
}
330
47
100
AcDbScale
 70
     0
300
1:10
140
1.0
141
10.0
290
     0
  0
SCALE
  5
4E
102
{ACAD_REACTORS
330
47
102
}
330
47
100
AcDbScale
 70
     0
300
1:16
140
1.0
141
16.0
290
     0
  0
SCALE
  5
4F
102
{ACAD_REACTORS
330
47
102
}
330
47
100
AcDbScale
 70
     0
300
1:20
140
1.0
141
20.0
290
     0
  0
SCALE
  5
50
102
{ACAD_REACTORS
330
47
102
}
330
47
100
AcDbScale
 70
     0
300
1:30
140
1.0
141
30.0
290
     0
  0
SCALE
  5
51
102
{ACAD_REACTORS
330
47
102
}
330
47
100
AcDbScale
 70
     0
300
1:40
140
1.0
141
40.0
290
     0
  0
SCALE
  5
52
102
{ACAD_REACTORS
330
47
102
}
330
47
100
AcDbScale
 70
     0
300
1:50
140
1.0
141
50.0
290
     0
  0
SCALE
  5
53
102
{ACAD_REACTORS
330
47
102
}
330
47
100
AcDbScale
 70
     0
300
1:100
140
1.0
141
100.0
290
     0
  0
SCALE
  5
54
102
{ACAD_REACTORS
330
47
102
}
330
47
100
AcDbScale
 70
     0
300
2:1
140
2.0
141
1.0
290
     0
  0
SCALE
  5
55
102
{ACAD_REACTORS
330
47
102
}
330
47
100
AcDbScale
 70
     0
300
4:1
140
4.0
141
1.0
290
     0
  0
SCALE
  5
56
102
{ACAD_REACTORS
330
47
102
}
330
47
100
AcDbScale
 70
     0
300
8:1
140
8.0
141
1.0
290
     0
  0
SCALE
  5
57
102
{ACAD_REACTORS
330
47
102
}
330
47
100
AcDbScale
 70
     0
300
10:1
140
10.0
141
1.0
290
     0
  0
SCALE
  5
58
102
{ACAD_REACTORS
330
47
102
}
330
47
100
AcDbScale
 70
     0
300
100:1
140
100.0
141
1.0
290
     0
  0
SCALE
  5
59
102
{ACAD_REACTORS
330
47
102
}
330
47
100
AcDbScale
 70
     0
300
1/128" = 1'-0"
140
0.0078125
141
12.0
290
     0
  0
SCALE
  5
5A
102
{ACAD_REACTORS
330
47
102
}
330
47
100
AcDbScale
 70
     0
300
1/64" = 1'-0"
140
0.015625
141
12.0
290
     0
  0
SCALE
  5
5B
102
{ACAD_REACTORS
330
47
102
}
330
47
100
AcDbScale
 70
     0
300
1/32" = 1'-0"
140
0.03125
141
12.0
290
     0
  0
SCALE
  5
5C
102
{ACAD_REACTORS
330
47
102
}
330
47
100
AcDbScale
 70
     0
300
1/16" = 1'-0"
140
0.0625
141
12.0
290
     0
  0
SCALE
  5
5D
102
{ACAD_REACTORS
330
47
102
}
330
47
100
AcDbScale
 70
     0
300
3/32" = 1'-0"
140
0.09375
141
12.0
290
     0
  0
SCALE
  5
5E
102
{ACAD_REACTORS
330
47
102
}
330
47
100
AcDbScale
 70
     0
300
1/8" = 1'-0"
140
0.125
141
12.0
290
     0
  0
SCALE
  5
5F
102
{ACAD_REACTORS
330
47
102
}
330
47
100
AcDbScale
 70
     0
300
3/16" = 1'-0"
140
0.1875
141
12.0
290
     0
  0
SCALE
  5
60
102
{ACAD_REACTORS
330
47
102
}
330
47
100
AcDbScale
 70
     0
300
1/4" = 1'-0"
140
0.25
141
12.0
290
     0
  0
SCALE
  5
61
102
{ACAD_REACTORS
330
47
102
}
330
47
100
AcDbScale
 70
     0
300
3/8" = 1'-0"
140
0.375
141
12.0
290
     0
  0
SCALE
  5
62
102
{ACAD_REACTORS
330
47
102
}
330
47
100
AcDbScale
 70
     0
300
1/2" = 1'-0"
140
0.5
141
12.0
290
     0
  0
SCALE
  5
63
102
{ACAD_REACTORS
330
47
102
}
330
47
100
AcDbScale
 70
     0
300
3/4" = 1'-0"
140
0.75
141
12.0
290
     0
  0
SCALE
  5
64
102
{ACAD_REACTORS
330
47
102
}
330
47
100
AcDbScale
 70
     0
300
1" = 1'-0"
140
1.0
141
12.0
290
     0
  0
SCALE
  5
65
102
{ACAD_REACTORS
330
47
102
}
330
47
100
AcDbScale
 70
     0
300
1-1/2" = 1'-0"
140
1.5
141
12.0
290
     0
  0
SCALE
  5
66
102
{ACAD_REACTORS
330
47
102
}
330
47
100
AcDbScale
 70
     0
300
3" = 1'-0"
140
3.0
141
12.0
290
     0
  0
SCALE
  5
67
102
{ACAD_REACTORS
330
47
102
}
330
47
100
AcDbScale
 70
     0
300
6" = 1'-0"
140
6.0
141
12.0
290
     0
  0
SCALE
  5
68
102
{ACAD_REACTORS
330
47
102
}
330
47
100
AcDbScale
 70
     0
300
1'-0" = 1'-0"
140
12.0
141
12.0
290
     0
  0
TABLESTYLE
  5
6A
102
{ACAD_REACTORS
330
69
102
}
102
{ACAD_XDICTIONARY
360
25D
102
}
330
69
100
AcDbTableStyle
  3
Standard
 70
     0
 71
     0
 40
0.06
 41
0.06
280
     0
281
     0
  7
Standard
140
4.5
170
     2
 62
     0
 63
   257
283
     0
 90
        4
 91
        0
  1

274
    -2
284
     1
 64
     0
275
    -2
285
     1
 65
     0
276
    -2
286
     1
 66
     0
277
    -2
287
     1
 67
     0
278
    -2
288
     1
 68
     0
279
    -2
289
     1
 69
     0
  7
Standard
140
6.0
170
     5
 62
     0
 63
   257
283
     0
 90
        4
 91
        0
  1

274
    -2
284
     1
 64
     0
275
    -2
285
     1
 65
     0
276
    -2
286
     1
 66
     0
277
    -2
287
     1
 67
     0
278
    -2
288
     1
 68
     0
279
    -2
289
     1
 69
     0
  7
Standard
140
4.5
170
     5
 62
     0
 63
   257
283
     0
 90
        4
 91
        0
  1

274
    -2
284
     1
 64
     0
275
    -2
285
     1
 65
     0
276
    -2
286
     1
 66
     0
277
    -2
287
     1
 67
     0
278
    -2
288
     1
 68
     0
279
    -2
289
     1
 69
     0
  0
VISUALSTYLE
  5
2F
102
{ACAD_REACTORS
330
2A
102
}
102
{ACAD_XDICTIONARY
360
235
102
}
330
2A
100
AcDbVisualStyle
  2
2dWireframe
 70
     4
 71
     0
 72
     2
 73
     0
 90
        0
 40
0.6
 41
30.0
 62
     5
 63
     7
421
 16777215
 74
     1
 91
        4
 64
     7
 65
   257
 75
     1
175
     1
 42
1.0
 92
        0
 66
   257
 43
1.0
 76
     1
 77
     6
 78
     2
 67
     7
 79
     5
170
     0
171
     0
290
     0
174
     0
 93
        1
 44
0.0
173
     0
291
     0
 45
0.0
  0
VISUALSTYLE
  5
32
102
{ACAD_REACTORS
330
2A
102
}
102
{ACAD_XDICTIONARY
360
23B
102
}
330
2A
100
AcDbVisualStyle
  2
Basic
 70
     7
 71
     1
 72
     0
 73
     1
 90
        0
 40
0.6
 41
30.0
 62
     5
 63
     7
421
 16777215
 74
     0
 91
        4
 64
     7
 65
   257
 75
     1
175
     1
 42
1.0
 92
        8
 66
     7
 43
1.0
 76
     1
 77
     6
 78
     2
 67
     7
 79
     5
170
     0
171
     0
290
     0
174
     0
 93
        1
 44
0.0
173
     0
291
     1
 45
0.0
  0
VISUALSTYLE
  5
36
102
{ACAD_REACTORS
330
2A
102
}
102
{ACAD_XDICTIONARY
360
243
102
}
330
2A
100
AcDbVisualStyle
  2
Brighten
 70
    12
 71
     2
 72
     2
 73
     0
 90
        0
 40
0.6
 41
30.0
 62
     5
 63
     7
421
 16777215
 74
     1
 91
        4
 64
     7
 65
   257
 75
     1
175
     1
 42
1.0
 92
        8
 66
     7
 43
1.0
 76
     1
 77
     6
 78
     2
 67
     7
 79
     5
170
     0
171
     0
290
     0
174
     0
 93
        1
 44
50.0
173
     0
291
     1
 45
0.0
  0
VISUALSTYLE
  5
3A
102
{ACAD_REACTORS
330
2A
102
}
102
{ACAD_XDICTIONARY
360
24B
102
}
330
2A
100
AcDbVisualStyle
  2
ColorChange
 70
    16
 71
     2
 72
     2
 73
     3
 90
        0
 40
0.6
 41
30.0
 62
     5
 63
     8
421
  8421504
 74
     1
 91
        4
 64
     7
 65
   257
 75
     1
175
     1
 42
1.0
 92
        8
 66
     8
424
  8421504
 43
1.0
 76
     1
 77
     6
 78
     2
 67
     7
 79
     5
170
     0
171
     0
290
     0
174
     0
 93
        1
 44
0.0
173
     0
291
     1
 45
0.0
  0
VISUALSTYLE
  5
34
102
{ACAD_REACTORS
330
2A
102
}
102
{ACAD_XDICTIONARY
360
23F
102
}
330
2A
100
AcDbVisualStyle
  2
Conceptual
 70
     9
 71
     3
 72
     2
 73
     0
 90
        0
 40
0.6
 41
30.0
 62
     5
 63
     7
421
 16777215
 74
     2
 91
        2
 64
     7
 65
   257
 75
     1
175
     1
 42
179.0
 92
        8
 66
     7
 43
1.0
 76
     1
 77
     6
 78
     2
 67
     7
 79
     3
170
     0
171
     0
290
     0
174
     0
 93
        1
 44
0.0
173
     0
291
     0
 45
0.0
  0
VISUALSTYLE
  5
35
102
{ACAD_REACTORS
330
2A
102
}
102
{ACAD_XDICTIONARY
360
241
102
}
330
2A
100
AcDbVisualStyle
  2
Dim
 70
    11
 71
     2
 72
     2
 73
     0
 90
        0
 40
0.6
 41
30.0
 62
     5
 63
     7
421
 16777215
 74
     1
 91
        4
 64
     7
 65
   257
 75
     1
175
     1
 42
1.0
 92
        8
 66
     7
 43
1.0
 76
     1
 77
     6
 78
     2
 67
     7
 79
     5
170
     0
171
     0
290
     0
174
     0
 93
        1
 44
-50.0
173
     0
291
     1
 45
0.0
  0
VISUALSTYLE
  5
3D
102
{ACAD_REACTORS
330
2A
102
}
102
{ACAD_XDICTIONARY
360
251
102
}
330
2A
100
AcDbVisualStyle
  2
EdgeColorOff
 70
    22
 71
     2
 72
     2
 73
     0
 90
        0
 40
0.6
 41
30.0
 62
     5
 63
     7
421
 16777215
 74
     1
 91
        4
 64
     7
 65
   257
 75
     1
175
     1
 42
1.0
 92
        8
 66
     7
 43
1.0
 76
     1
 77
     6
 78
     2
 67
     7
 79
     5
170
     0
171
     0
290
     0
174
     0
 93
        1
 44
0.0
173
     0
291
     1
 45
0.0
  0
VISUALSTYLE
  5
39
102
{ACAD_REACTORS
330
2A
102
}
102
{ACAD_XDICTIONARY
360
249
102
}
330
2A
100
AcDbVisualStyle
  2
Facepattern
 70
    15
 71
     2
 72
     2
 73
     0
 90
        0
 40
0.6
 41
30.0
 62
     5
 63
     7
421
 16777215
 74
     1
 91
        4
 64
     7
 65
   257
 75
     1
175
     1
 42
1.0
 92
        8
 66
     7
 43
1.0
 76
     1
 77
     6
 78
     2
 67
     7
 79
     5
170
     0
171
     0
290
     0
174
     0
 93
        1
 44
0.0
173
     0
291
     1
 45
0.0
  0
VISUALSTYLE
  5
2B
102
{ACAD_REACTORS
330
2A
102
}
102
{ACAD_XDICTIONARY
360
22D
102
}
330
2A
100
AcDbVisualStyle
  2
Flat
 70
     0
 71
     2
 72
     1
 73
     1
 90
        2
 40
0.6
 41
30.0
 62
     5
 63
     7
421
 16777215
 74
     0
 91
        0
 64
     7
 65
   257
 75
     1
175
     1
 42
1.0
 92
        8
 66
     7
 43
1.0
 76
     1
 77
     6
 78
     2
 67
     7
 79
     5
170
     0
171
     0
290
     0
174
     0
 93
       13
 44
0.0
173
     0
291
     1
 45
0.0
  0
VISUALSTYLE
  5
2C
102
{ACAD_REACTORS
330
2A
102
}
102
{ACAD_XDICTIONARY
360
22F
102
}
330
2A
100
AcDbVisualStyle
  2
FlatWithEdges
 70
     1
 71
     2
 72
     1
 73
     1
 90
        2
 40
0.6
 41
30.0
 62
     5
 63
     7
421
 16777215
 74
     1
 91
        0
 64
     7
 65
   257
 75
     1
175
     1
 42
1.0
 92
        0
 66
   257
 43
1.0
 76
     1
 77
     6
 78
     2
 67
     7
 79
     5
170
     0
171
     0
290
     0
174
     0
 93
       13
 44
0.0
173
     0
291
     1
 45
0.0
  0
VISUALSTYLE
  5
2D
102
{ACAD_REACTORS
330
2A
102
}
102
{ACAD_XDICTIONARY
360
231
102
}
330
2A
100
AcDbVisualStyle
  2
Gouraud
 70
     2
 71
     2
 72
     2
 73
     1
 90
        2
 40
0.6
 41
30.0
 62
     5
 63
     7
421
 16777215
 74
     0
 91
        0
 64
     7
 65
   257
 75
     1
175
     1
 42
1.0
 92
        0
 66
     7
 43
1.0
 76
     1
 77
     6
 78
     2
 67
     7
 79
     5
170
     0
171
     0
290
     0
174
     0
 93
       13
 44
0.0
173
     0
291
     1
 45
0.0
  0
VISUALSTYLE
  5
2E
102
{ACAD_REACTORS
330
2A
102
}
102
{ACAD_XDICTIONARY
360
233
102
}
330
2A
100
AcDbVisualStyle
  2
GouraudWithEdges
 70
     3
 71
     2
 72
     2
 73
     1
 90
        2
 40
0.6
 41
30.0
 62
     5
 63
     7
421
 16777215
 74
     1
 91
        0
 64
     7
 65
   257
 75
     1
175
     1
 42
1.0
 92
        0
 66
   257
 43
1.0
 76
     1
 77
     6
 78
     2
 67
     7
 79
     5
170
     0
171
     0
290
     0
174
     0
 93
       13
 44
0.0
173
     0
291
     1
 45
0.0
  0
VISUALSTYLE
  5
31
102
{ACAD_REACTORS
330
2A
102
}
102
{ACAD_XDICTIONARY
360
239
102
}
330
2A
100
AcDbVisualStyle
  2
Hidden
 70
     6
 71
     1
 72
     2
 73
     2
 90
        0
 40
0.6
 41
30.0
 62
     5
 63
     7
421
 16777215
 74
     2
 91
        2
 64
     7
 65
   257
 75
     2
175
     1
 42
40.0
 92
        0
 66
   257
 43
1.0
 76
     1
 77
     6
 78
     2
 67
     7
 79
     3
170
     0
171
     0
290
     0
174
     0
 93
        1
 44
0.0
173
     0
291
     0
 45
0.0
  0
VISUALSTYLE
  5
3B
102
{ACAD_REACTORS
330
2A
102
}
102
{ACAD_XDICTIONARY
360
24D
102
}
330
2A
100
AcDbVisualStyle
  2
JitterOff
 70
    20
 71
     2
 72
     2
 73
     0
 90
        0
 40
0.6
 41
30.0
 62
     5
 63
     7
421
 16777215
 74
     1
 91
        4
 64
     7
 65
   257
 75
     1
175
     1
 42
1.0
 92
       10
 66
     7
 43
1.0
 76
     1
 77
     6
 78
     2
 67
     7
 79
     5
170
     0
171
     0
290
     0
174
     0
 93
        1
 44
0.0
173
     0
291
     1
 45
0.0
  0
VISUALSTYLE
  5
38
102
{ACAD_REACTORS
330
2A
102
}
102
{ACAD_XDICTIONARY
360
247
102
}
330
2A
100
AcDbVisualStyle
  2
Linepattern
 70
    14
 71
     2
 72
     2
 73
     0
 90
        0
 40
0.6
 41
30.0
 62
     5
 63
     7
421
 16777215
 74
     1
 91
        4
 64
     7
 65
   257
 75
     7
175
     7
 42
1.0
 92
        8
 66
     7
 43
1.0
 76
     1
 77
     6
 78
     2
 67
     7
 79
     5
170
     0
171
     0
290
     0
174
     0
 93
        1
 44
0.0
173
     0
291
     1
 45
0.0
  0
VISUALSTYLE
  5
3C
102
{ACAD_REACTORS
330
2A
102
}
102
{ACAD_XDICTIONARY
360
24F
102
}
330
2A
100
AcDbVisualStyle
  2
OverhangOff
 70
    21
 71
     2
 72
     2
 73
     0
 90
        0
 40
0.6
 41
30.0
 62
     5
 63
     7
421
 16777215
 74
     1
 91
        4
 64
     7
 65
   257
 75
     1
175
     1
 42
1.0
 92
        9
 66
     7
 43
1.0
 76
     1
 77
     6
 78
     2
 67
     7
 79
     5
170
     0
171
     0
290
     0
174
     0
 93
        1
 44
0.0
173
     0
291
     1
 45
0.0
  0
VISUALSTYLE
  5
33
102
{ACAD_REACTORS
330
2A
102
}
102
{ACAD_XDICTIONARY
360
23D
102
}
330
2A
100
AcDbVisualStyle
  2
Realistic
 70
     8
 71
     2
 72
     3
 73
     0
 90
        2
 40
0.6
 41
30.0
 62
     5
 63
     7
421
 16777215
 74
     0
 91
        0
 64
     7
 65
   257
 75
     1
175
     1
 42
1.0
 92
        8
 66
   257
 43
1.0
 76
     1
 77
     6
 78
     2
 67
     7
 79
     3
170
     0
171
     0
290
     0
174
     0
 93
       13
 44
0.0
173
     0
291
     0
 45
0.0
  0
VISUALSTYLE
  5
42
102
{ACAD_REACTORS
330
2A
102
}
102
{ACAD_XDICTIONARY
360
25B
102
}
330
2A
100
AcDbVisualStyle
  2
Shaded
 70
    27
 71
     2
 72
     2
 73
     1
 90
        2
 40
0.6
 41
30.0
 62
     5
 63
     7
421
 16777215
 74
     0
 91
        4
 64
     7
 65
   257
 75
     1
175
     1
 42
1.0
 92
        8
 66
   257
 43
1.0
 76
     1
 77
     6
 78
     2
 67
     8
425
  7895160
 79
     3
170
     0
171
     0
290
     0
174
     0
 93
        5
 44
0.0
173
     0
291
     0
 45
0.0
  0
VISUALSTYLE
  5
41
102
{ACAD_REACTORS
330
2A
102
}
102
{ACAD_XDICTIONARY
360
259
102
}
330
2A
100
AcDbVisualStyle
  2
Shaded with edges
 70
    26
 71
     2
 72
     2
 73
     1
 90
        2
 40
0.6
 41
30.0
 62
     5
 63
     7
421
 16777215
 74
     1
 91
       10
 64
     7
 65
   257
 75
     2
175
     1
 42
1.0
 92
        8
 66
   257
 43
1.0
 76
     1
 77
     6
 78
     2
 67
     7
 79
     3
170
     0
171
     0
290
     0
174
     0
 93
        5
 44
0.0
173
     0
291
     0
 45
0.0
  0
VISUALSTYLE
  5
3E
102
{ACAD_REACTORS
330
2A
102
}
102
{ACAD_XDICTIONARY
360
253
102
}
330
2A
100
AcDbVisualStyle
  2
Shades of Gray
 70
    23
 71
     2
 72
     2
 73
     3
 90
        0
 40
0.6
 41
30.0
 62
     5
 63
     7
421
 16777215
 74
     2
 91
        2
 64
     7
 65
     7
 75
     1
175
     1
 42
40.0
 92
        8
 66
     7
 43
1.0
 76
     1
 77
     6
 78
     2
 67
     7
 79
     3
170
     0
171
     0
290
     0
174
     0
 93
        1
 44
0.0
173
     0
291
     0
 45
0.0
  0
VISUALSTYLE
  5
3F
102
{ACAD_REACTORS
330
2A
102
}
102
{ACAD_XDICTIONARY
360
255
102
}
330
2A
100
AcDbVisualStyle
  2
Sketchy
 70
    24
 71
     1
 72
     2
 73
     2
 90
        0
 40
0.6
 41
30.0
 62
     5
 63
     7
421
 16777215
 74
     2
 91
        2
 64
     7
 65
     7
 75
     1
175
     1
 42
40.0
 92
       11
 66
     7
 43
1.0
 76
     1
 77
     6
 78
     2
 67
     7
 79
     6
170
     0
171
     0
290
     0
174
     0
 93
        1
 44
0.0
173
     0
291
     0
 45
0.0
  0
VISUALSTYLE
  5
37
102
{ACAD_REACTORS
330
2A
102
}
102
{ACAD_XDICTIONARY
360
245
102
}
330
2A
100
AcDbVisualStyle
  2
Thicken
 70
    13
 71
     2
 72
     2
 73
     0
 90
        0
 40
0.6
 41
30.0
 62
     5
 63
     7
421
 16777215
 74
     1
 91
        4
 64
     7
 65
   257
 75
     1
175
     1
 42
1.0
 92
       12
 66
     7
 43
1.0
 76
     1
 77
     6
 78
     2
 67
     7
 79
     5
170
     0
171
     0
290
     0
174
     0
 93
        1
 44
0.0
173
     0
291
     1
 45
0.0
  0
VISUALSTYLE
  5
30
102
{ACAD_REACTORS
330
2A
102
}
102
{ACAD_XDICTIONARY
360
237
102
}
330
2A
100
AcDbVisualStyle
  2
Wireframe
 70
     5
 71
     0
 72
     2
 73
     0
 90
        0
 40
0.6
 41
30.0
 62
     5
 63
     7
421
 16777215
 74
     1
 91
        4
 64
     7
 65
   257
 75
     1
175
     1
 42
1.0
 92
        0
 66
   257
 43
1.0
 76
     1
 77
     6
 78
     2
 67
     7
 79
     3
170
     0
171
     0
290
     0
174
     0
 93
        1
 44
0.0
173
     0
291
     0
 45
0.0
  0
VISUALSTYLE
  5
40
102
{ACAD_REACTORS
330
2A
102
}
102
{ACAD_XDICTIONARY
360
257
102
}
330
2A
100
AcDbVisualStyle
  2
X-Ray
 70
    25
 71
     2
 72
     2
 73
     1
 90
        1
 40
0.5
 41
30.0
 62
     5
 63
     7
421
 16777215
 74
     1
 91
        0
 64
     7
 65
   257
 75
     1
175
     1
 42
1.0
 92
        8
 66
     7
 43
1.0
 76
     1
 77
     6
 78
     2
 67
     7
 79
     3
170
     0
171
     0
290
     0
174
     0
 93
       13
 44
0.0
173
     0
291
     0
 45
0.0
  0
DICTIONARYVAR
  5
22B
102
{ACAD_REACTORS
330
22A
102
}
330
22A
100
DictionaryVariables
280
     0
  1
1:1
  0
DICTIONARYVAR
  5
266
102
{ACAD_REACTORS
330
22A
102
}
330
22A
100
DictionaryVariables
280
     0
  1
3.500000
  0
DICTIONARYVAR
  5
267
102
{ACAD_REACTORS
330
22A
102
}
330
22A
100
DictionaryVariables
280
     0
  1
acadiso.lin
  0
DICTIONARYVAR
  5
263
102
{ACAD_REACTORS
330
22A
102
}
330
22A
100
DictionaryVariables
280
     0
  1
Standard
  0
DICTIONARYVAR
  5
262
102
{ACAD_REACTORS
330
22A
102
}
330
22A
100
DictionaryVariables
280
     0
  1
Standard
  0
DICTIONARYVAR
  5
22C
102
{ACAD_REACTORS
330
22A
102
}
330
22A
100
DictionaryVariables
280
     0
  1
2
  0
DICTIONARY
  5
25F
330
6C
100
AcDbDictionary
280
     1
281
     1
  3
ACAD_XREC_ROUNDTRIP
360
260
  0
DICTIONARY
  5
25D
330
6A
100
AcDbDictionary
280
     1
281
     1
  3
ACAD_ROUNDTRIP_2008_TABLESTYLE_CELLSTYLEMAP
360
25E
  0
DICTIONARY
  5
235
330
2F
100
AcDbDictionary
280
     1
281
     1
  3
ACAD_XREC_ROUNDTRIP
360
236
  0
DICTIONARY
  5
23B
330
32
100
AcDbDictionary
280
     1
281
     1
  3
ACAD_XREC_ROUNDTRIP
360
23C
  0
DICTIONARY
  5
243
330
36
100
AcDbDictionary
280
     1
281
     1
  3
ACAD_XREC_ROUNDTRIP
360
244
  0
DICTIONARY
  5
24B
330
3A
100
AcDbDictionary
280
     1
281
     1
  3
ACAD_XREC_ROUNDTRIP
360
24C
  0
DICTIONARY
  5
23F
330
34
100
AcDbDictionary
280
     1
281
     1
  3
ACAD_XREC_ROUNDTRIP
360
240
  0
DICTIONARY
  5
241
330
35
100
AcDbDictionary
280
     1
281
     1
  3
ACAD_XREC_ROUNDTRIP
360
242
  0
DICTIONARY
  5
251
330
3D
100
AcDbDictionary
280
     1
281
     1
  3
ACAD_XREC_ROUNDTRIP
360
252
  0
DICTIONARY
  5
249
330
39
100
AcDbDictionary
280
     1
281
     1
  3
ACAD_XREC_ROUNDTRIP
360
24A
  0
DICTIONARY
  5
22D
330
2B
100
AcDbDictionary
280
     1
281
     1
  3
ACAD_XREC_ROUNDTRIP
360
22E
  0
DICTIONARY
  5
22F
330
2C
100
AcDbDictionary
280
     1
281
     1
  3
ACAD_XREC_ROUNDTRIP
360
230
  0
DICTIONARY
  5
231
330
2D
100
AcDbDictionary
280
     1
281
     1
  3
ACAD_XREC_ROUNDTRIP
360
232
  0
DICTIONARY
  5
233
330
2E
100
AcDbDictionary
280
     1
281
     1
  3
ACAD_XREC_ROUNDTRIP
360
234
  0
DICTIONARY
  5
239
330
31
100
AcDbDictionary
280
     1
281
     1
  3
ACAD_XREC_ROUNDTRIP
360
23A
  0
DICTIONARY
  5
24D
330
3B
100
AcDbDictionary
280
     1
281
     1
  3
ACAD_XREC_ROUNDTRIP
360
24E
  0
DICTIONARY
  5
247
330
38
100
AcDbDictionary
280
     1
281
     1
  3
ACAD_XREC_ROUNDTRIP
360
248
  0
DICTIONARY
  5
24F
330
3C
100
AcDbDictionary
280
     1
281
     1
  3
ACAD_XREC_ROUNDTRIP
360
250
  0
DICTIONARY
  5
23D
330
33
100
AcDbDictionary
280
     1
281
     1
  3
ACAD_XREC_ROUNDTRIP
360
23E
  0
DICTIONARY
  5
25B
330
42
100
AcDbDictionary
280
     1
281
     1
  3
ACAD_XREC_ROUNDTRIP
360
25C
  0
DICTIONARY
  5
259
330
41
100
AcDbDictionary
280
     1
281
     1
  3
ACAD_XREC_ROUNDTRIP
360
25A
  0
DICTIONARY
  5
253
330
3E
100
AcDbDictionary
280
     1
281
     1
  3
ACAD_XREC_ROUNDTRIP
360
254
  0
DICTIONARY
  5
255
330
3F
100
AcDbDictionary
280
     1
281
     1
  3
ACAD_XREC_ROUNDTRIP
360
256
  0
DICTIONARY
  5
245
330
37
100
AcDbDictionary
280
     1
281
     1
  3
ACAD_XREC_ROUNDTRIP
360
246
  0
DICTIONARY
  5
237
330
30
100
AcDbDictionary
280
     1
281
     1
  3
ACAD_XREC_ROUNDTRIP
360
238
  0
DICTIONARY
  5
257
330
40
100
AcDbDictionary
280
     1
281
     1
  3
ACAD_XREC_ROUNDTRIP
360
258
  0
XRECORD
  5
260
102
{ACAD_REACTORS
330
25F
102
}
330
25F
100
AcDbXrecord
280
     1
102
ACAD_ROUNDTRIP_2010_MLEADER_STYLE
  0
CELLSTYLEMAP
  5
25E
102
{ACAD_REACTORS
330
25D
102
}
330
25D
100
AcDbCellStyleMap
 90
        3
300
CELLSTYLE
  1
TABLEFORMAT_BEGIN
 90
        5
170
     1
 91
        0
 92
    32768
 62
   257
 93
        1
300
CONTENTFORMAT
  1
CONTENTFORMAT_BEGIN
 90
        0
 91
        0
 92
        4
 93
        0
300

 40
0.0
140
1.0
 94
        5
 62
     0
340
11
144
6.0
309
CONTENTFORMAT_END
171
     1
301
MARGIN
  1
CELLMARGIN_BEGIN
 40
1.5
 40
1.5
 40
1.5
 40
1.5
 40
1.5
 40
1.5
309
CELLMARGIN_END
 94
        6
 95
        1
302
GRIDFORMAT
  1
GRIDFORMAT_BEGIN
 90
        0
 91
        1
 62
     0
 92
       -2
340
14
 93
        0
 40
0.045
309
GRIDFORMAT_END
 95
        2
302
GRIDFORMAT
  1
GRIDFORMAT_BEGIN
 90
        0
 91
        1
 62
     0
 92
       -2
340
14
 93
        0
 40
0.045
309
GRIDFORMAT_END
 95
        4
302
GRIDFORMAT
  1
GRIDFORMAT_BEGIN
 90
        0
 91
        1
 62
     0
 92
       -2
340
14
 93
        0
 40
0.045
309
GRIDFORMAT_END
 95
        8
302
GRIDFORMAT
  1
GRIDFORMAT_BEGIN
 90
        0
 91
        1
 62
     0
 92
       -2
340
14
 93
        0
 40
0.045
309
GRIDFORMAT_END
 95
       16
302
GRIDFORMAT
  1
GRIDFORMAT_BEGIN
 90
        0
 91
        1
 62
     0
 92
       -2
340
14
 93
        0
 40
0.045
309
GRIDFORMAT_END
 95
       32
302
GRIDFORMAT
  1
GRIDFORMAT_BEGIN
 90
        0
 91
        1
 62
     0
 92
       -2
340
14
 93
        0
 40
0.045
309
GRIDFORMAT_END
309
TABLEFORMAT_END
  1
CELLSTYLE_BEGIN
 90
        1
 91
        1
300
_TITLE
309
CELLSTYLE_END
300
CELLSTYLE
  1
TABLEFORMAT_BEGIN
 90
        5
170
     1
 91
        0
 92
        0
 62
   257
 93
        1
300
CONTENTFORMAT
  1
CONTENTFORMAT_BEGIN
 90
        0
 91
        0
 92
        4
 93
        0
300

 40
0.0
140
1.0
 94
        5
 62
     0
340
11
144
4.5
309
CONTENTFORMAT_END
171
     1
301
MARGIN
  1
CELLMARGIN_BEGIN
 40
1.5
 40
1.5
 40
1.5
 40
1.5
 40
1.5
 40
1.5
309
CELLMARGIN_END
 94
        6
 95
        1
302
GRIDFORMAT
  1
GRIDFORMAT_BEGIN
 90
        0
 91
        1
 62
     0
 92
       -2
340
14
 93
        0
 40
0.045
309
GRIDFORMAT_END
 95
        2
302
GRIDFORMAT
  1
GRIDFORMAT_BEGIN
 90
        0
 91
        1
 62
     0
 92
       -2
340
14
 93
        0
 40
0.045
309
GRIDFORMAT_END
 95
        4
302
GRIDFORMAT
  1
GRIDFORMAT_BEGIN
 90
        0
 91
        1
 62
     0
 92
       -2
340
14
 93
        0
 40
0.045
309
GRIDFORMAT_END
 95
        8
302
GRIDFORMAT
  1
GRIDFORMAT_BEGIN
 90
        0
 91
        1
 62
     0
 92
       -2
340
14
 93
        0
 40
0.045
309
GRIDFORMAT_END
 95
       16
302
GRIDFORMAT
  1
GRIDFORMAT_BEGIN
 90
        0
 91
        1
 62
     0
 92
       -2
340
14
 93
        0
 40
0.045
309
GRIDFORMAT_END
 95
       32
302
GRIDFORMAT
  1
GRIDFORMAT_BEGIN
 90
        0
 91
        1
 62
     0
 92
       -2
340
14
 93
        0
 40
0.045
309
GRIDFORMAT_END
309
TABLEFORMAT_END
  1
CELLSTYLE_BEGIN
 90
        2
 91
        1
300
_HEADER
309
CELLSTYLE_END
300
CELLSTYLE
  1
TABLEFORMAT_BEGIN
 90
        5
170
     1
 91
        0
 92
        0
 62
   257
 93
        1
300
CONTENTFORMAT
  1
CONTENTFORMAT_BEGIN
 90
        0
 91
        0
 92
        4
 93
        0
300

 40
0.0
140
1.0
 94
        2
 62
     0
340
11
144
4.5
309
CONTENTFORMAT_END
171
     1
301
MARGIN
  1
CELLMARGIN_BEGIN
 40
1.5
 40
1.5
 40
1.5
 40
1.5
 40
1.5
 40
1.5
309
CELLMARGIN_END
 94
        6
 95
        1
302
GRIDFORMAT
  1
GRIDFORMAT_BEGIN
 90
        0
 91
        1
 62
     0
 92
       -2
340
14
 93
        0
 40
0.045
309
GRIDFORMAT_END
 95
        2
302
GRIDFORMAT
  1
GRIDFORMAT_BEGIN
 90
        0
 91
        1
 62
     0
 92
       -2
340
14
 93
        0
 40
0.045
309
GRIDFORMAT_END
 95
        4
302
GRIDFORMAT
  1
GRIDFORMAT_BEGIN
 90
        0
 91
        1
 62
     0
 92
       -2
340
14
 93
        0
 40
0.045
309
GRIDFORMAT_END
 95
        8
302
GRIDFORMAT
  1
GRIDFORMAT_BEGIN
 90
        0
 91
        1
 62
     0
 92
       -2
340
14
 93
        0
 40
0.045
309
GRIDFORMAT_END
 95
       16
302
GRIDFORMAT
  1
GRIDFORMAT_BEGIN
 90
        0
 91
        1
 62
     0
 92
       -2
340
14
 93
        0
 40
0.045
309
GRIDFORMAT_END
 95
       32
302
GRIDFORMAT
  1
GRIDFORMAT_BEGIN
 90
        0
 91
        1
 62
     0
 92
       -2
340
14
 93
        0
 40
0.045
309
GRIDFORMAT_END
309
TABLEFORMAT_END
  1
CELLSTYLE_BEGIN
 90
        3
 91
        2
300
_DATA
309
CELLSTYLE_END
  0
XRECORD
  5
236
102
{ACAD_REACTORS
330
235
102
}
330
235
100
AcDbXrecord
280
     1
102
RTVSPropertyOp0
 70
     1
102
RTVSPropertyOp1
 70
     1
102
RTVSPropertyOp2
 70
     1
102
RTVSPropertyOp3
 70
     1
102
RTVSPropertyOp4
 70
     1
102
RTVSPropertyOp5
 70
     1
102
RTVSPropertyOp6
 70
     1
102
RTVSPropertyOp7
 70
     1
102
RTVSPropertyOp8
 70
     1
102
RTVSPropertyOp9
 70
     1
102
RTVSPropertyOp10
 70
     1
102
RTVSPropertyOp11
 70
     1
102
RTVSPropertyOp12
 70
     1
102
RTVSPropertyOp13
 70
     1
102
RTVSPropertyOp14
 70
     1
102
RTVSPropertyOp15
 70
     1
102
RTVSPropertyOp16
 70
     1
102
RTVSPropertyOp17
 70
     1
102
RTVSPropertyOp18
 70
     1
102
RTVSPropertyOp19
 70
     1
102
RTVSPropertyOp20
 70
     1
102
RTVSPropertyOp21
 70
     1
102
RTVSPropertyOp22
 70
     1
102
RTVSPropertyOp23
 70
     1
102
RTVSPropertyOp24
 70
     1
102
RTVSPropertyOp25
 70
     1
102
RTVSPropertyOp26
 70
     1
102
RTVSPropertyOp27
 70
     1
102
RTVSPropertyOp28
 70
     1
102
RTVSPropertyOp29
 70
     1
102
RTVSPropertyOp30
 70
     1
102
RTVSPropertyOp31
 70
     1
102
RTVSPropertyOp32
 70
     1
102
RTVSPropertyOp33
 70
     1
102
RTVSPropertyOp34
 70
     1
102
RTVSPropertyOp35
 70
     1
102
RTVSPropertyOp36
 70
     1
102
RTVSPropertyOp37
 70
     1
102
RTVSPropertyOp38
 70
     1
102
RTVSPropertyOp39
 70
     1
102
RTVSPropertyOp40
 70
     1
102
RTVSPropertyOp41
 70
     1
102
RTVSPropertyOp42
 70
     1
102
RTVSPropertyOp43
 70
     1
102
RTVSPropertyOp44
 70
     1
102
RTVSPropertyOp45
 70
     1
102
RTVSPropertyOp46
 70
     1
102
RTVSPropertyOp47
 70
     1
102
RTVSPropertyOp48
 70
     1
102
RTVSPropertyOp49
 70
     1
102
RTVSPropertyOp50
 70
     1
102
RTVSPropertyOp51
 70
     0
102
RTVSPropertyOp52
 70
     0
102
RTVSPropertyOp53
 70
     1
102
RTVSPropertyOp54
 70
     1
102
RTVSPropertyOp55
 70
     1
102
RTVSPropertyOp56
 70
     1
102
RTVSPropertyOp57
 70
     1
102
RTVSPost2010Prop28
280
     1
102
RTVSPost2010PropOp28
 70
     1
102
RTVSPost2010Prop29
280
     1
102
RTVSPost2010PropOp29
 70
     1
102
RTVSPost2010Prop30
280
     0
102
RTVSPost2010PropOp30
 70
     1
102
RTVSPost2010Prop31
280
     0
102
RTVSPost2010PropOp31
 70
     1
102
RTVSPost2010Prop32
280
     0
102
RTVSPost2010PropOp32
 70
     1
102
RTVSPost2010Prop33
280
     0
102
RTVSPost2010PropOp33
 70
     1
102
RTVSPost2010Prop34
280
     0
102
RTVSPost2010PropOp34
 70
     1
102
RTVSPost2010Prop35
280
     0
102
RTVSPost2010PropOp35
 70
     1
102
RTVSPost2010Prop36
280
     0
102
RTVSPost2010PropOp36
 70
     1
102
RTVSPost2010Prop37
 90
       50
102
RTVSPost2010PropOp37
 70
     1
102
RTVSPost2010Prop38
140
0.0
102
RTVSPost2010PropOp38
 70
     1
102
RTVSPost2010Prop39
140
1.0
102
RTVSPost2010PropOp39
 70
     1
102
RTVSPost2010Prop40
 90
        0
102
RTVSPost2010PropOp40
 70
     1
102
RTVSPost2010Prop41ColorIndex
 90
       18
102
RTVSPost2010Prop41ColorRGB
 90
        0
102
RTVSPost2010PropOp41
 70
     1
102
RTVSPost2010Prop42
 90
       50
102
RTVSPost2010PropOp42
 70
     1
102
RTVSPost2010Prop43
 90
        3
102
RTVSPost2010PropOp43
 70
     1
102
RTVSPost2010Prop44ColorIndex
 90
        5
102
RTVSPost2010Prop44ColorRGB
 90
      255
102
RTVSPost2010PropOp44
 70
     1
102
RTVSPost2010Prop45
280
     0
102
RTVSPost2010PropOp45
 70
     1
102
RTVSPost2010Prop46
 90
       50
102
RTVSPost2010PropOp46
 70
     1
102
RTVSPost2010Prop47
 90
       50
102
RTVSPost2010PropOp47
 70
     1
102
RTVSPost2010Prop48
 90
       50
102
RTVSPost2010PropOp48
 70
     1
102
RTVSPost2010Prop49
280
     0
102
RTVSPost2010PropOp49
 70
     1
102
RTVSPost2010Prop50
 90
       50
102
RTVSPost2010PropOp50
 70
     1
102
RTVSPost2010Prop51ColorIndex
 90
      256
102
RTVSPost2010Prop51ColorRGB
 90
-16777216
102
RTVSPost2010PropOp51
 70
     0
102
RTVSPost2010Prop52
140
1.0
102
RTVSPost2010PropOp52
 70
     0
102
RTVSPost2010Prop53
 90
        2
102
RTVSPost2010PropOp53
 70
     1
102
RTVSPost2010Prop54
  1
strokes_ogs.tif
102
RTVSPost2010PropOp54
 70
     1
102
RTVSPost2010Prop55
280
     0
102
RTVSPost2010PropOp55
 70
     1
102
RTVSPost2010Prop56
140
1.0
102
RTVSPost2010PropOp56
 70
     1
102
RTVSPost2010Prop57
140
1.0
102
RTVSPost2010PropOp57
 70
     1
  0
XRECORD
  5
23C
102
{ACAD_REACTORS
330
23B
102
}
330
23B
100
AcDbXrecord
280
     1
102
RTVSPropertyOp0
 70
     1
102
RTVSPropertyOp1
 70
     1
102
RTVSPropertyOp2
 70
     1
102
RTVSPropertyOp3
 70
     1
102
RTVSPropertyOp4
 70
     1
102
RTVSPropertyOp5
 70
     1
102
RTVSPropertyOp6
 70
     1
102
RTVSPropertyOp7
 70
     1
102
RTVSPropertyOp8
 70
     1
102
RTVSPropertyOp9
 70
     1
102
RTVSPropertyOp10
 70
     1
102
RTVSPropertyOp11
 70
     1
102
RTVSPropertyOp12
 70
     1
102
RTVSPropertyOp13
 70
     1
102
RTVSPropertyOp14
 70
     1
102
RTVSPropertyOp15
 70
     1
102
RTVSPropertyOp16
 70
     1
102
RTVSPropertyOp17
 70
     1
102
RTVSPropertyOp18
 70
     1
102
RTVSPropertyOp19
 70
     1
102
RTVSPropertyOp20
 70
     1
102
RTVSPropertyOp21
 70
     1
102
RTVSPropertyOp22
 70
     1
102
RTVSPropertyOp23
 70
     1
102
RTVSPropertyOp24
 70
     1
102
RTVSPropertyOp25
 70
     1
102
RTVSPropertyOp26
 70
     1
102
RTVSPropertyOp27
 70
     1
102
RTVSPropertyOp28
 70
     1
102
RTVSPropertyOp29
 70
     1
102
RTVSPropertyOp30
 70
     1
102
RTVSPropertyOp31
 70
     1
102
RTVSPropertyOp32
 70
     1
102
RTVSPropertyOp33
 70
     1
102
RTVSPropertyOp34
 70
     1
102
RTVSPropertyOp35
 70
     1
102
RTVSPropertyOp36
 70
     1
102
RTVSPropertyOp37
 70
     1
102
RTVSPropertyOp38
 70
     1
102
RTVSPropertyOp39
 70
     1
102
RTVSPropertyOp40
 70
     1
102
RTVSPropertyOp41
 70
     1
102
RTVSPropertyOp42
 70
     1
102
RTVSPropertyOp43
 70
     1
102
RTVSPropertyOp44
 70
     1
102
RTVSPropertyOp45
 70
     1
102
RTVSPropertyOp46
 70
     1
102
RTVSPropertyOp47
 70
     1
102
RTVSPropertyOp48
 70
     1
102
RTVSPropertyOp49
 70
     1
102
RTVSPropertyOp50
 70
     1
102
RTVSPropertyOp51
 70
     0
102
RTVSPropertyOp52
 70
     0
102
RTVSPropertyOp53
 70
     1
102
RTVSPropertyOp54
 70
     1
102
RTVSPropertyOp55
 70
     1
102
RTVSPropertyOp56
 70
     1
102
RTVSPropertyOp57
 70
     1
102
RTVSPost2010Prop28
280
     0
102
RTVSPost2010PropOp28
 70
     1
102
RTVSPost2010Prop29
280
     1
102
RTVSPost2010PropOp29
 70
     1
102
RTVSPost2010Prop30
280
     1
102
RTVSPost2010PropOp30
 70
     1
102
RTVSPost2010Prop31
280
     0
102
RTVSPost2010PropOp31
 70
     1
102
RTVSPost2010Prop32
280
     0
102
RTVSPost2010PropOp32
 70
     1
102
RTVSPost2010Prop33
280
     0
102
RTVSPost2010PropOp33
 70
     1
102
RTVSPost2010Prop34
280
     0
102
RTVSPost2010PropOp34
 70
     1
102
RTVSPost2010Prop35
280
     0
102
RTVSPost2010PropOp35
 70
     1
102
RTVSPost2010Prop36
280
     0
102
RTVSPost2010PropOp36
 70
     1
102
RTVSPost2010Prop37
 90
       50
102
RTVSPost2010PropOp37
 70
     1
102
RTVSPost2010Prop38
140
0.0
102
RTVSPost2010PropOp38
 70
     1
102
RTVSPost2010Prop39
140
1.0
102
RTVSPost2010PropOp39
 70
     1
102
RTVSPost2010Prop40
 90
        0
102
RTVSPost2010PropOp40
 70
     1
102
RTVSPost2010Prop41ColorIndex
 90
       18
102
RTVSPost2010Prop41ColorRGB
 90
        0
102
RTVSPost2010PropOp41
 70
     1
102
RTVSPost2010Prop42
 90
       50
102
RTVSPost2010PropOp42
 70
     1
102
RTVSPost2010Prop43
 90
        3
102
RTVSPost2010PropOp43
 70
     1
102
RTVSPost2010Prop44ColorIndex
 90
        5
102
RTVSPost2010Prop44ColorRGB
 90
      255
102
RTVSPost2010PropOp44
 70
     1
102
RTVSPost2010Prop45
280
     0
102
RTVSPost2010PropOp45
 70
     1
102
RTVSPost2010Prop46
 90
       50
102
RTVSPost2010PropOp46
 70
     1
102
RTVSPost2010Prop47
 90
       50
102
RTVSPost2010PropOp47
 70
     1
102
RTVSPost2010Prop48
 90
       50
102
RTVSPost2010PropOp48
 70
     1
102
RTVSPost2010Prop49
280
     0
102
RTVSPost2010PropOp49
 70
     1
102
RTVSPost2010Prop50
 90
       50
102
RTVSPost2010PropOp50
 70
     1
102
RTVSPost2010Prop51ColorIndex
 90
      256
102
RTVSPost2010Prop51ColorRGB
 90
-16777216
102
RTVSPost2010PropOp51
 70
     0
102
RTVSPost2010Prop52
140
1.0
102
RTVSPost2010PropOp52
 70
     0
102
RTVSPost2010Prop53
 90
        2
102
RTVSPost2010PropOp53
 70
     1
102
RTVSPost2010Prop54
  1
strokes_ogs.tif
102
RTVSPost2010PropOp54
 70
     1
102
RTVSPost2010Prop55
280
     0
102
RTVSPost2010PropOp55
 70
     1
102
RTVSPost2010Prop56
140
1.0
102
RTVSPost2010PropOp56
 70
     1
102
RTVSPost2010Prop57
140
1.0
102
RTVSPost2010PropOp57
 70
     1
  0
XRECORD
  5
244
102
{ACAD_REACTORS
330
243
102
}
330
243
100
AcDbXrecord
280
     1
102
RTVSPropertyOp0
 70
     1
102
RTVSPropertyOp1
 70
     1
102
RTVSPropertyOp2
 70
     1
102
RTVSPropertyOp3
 70
     1
102
RTVSPropertyOp4
 70
     1
102
RTVSPropertyOp5
 70
     1
102
RTVSPropertyOp6
 70
     1
102
RTVSPropertyOp7
 70
     1
102
RTVSPropertyOp8
 70
     1
102
RTVSPropertyOp9
 70
     1
102
RTVSPropertyOp10
 70
     1
102
RTVSPropertyOp11
 70
     1
102
RTVSPropertyOp12
 70
     1
102
RTVSPropertyOp13
 70
     1
102
RTVSPropertyOp14
 70
     1
102
RTVSPropertyOp15
 70
     1
102
RTVSPropertyOp16
 70
     1
102
RTVSPropertyOp17
 70
     1
102
RTVSPropertyOp18
 70
     1
102
RTVSPropertyOp19
 70
     1
102
RTVSPropertyOp20
 70
     1
102
RTVSPropertyOp21
 70
     1
102
RTVSPropertyOp22
 70
     1
102
RTVSPropertyOp23
 70
     1
102
RTVSPropertyOp24
 70
     1
102
RTVSPropertyOp25
 70
     1
102
RTVSPropertyOp26
 70
     1
102
RTVSPropertyOp27
 70
     1
102
RTVSPropertyOp28
 70
     1
102
RTVSPropertyOp29
 70
     1
102
RTVSPropertyOp30
 70
     1
102
RTVSPropertyOp31
 70
     1
102
RTVSPropertyOp32
 70
     1
102
RTVSPropertyOp33
 70
     1
102
RTVSPropertyOp34
 70
     1
102
RTVSPropertyOp35
 70
     1
102
RTVSPropertyOp36
 70
     1
102
RTVSPropertyOp37
 70
     1
102
RTVSPropertyOp38
 70
     1
102
RTVSPropertyOp39
 70
     1
102
RTVSPropertyOp40
 70
     1
102
RTVSPropertyOp41
 70
     1
102
RTVSPropertyOp42
 70
     1
102
RTVSPropertyOp43
 70
     1
102
RTVSPropertyOp44
 70
     1
102
RTVSPropertyOp45
 70
     1
102
RTVSPropertyOp46
 70
     1
102
RTVSPropertyOp47
 70
     1
102
RTVSPropertyOp48
 70
     1
102
RTVSPropertyOp49
 70
     1
102
RTVSPropertyOp50
 70
     1
102
RTVSPropertyOp51
 70
     0
102
RTVSPropertyOp52
 70
     0
102
RTVSPropertyOp53
 70
     1
102
RTVSPropertyOp54
 70
     1
102
RTVSPropertyOp55
 70
     1
102
RTVSPropertyOp56
 70
     1
102
RTVSPropertyOp57
 70
     1
102
RTVSPost2010Prop28
280
     0
102
RTVSPost2010PropOp28
 70
     1
102
RTVSPost2010Prop29
280
     1
102
RTVSPost2010PropOp29
 70
     1
102
RTVSPost2010Prop30
280
     1
102
RTVSPost2010PropOp30
 70
     1
102
RTVSPost2010Prop31
280
     0
102
RTVSPost2010PropOp31
 70
     1
102
RTVSPost2010Prop32
280
     0
102
RTVSPost2010PropOp32
 70
     1
102
RTVSPost2010Prop33
280
     0
102
RTVSPost2010PropOp33
 70
     1
102
RTVSPost2010Prop34
280
     0
102
RTVSPost2010PropOp34
 70
     1
102
RTVSPost2010Prop35
280
     0
102
RTVSPost2010PropOp35
 70
     1
102
RTVSPost2010Prop36
280
     0
102
RTVSPost2010PropOp36
 70
     1
102
RTVSPost2010Prop37
 90
       50
102
RTVSPost2010PropOp37
 70
     1
102
RTVSPost2010Prop38
140
0.0
102
RTVSPost2010PropOp38
 70
     1
102
RTVSPost2010Prop39
140
1.0
102
RTVSPost2010PropOp39
 70
     1
102
RTVSPost2010Prop40
 90
        0
102
RTVSPost2010PropOp40
 70
     1
102
RTVSPost2010Prop41ColorIndex
 90
       18
102
RTVSPost2010Prop41ColorRGB
 90
        0
102
RTVSPost2010PropOp41
 70
     1
102
RTVSPost2010Prop42
 90
       50
102
RTVSPost2010PropOp42
 70
     1
102
RTVSPost2010Prop43
 90
        3
102
RTVSPost2010PropOp43
 70
     1
102
RTVSPost2010Prop44ColorIndex
 90
        5
102
RTVSPost2010Prop44ColorRGB
 90
      255
102
RTVSPost2010PropOp44
 70
     1
102
RTVSPost2010Prop45
280
     0
102
RTVSPost2010PropOp45
 70
     1
102
RTVSPost2010Prop46
 90
       50
102
RTVSPost2010PropOp46
 70
     1
102
RTVSPost2010Prop47
 90
       50
102
RTVSPost2010PropOp47
 70
     1
102
RTVSPost2010Prop48
 90
       50
102
RTVSPost2010PropOp48
 70
     1
102
RTVSPost2010Prop49
280
     0
102
RTVSPost2010PropOp49
 70
     1
102
RTVSPost2010Prop50
 90
       50
102
RTVSPost2010PropOp50
 70
     1
102
RTVSPost2010Prop51ColorIndex
 90
      256
102
RTVSPost2010Prop51ColorRGB
 90
-16777216
102
RTVSPost2010PropOp51
 70
     0
102
RTVSPost2010Prop52
140
1.0
102
RTVSPost2010PropOp52
 70
     0
102
RTVSPost2010Prop53
 90
        2
102
RTVSPost2010PropOp53
 70
     1
102
RTVSPost2010Prop54
  1
strokes_ogs.tif
102
RTVSPost2010PropOp54
 70
     1
102
RTVSPost2010Prop55
280
     0
102
RTVSPost2010PropOp55
 70
     1
102
RTVSPost2010Prop56
140
1.0
102
RTVSPost2010PropOp56
 70
     1
102
RTVSPost2010Prop57
140
1.0
102
RTVSPost2010PropOp57
 70
     1
  0
XRECORD
  5
24C
102
{ACAD_REACTORS
330
24B
102
}
330
24B
100
AcDbXrecord
280
     1
102
RTVSPropertyOp0
 70
     1
102
RTVSPropertyOp1
 70
     1
102
RTVSPropertyOp2
 70
     1
102
RTVSPropertyOp3
 70
     1
102
RTVSPropertyOp4
 70
     1
102
RTVSPropertyOp5
 70
     1
102
RTVSPropertyOp6
 70
     1
102
RTVSPropertyOp7
 70
     1
102
RTVSPropertyOp8
 70
     1
102
RTVSPropertyOp9
 70
     1
102
RTVSPropertyOp10
 70
     1
102
RTVSPropertyOp11
 70
     1
102
RTVSPropertyOp12
 70
     1
102
RTVSPropertyOp13
 70
     1
102
RTVSPropertyOp14
 70
     1
102
RTVSPropertyOp15
 70
     1
102
RTVSPropertyOp16
 70
     1
102
RTVSPropertyOp17
 70
     1
102
RTVSPropertyOp18
 70
     1
102
RTVSPropertyOp19
 70
     1
102
RTVSPropertyOp20
 70
     1
102
RTVSPropertyOp21
 70
     1
102
RTVSPropertyOp22
 70
     1
102
RTVSPropertyOp23
 70
     1
102
RTVSPropertyOp24
 70
     1
102
RTVSPropertyOp25
 70
     1
102
RTVSPropertyOp26
 70
     1
102
RTVSPropertyOp27
 70
     1
102
RTVSPropertyOp28
 70
     1
102
RTVSPropertyOp29
 70
     1
102
RTVSPropertyOp30
 70
     1
102
RTVSPropertyOp31
 70
     1
102
RTVSPropertyOp32
 70
     1
102
RTVSPropertyOp33
 70
     1
102
RTVSPropertyOp34
 70
     1
102
RTVSPropertyOp35
 70
     1
102
RTVSPropertyOp36
 70
     1
102
RTVSPropertyOp37
 70
     1
102
RTVSPropertyOp38
 70
     1
102
RTVSPropertyOp39
 70
     1
102
RTVSPropertyOp40
 70
     1
102
RTVSPropertyOp41
 70
     1
102
RTVSPropertyOp42
 70
     1
102
RTVSPropertyOp43
 70
     1
102
RTVSPropertyOp44
 70
     1
102
RTVSPropertyOp45
 70
     1
102
RTVSPropertyOp46
 70
     1
102
RTVSPropertyOp47
 70
     1
102
RTVSPropertyOp48
 70
     1
102
RTVSPropertyOp49
 70
     1
102
RTVSPropertyOp50
 70
     1
102
RTVSPropertyOp51
 70
     0
102
RTVSPropertyOp52
 70
     0
102
RTVSPropertyOp53
 70
     1
102
RTVSPropertyOp54
 70
     1
102
RTVSPropertyOp55
 70
     1
102
RTVSPropertyOp56
 70
     1
102
RTVSPropertyOp57
 70
     1
102
RTVSPost2010Prop28
280
     0
102
RTVSPost2010PropOp28
 70
     1
102
RTVSPost2010Prop29
280
     1
102
RTVSPost2010PropOp29
 70
     1
102
RTVSPost2010Prop30
280
     1
102
RTVSPost2010PropOp30
 70
     1
102
RTVSPost2010Prop31
280
     0
102
RTVSPost2010PropOp31
 70
     1
102
RTVSPost2010Prop32
280
     0
102
RTVSPost2010PropOp32
 70
     1
102
RTVSPost2010Prop33
280
     0
102
RTVSPost2010PropOp33
 70
     1
102
RTVSPost2010Prop34
280
     0
102
RTVSPost2010PropOp34
 70
     1
102
RTVSPost2010Prop35
280
     0
102
RTVSPost2010PropOp35
 70
     1
102
RTVSPost2010Prop36
280
     0
102
RTVSPost2010PropOp36
 70
     1
102
RTVSPost2010Prop37
 90
       50
102
RTVSPost2010PropOp37
 70
     1
102
RTVSPost2010Prop38
140
0.0
102
RTVSPost2010PropOp38
 70
     1
102
RTVSPost2010Prop39
140
1.0
102
RTVSPost2010PropOp39
 70
     1
102
RTVSPost2010Prop40
 90
        0
102
RTVSPost2010PropOp40
 70
     1
102
RTVSPost2010Prop41ColorIndex
 90
       18
102
RTVSPost2010Prop41ColorRGB
 90
        0
102
RTVSPost2010PropOp41
 70
     1
102
RTVSPost2010Prop42
 90
       50
102
RTVSPost2010PropOp42
 70
     1
102
RTVSPost2010Prop43
 90
        3
102
RTVSPost2010PropOp43
 70
     1
102
RTVSPost2010Prop44ColorIndex
 90
        5
102
RTVSPost2010Prop44ColorRGB
 90
      255
102
RTVSPost2010PropOp44
 70
     1
102
RTVSPost2010Prop45
280
     0
102
RTVSPost2010PropOp45
 70
     1
102
RTVSPost2010Prop46
 90
       50
102
RTVSPost2010PropOp46
 70
     1
102
RTVSPost2010Prop47
 90
       50
102
RTVSPost2010PropOp47
 70
     1
102
RTVSPost2010Prop48
 90
       50
102
RTVSPost2010PropOp48
 70
     1
102
RTVSPost2010Prop49
280
     0
102
RTVSPost2010PropOp49
 70
     1
102
RTVSPost2010Prop50
 90
       50
102
RTVSPost2010PropOp50
 70
     1
102
RTVSPost2010Prop51ColorIndex
 90
      256
102
RTVSPost2010Prop51ColorRGB
 90
-16777216
102
RTVSPost2010PropOp51
 70
     0
102
RTVSPost2010Prop52
140
1.0
102
RTVSPost2010PropOp52
 70
     0
102
RTVSPost2010Prop53
 90
        2
102
RTVSPost2010PropOp53
 70
     1
102
RTVSPost2010Prop54
  1
strokes_ogs.tif
102
RTVSPost2010PropOp54
 70
     1
102
RTVSPost2010Prop55
280
     0
102
RTVSPost2010PropOp55
 70
     1
102
RTVSPost2010Prop56
140
1.0
102
RTVSPost2010PropOp56
 70
     1
102
RTVSPost2010Prop57
140
1.0
102
RTVSPost2010PropOp57
 70
     1
  0
XRECORD
  5
240
102
{ACAD_REACTORS
330
23F
102
}
330
23F
100
AcDbXrecord
280
     1
102
RTVSPropertyOp0
 70
     1
102
RTVSPropertyOp1
 70
     1
102
RTVSPropertyOp2
 70
     1
102
RTVSPropertyOp3
 70
     1
102
RTVSPropertyOp4
 70
     1
102
RTVSPropertyOp5
 70
     1
102
RTVSPropertyOp6
 70
     1
102
RTVSPropertyOp7
 70
     1
102
RTVSPropertyOp8
 70
     1
102
RTVSPropertyOp9
 70
     1
102
RTVSPropertyOp10
 70
     1
102
RTVSPropertyOp11
 70
     1
102
RTVSPropertyOp12
 70
     1
102
RTVSPropertyOp13
 70
     1
102
RTVSPropertyOp14
 70
     1
102
RTVSPropertyOp15
 70
     1
102
RTVSPropertyOp16
 70
     1
102
RTVSPropertyOp17
 70
     1
102
RTVSPropertyOp18
 70
     1
102
RTVSPropertyOp19
 70
     1
102
RTVSPropertyOp20
 70
     1
102
RTVSPropertyOp21
 70
     1
102
RTVSPropertyOp22
 70
     1
102
RTVSPropertyOp23
 70
     1
102
RTVSPropertyOp24
 70
     1
102
RTVSPropertyOp25
 70
     1
102
RTVSPropertyOp26
 70
     1
102
RTVSPropertyOp27
 70
     1
102
RTVSPropertyOp28
 70
     1
102
RTVSPropertyOp29
 70
     1
102
RTVSPropertyOp30
 70
     1
102
RTVSPropertyOp31
 70
     1
102
RTVSPropertyOp32
 70
     1
102
RTVSPropertyOp33
 70
     1
102
RTVSPropertyOp34
 70
     1
102
RTVSPropertyOp35
 70
     1
102
RTVSPropertyOp36
 70
     1
102
RTVSPropertyOp37
 70
     1
102
RTVSPropertyOp38
 70
     1
102
RTVSPropertyOp39
 70
     1
102
RTVSPropertyOp40
 70
     1
102
RTVSPropertyOp41
 70
     1
102
RTVSPropertyOp42
 70
     1
102
RTVSPropertyOp43
 70
     1
102
RTVSPropertyOp44
 70
     1
102
RTVSPropertyOp45
 70
     1
102
RTVSPropertyOp46
 70
     1
102
RTVSPropertyOp47
 70
     1
102
RTVSPropertyOp48
 70
     1
102
RTVSPropertyOp49
 70
     1
102
RTVSPropertyOp50
 70
     1
102
RTVSPropertyOp51
 70
     0
102
RTVSPropertyOp52
 70
     0
102
RTVSPropertyOp53
 70
     1
102
RTVSPropertyOp54
 70
     1
102
RTVSPropertyOp55
 70
     1
102
RTVSPropertyOp56
 70
     1
102
RTVSPropertyOp57
 70
     1
102
RTVSPost2010Prop28
280
     0
102
RTVSPost2010PropOp28
 70
     1
102
RTVSPost2010Prop29
280
     1
102
RTVSPost2010PropOp29
 70
     1
102
RTVSPost2010Prop30
280
     1
102
RTVSPost2010PropOp30
 70
     1
102
RTVSPost2010Prop31
280
     0
102
RTVSPost2010PropOp31
 70
     1
102
RTVSPost2010Prop32
280
     0
102
RTVSPost2010PropOp32
 70
     1
102
RTVSPost2010Prop33
280
     0
102
RTVSPost2010PropOp33
 70
     1
102
RTVSPost2010Prop34
280
     0
102
RTVSPost2010PropOp34
 70
     1
102
RTVSPost2010Prop35
280
     0
102
RTVSPost2010PropOp35
 70
     1
102
RTVSPost2010Prop36
280
     0
102
RTVSPost2010PropOp36
 70
     1
102
RTVSPost2010Prop37
 90
       50
102
RTVSPost2010PropOp37
 70
     1
102
RTVSPost2010Prop38
140
0.0
102
RTVSPost2010PropOp38
 70
     1
102
RTVSPost2010Prop39
140
1.0
102
RTVSPost2010PropOp39
 70
     1
102
RTVSPost2010Prop40
 90
        0
102
RTVSPost2010PropOp40
 70
     1
102
RTVSPost2010Prop41ColorIndex
 90
       18
102
RTVSPost2010Prop41ColorRGB
 90
        0
102
RTVSPost2010PropOp41
 70
     1
102
RTVSPost2010Prop42
 90
       50
102
RTVSPost2010PropOp42
 70
     1
102
RTVSPost2010Prop43
 90
        3
102
RTVSPost2010PropOp43
 70
     1
102
RTVSPost2010Prop44ColorIndex
 90
        5
102
RTVSPost2010Prop44ColorRGB
 90
      255
102
RTVSPost2010PropOp44
 70
     1
102
RTVSPost2010Prop45
280
     0
102
RTVSPost2010PropOp45
 70
     1
102
RTVSPost2010Prop46
 90
       50
102
RTVSPost2010PropOp46
 70
     1
102
RTVSPost2010Prop47
 90
       50
102
RTVSPost2010PropOp47
 70
     1
102
RTVSPost2010Prop48
 90
       50
102
RTVSPost2010PropOp48
 70
     1
102
RTVSPost2010Prop49
280
     0
102
RTVSPost2010PropOp49
 70
     1
102
RTVSPost2010Prop50
 90
       50
102
RTVSPost2010PropOp50
 70
     1
102
RTVSPost2010Prop51ColorIndex
 90
      256
102
RTVSPost2010Prop51ColorRGB
 90
-16777216
102
RTVSPost2010PropOp51
 70
     0
102
RTVSPost2010Prop52
140
1.0
102
RTVSPost2010PropOp52
 70
     0
102
RTVSPost2010Prop53
 90
        2
102
RTVSPost2010PropOp53
 70
     1
102
RTVSPost2010Prop54
  1
strokes_ogs.tif
102
RTVSPost2010PropOp54
 70
     1
102
RTVSPost2010Prop55
280
     0
102
RTVSPost2010PropOp55
 70
     1
102
RTVSPost2010Prop56
140
1.0
102
RTVSPost2010PropOp56
 70
     1
102
RTVSPost2010Prop57
140
1.0
102
RTVSPost2010PropOp57
 70
     1
  0
XRECORD
  5
242
102
{ACAD_REACTORS
330
241
102
}
330
241
100
AcDbXrecord
280
     1
102
RTVSPropertyOp0
 70
     1
102
RTVSPropertyOp1
 70
     1
102
RTVSPropertyOp2
 70
     1
102
RTVSPropertyOp3
 70
     1
102
RTVSPropertyOp4
 70
     1
102
RTVSPropertyOp5
 70
     1
102
RTVSPropertyOp6
 70
     1
102
RTVSPropertyOp7
 70
     1
102
RTVSPropertyOp8
 70
     1
102
RTVSPropertyOp9
 70
     1
102
RTVSPropertyOp10
 70
     1
102
RTVSPropertyOp11
 70
     1
102
RTVSPropertyOp12
 70
     1
102
RTVSPropertyOp13
 70
     1
102
RTVSPropertyOp14
 70
     1
102
RTVSPropertyOp15
 70
     1
102
RTVSPropertyOp16
 70
     1
102
RTVSPropertyOp17
 70
     1
102
RTVSPropertyOp18
 70
     1
102
RTVSPropertyOp19
 70
     1
102
RTVSPropertyOp20
 70
     1
102
RTVSPropertyOp21
 70
     1
102
RTVSPropertyOp22
 70
     1
102
RTVSPropertyOp23
 70
     1
102
RTVSPropertyOp24
 70
     1
102
RTVSPropertyOp25
 70
     1
102
RTVSPropertyOp26
 70
     1
102
RTVSPropertyOp27
 70
     1
102
RTVSPropertyOp28
 70
     1
102
RTVSPropertyOp29
 70
     1
102
RTVSPropertyOp30
 70
     1
102
RTVSPropertyOp31
 70
     1
102
RTVSPropertyOp32
 70
     1
102
RTVSPropertyOp33
 70
     1
102
RTVSPropertyOp34
 70
     1
102
RTVSPropertyOp35
 70
     1
102
RTVSPropertyOp36
 70
     1
102
RTVSPropertyOp37
 70
     1
102
RTVSPropertyOp38
 70
     1
102
RTVSPropertyOp39
 70
     1
102
RTVSPropertyOp40
 70
     1
102
RTVSPropertyOp41
 70
     1
102
RTVSPropertyOp42
 70
     1
102
RTVSPropertyOp43
 70
     1
102
RTVSPropertyOp44
 70
     1
102
RTVSPropertyOp45
 70
     1
102
RTVSPropertyOp46
 70
     1
102
RTVSPropertyOp47
 70
     1
102
RTVSPropertyOp48
 70
     1
102
RTVSPropertyOp49
 70
     1
102
RTVSPropertyOp50
 70
     1
102
RTVSPropertyOp51
 70
     0
102
RTVSPropertyOp52
 70
     0
102
RTVSPropertyOp53
 70
     1
102
RTVSPropertyOp54
 70
     1
102
RTVSPropertyOp55
 70
     1
102
RTVSPropertyOp56
 70
     1
102
RTVSPropertyOp57
 70
     1
102
RTVSPost2010Prop28
280
     0
102
RTVSPost2010PropOp28
 70
     1
102
RTVSPost2010Prop29
280
     1
102
RTVSPost2010PropOp29
 70
     1
102
RTVSPost2010Prop30
280
     1
102
RTVSPost2010PropOp30
 70
     1
102
RTVSPost2010Prop31
280
     0
102
RTVSPost2010PropOp31
 70
     1
102
RTVSPost2010Prop32
280
     0
102
RTVSPost2010PropOp32
 70
     1
102
RTVSPost2010Prop33
280
     0
102
RTVSPost2010PropOp33
 70
     1
102
RTVSPost2010Prop34
280
     0
102
RTVSPost2010PropOp34
 70
     1
102
RTVSPost2010Prop35
280
     0
102
RTVSPost2010PropOp35
 70
     1
102
RTVSPost2010Prop36
280
     0
102
RTVSPost2010PropOp36
 70
     1
102
RTVSPost2010Prop37
 90
       50
102
RTVSPost2010PropOp37
 70
     1
102
RTVSPost2010Prop38
140
0.0
102
RTVSPost2010PropOp38
 70
     1
102
RTVSPost2010Prop39
140
1.0
102
RTVSPost2010PropOp39
 70
     1
102
RTVSPost2010Prop40
 90
        0
102
RTVSPost2010PropOp40
 70
     1
102
RTVSPost2010Prop41ColorIndex
 90
       18
102
RTVSPost2010Prop41ColorRGB
 90
        0
102
RTVSPost2010PropOp41
 70
     1
102
RTVSPost2010Prop42
 90
       50
102
RTVSPost2010PropOp42
 70
     1
102
RTVSPost2010Prop43
 90
        3
102
RTVSPost2010PropOp43
 70
     1
102
RTVSPost2010Prop44ColorIndex
 90
        5
102
RTVSPost2010Prop44ColorRGB
 90
      255
102
RTVSPost2010PropOp44
 70
     1
102
RTVSPost2010Prop45
280
     0
102
RTVSPost2010PropOp45
 70
     1
102
RTVSPost2010Prop46
 90
       50
102
RTVSPost2010PropOp46
 70
     1
102
RTVSPost2010Prop47
 90
       50
102
RTVSPost2010PropOp47
 70
     1
102
RTVSPost2010Prop48
 90
       50
102
RTVSPost2010PropOp48
 70
     1
102
RTVSPost2010Prop49
280
     0
102
RTVSPost2010PropOp49
 70
     1
102
RTVSPost2010Prop50
 90
       50
102
RTVSPost2010PropOp50
 70
     1
102
RTVSPost2010Prop51ColorIndex
 90
      256
102
RTVSPost2010Prop51ColorRGB
 90
-16777216
102
RTVSPost2010PropOp51
 70
     0
102
RTVSPost2010Prop52
140
1.0
102
RTVSPost2010PropOp52
 70
     0
102
RTVSPost2010Prop53
 90
        2
102
RTVSPost2010PropOp53
 70
     1
102
RTVSPost2010Prop54
  1
strokes_ogs.tif
102
RTVSPost2010PropOp54
 70
     1
102
RTVSPost2010Prop55
280
     0
102
RTVSPost2010PropOp55
 70
     1
102
RTVSPost2010Prop56
140
1.0
102
RTVSPost2010PropOp56
 70
     1
102
RTVSPost2010Prop57
140
1.0
102
RTVSPost2010PropOp57
 70
     1
  0
XRECORD
  5
252
102
{ACAD_REACTORS
330
251
102
}
330
251
100
AcDbXrecord
280
     1
102
RTVSPropertyOp0
 70
     0
102
RTVSPropertyOp1
 70
     0
102
RTVSPropertyOp2
 70
     0
102
RTVSPropertyOp3
 70
     0
102
RTVSPropertyOp4
 70
     0
102
RTVSPropertyOp5
 70
     0
102
RTVSPropertyOp6
 70
     0
102
RTVSPropertyOp7
 70
     0
102
RTVSPropertyOp8
 70
     0
102
RTVSPropertyOp9
 70
     0
102
RTVSPropertyOp10
 70
     0
102
RTVSPropertyOp11
 70
     0
102
RTVSPropertyOp12
 70
     0
102
RTVSPropertyOp13
 70
     0
102
RTVSPropertyOp14
 70
     2
102
RTVSPropertyOp15
 70
     0
102
RTVSPropertyOp16
 70
     0
102
RTVSPropertyOp17
 70
     0
102
RTVSPropertyOp18
 70
     0
102
RTVSPropertyOp19
 70
     0
102
RTVSPropertyOp20
 70
     0
102
RTVSPropertyOp21
 70
     0
102
RTVSPropertyOp22
 70
     0
102
RTVSPropertyOp23
 70
     0
102
RTVSPropertyOp24
 70
     0
102
RTVSPropertyOp25
 70
     0
102
RTVSPropertyOp26
 70
     0
102
RTVSPropertyOp27
 70
     0
102
RTVSPropertyOp28
 70
     0
102
RTVSPropertyOp29
 70
     0
102
RTVSPropertyOp30
 70
     0
102
RTVSPropertyOp31
 70
     0
102
RTVSPropertyOp32
 70
     0
102
RTVSPropertyOp33
 70
     0
102
RTVSPropertyOp34
 70
     0
102
RTVSPropertyOp35
 70
     0
102
RTVSPropertyOp36
 70
     0
102
RTVSPropertyOp37
 70
     0
102
RTVSPropertyOp38
 70
     0
102
RTVSPropertyOp39
 70
     0
102
RTVSPropertyOp40
 70
     0
102
RTVSPropertyOp41
 70
     0
102
RTVSPropertyOp42
 70
     0
102
RTVSPropertyOp43
 70
     0
102
RTVSPropertyOp44
 70
     0
102
RTVSPropertyOp45
 70
     0
102
RTVSPropertyOp46
 70
     0
102
RTVSPropertyOp47
 70
     0
102
RTVSPropertyOp48
 70
     0
102
RTVSPropertyOp49
 70
     0
102
RTVSPropertyOp50
 70
     0
102
RTVSPropertyOp51
 70
     0
102
RTVSPropertyOp52
 70
     0
102
RTVSPropertyOp53
 70
     0
102
RTVSPropertyOp54
 70
     0
102
RTVSPropertyOp55
 70
     0
102
RTVSPropertyOp56
 70
     0
102
RTVSPropertyOp57
 70
     0
102
RTVSPost2010Prop28
280
     0
102
RTVSPost2010PropOp28
 70
     0
102
RTVSPost2010Prop29
280
     1
102
RTVSPost2010PropOp29
 70
     0
102
RTVSPost2010Prop30
280
     1
102
RTVSPost2010PropOp30
 70
     0
102
RTVSPost2010Prop31
280
     0
102
RTVSPost2010PropOp31
 70
     0
102
RTVSPost2010Prop32
280
     0
102
RTVSPost2010PropOp32
 70
     0
102
RTVSPost2010Prop33
280
     0
102
RTVSPost2010PropOp33
 70
     0
102
RTVSPost2010Prop34
280
     0
102
RTVSPost2010PropOp34
 70
     0
102
RTVSPost2010Prop35
280
     0
102
RTVSPost2010PropOp35
 70
     0
102
RTVSPost2010Prop36
280
     0
102
RTVSPost2010PropOp36
 70
     0
102
RTVSPost2010Prop37
 90
       50
102
RTVSPost2010PropOp37
 70
     0
102
RTVSPost2010Prop38
140
0.0
102
RTVSPost2010PropOp38
 70
     0
102
RTVSPost2010Prop39
140
1.0
102
RTVSPost2010PropOp39
 70
     0
102
RTVSPost2010Prop40
 90
        0
102
RTVSPost2010PropOp40
 70
     0
102
RTVSPost2010Prop41ColorIndex
 90
       18
102
RTVSPost2010Prop41ColorRGB
 90
        0
102
RTVSPost2010PropOp41
 70
     0
102
RTVSPost2010Prop42
 90
       50
102
RTVSPost2010PropOp42
 70
     0
102
RTVSPost2010Prop43
 90
        3
102
RTVSPost2010PropOp43
 70
     0
102
RTVSPost2010Prop44ColorIndex
 90
        5
102
RTVSPost2010Prop44ColorRGB
 90
      255
102
RTVSPost2010PropOp44
 70
     0
102
RTVSPost2010Prop45
280
     0
102
RTVSPost2010PropOp45
 70
     0
102
RTVSPost2010Prop46
 90
       50
102
RTVSPost2010PropOp46
 70
     0
102
RTVSPost2010Prop47
 90
       50
102
RTVSPost2010PropOp47
 70
     0
102
RTVSPost2010Prop48
 90
       50
102
RTVSPost2010PropOp48
 70
     0
102
RTVSPost2010Prop49
280
     0
102
RTVSPost2010PropOp49
 70
     0
102
RTVSPost2010Prop50
 90
       50
102
RTVSPost2010PropOp50
 70
     0
102
RTVSPost2010Prop51ColorIndex
 90
      256
102
RTVSPost2010Prop51ColorRGB
 90
-16777216
102
RTVSPost2010PropOp51
 70
     0
102
RTVSPost2010Prop52
140
1.0
102
RTVSPost2010PropOp52
 70
     0
102
RTVSPost2010Prop53
 90
        2
102
RTVSPost2010PropOp53
 70
     0
102
RTVSPost2010Prop54
  1
strokes_ogs.tif
102
RTVSPost2010PropOp54
 70
     0
102
RTVSPost2010Prop55
280
     0
102
RTVSPost2010PropOp55
 70
     0
102
RTVSPost2010Prop56
140
1.0
102
RTVSPost2010PropOp56
 70
     0
102
RTVSPost2010Prop57
140
1.0
102
RTVSPost2010PropOp57
 70
     0
  0
XRECORD
  5
24A
102
{ACAD_REACTORS
330
249
102
}
330
249
100
AcDbXrecord
280
     1
102
RTVSPropertyOp0
 70
     1
102
RTVSPropertyOp1
 70
     1
102
RTVSPropertyOp2
 70
     1
102
RTVSPropertyOp3
 70
     1
102
RTVSPropertyOp4
 70
     1
102
RTVSPropertyOp5
 70
     1
102
RTVSPropertyOp6
 70
     1
102
RTVSPropertyOp7
 70
     1
102
RTVSPropertyOp8
 70
     1
102
RTVSPropertyOp9
 70
     1
102
RTVSPropertyOp10
 70
     1
102
RTVSPropertyOp11
 70
     1
102
RTVSPropertyOp12
 70
     1
102
RTVSPropertyOp13
 70
     1
102
RTVSPropertyOp14
 70
     1
102
RTVSPropertyOp15
 70
     1
102
RTVSPropertyOp16
 70
     1
102
RTVSPropertyOp17
 70
     1
102
RTVSPropertyOp18
 70
     1
102
RTVSPropertyOp19
 70
     1
102
RTVSPropertyOp20
 70
     1
102
RTVSPropertyOp21
 70
     1
102
RTVSPropertyOp22
 70
     1
102
RTVSPropertyOp23
 70
     1
102
RTVSPropertyOp24
 70
     1
102
RTVSPropertyOp25
 70
     1
102
RTVSPropertyOp26
 70
     1
102
RTVSPropertyOp27
 70
     1
102
RTVSPropertyOp28
 70
     1
102
RTVSPropertyOp29
 70
     1
102
RTVSPropertyOp30
 70
     1
102
RTVSPropertyOp31
 70
     1
102
RTVSPropertyOp32
 70
     1
102
RTVSPropertyOp33
 70
     1
102
RTVSPropertyOp34
 70
     1
102
RTVSPropertyOp35
 70
     1
102
RTVSPropertyOp36
 70
     1
102
RTVSPropertyOp37
 70
     1
102
RTVSPropertyOp38
 70
     1
102
RTVSPropertyOp39
 70
     1
102
RTVSPropertyOp40
 70
     1
102
RTVSPropertyOp41
 70
     1
102
RTVSPropertyOp42
 70
     1
102
RTVSPropertyOp43
 70
     1
102
RTVSPropertyOp44
 70
     1
102
RTVSPropertyOp45
 70
     1
102
RTVSPropertyOp46
 70
     1
102
RTVSPropertyOp47
 70
     1
102
RTVSPropertyOp48
 70
     1
102
RTVSPropertyOp49
 70
     1
102
RTVSPropertyOp50
 70
     1
102
RTVSPropertyOp51
 70
     0
102
RTVSPropertyOp52
 70
     0
102
RTVSPropertyOp53
 70
     1
102
RTVSPropertyOp54
 70
     1
102
RTVSPropertyOp55
 70
     1
102
RTVSPropertyOp56
 70
     1
102
RTVSPropertyOp57
 70
     1
102
RTVSPost2010Prop28
280
     0
102
RTVSPost2010PropOp28
 70
     1
102
RTVSPost2010Prop29
280
     1
102
RTVSPost2010PropOp29
 70
     1
102
RTVSPost2010Prop30
280
     1
102
RTVSPost2010PropOp30
 70
     1
102
RTVSPost2010Prop31
280
     0
102
RTVSPost2010PropOp31
 70
     1
102
RTVSPost2010Prop32
280
     0
102
RTVSPost2010PropOp32
 70
     1
102
RTVSPost2010Prop33
280
     0
102
RTVSPost2010PropOp33
 70
     1
102
RTVSPost2010Prop34
280
     0
102
RTVSPost2010PropOp34
 70
     1
102
RTVSPost2010Prop35
280
     0
102
RTVSPost2010PropOp35
 70
     1
102
RTVSPost2010Prop36
280
     0
102
RTVSPost2010PropOp36
 70
     1
102
RTVSPost2010Prop37
 90
       50
102
RTVSPost2010PropOp37
 70
     1
102
RTVSPost2010Prop38
140
0.0
102
RTVSPost2010PropOp38
 70
     1
102
RTVSPost2010Prop39
140
1.0
102
RTVSPost2010PropOp39
 70
     1
102
RTVSPost2010Prop40
 90
        0
102
RTVSPost2010PropOp40
 70
     1
102
RTVSPost2010Prop41ColorIndex
 90
       18
102
RTVSPost2010Prop41ColorRGB
 90
        0
102
RTVSPost2010PropOp41
 70
     1
102
RTVSPost2010Prop42
 90
       50
102
RTVSPost2010PropOp42
 70
     1
102
RTVSPost2010Prop43
 90
        3
102
RTVSPost2010PropOp43
 70
     1
102
RTVSPost2010Prop44ColorIndex
 90
        5
102
RTVSPost2010Prop44ColorRGB
 90
      255
102
RTVSPost2010PropOp44
 70
     1
102
RTVSPost2010Prop45
280
     0
102
RTVSPost2010PropOp45
 70
     1
102
RTVSPost2010Prop46
 90
       50
102
RTVSPost2010PropOp46
 70
     1
102
RTVSPost2010Prop47
 90
       50
102
RTVSPost2010PropOp47
 70
     1
102
RTVSPost2010Prop48
 90
       50
102
RTVSPost2010PropOp48
 70
     1
102
RTVSPost2010Prop49
280
     0
102
RTVSPost2010PropOp49
 70
     1
102
RTVSPost2010Prop50
 90
       50
102
RTVSPost2010PropOp50
 70
     1
102
RTVSPost2010Prop51ColorIndex
 90
      256
102
RTVSPost2010Prop51ColorRGB
 90
-16777216
102
RTVSPost2010PropOp51
 70
     0
102
RTVSPost2010Prop52
140
1.0
102
RTVSPost2010PropOp52
 70
     0
102
RTVSPost2010Prop53
 90
        2
102
RTVSPost2010PropOp53
 70
     1
102
RTVSPost2010Prop54
  1
strokes_ogs.tif
102
RTVSPost2010PropOp54
 70
     1
102
RTVSPost2010Prop55
280
     0
102
RTVSPost2010PropOp55
 70
     1
102
RTVSPost2010Prop56
140
1.0
102
RTVSPost2010PropOp56
 70
     1
102
RTVSPost2010Prop57
140
1.0
102
RTVSPost2010PropOp57
 70
     1
  0
XRECORD
  5
22E
102
{ACAD_REACTORS
330
22D
102
}
330
22D
100
AcDbXrecord
280
     1
102
RTVSPropertyOp0
 70
     1
102
RTVSPropertyOp1
 70
     1
102
RTVSPropertyOp2
 70
     1
102
RTVSPropertyOp3
 70
     1
102
RTVSPropertyOp4
 70
     1
102
RTVSPropertyOp5
 70
     1
102
RTVSPropertyOp6
 70
     1
102
RTVSPropertyOp7
 70
     1
102
RTVSPropertyOp8
 70
     1
102
RTVSPropertyOp9
 70
     1
102
RTVSPropertyOp10
 70
     1
102
RTVSPropertyOp11
 70
     1
102
RTVSPropertyOp12
 70
     1
102
RTVSPropertyOp13
 70
     1
102
RTVSPropertyOp14
 70
     1
102
RTVSPropertyOp15
 70
     1
102
RTVSPropertyOp16
 70
     1
102
RTVSPropertyOp17
 70
     1
102
RTVSPropertyOp18
 70
     1
102
RTVSPropertyOp19
 70
     1
102
RTVSPropertyOp20
 70
     1
102
RTVSPropertyOp21
 70
     1
102
RTVSPropertyOp22
 70
     1
102
RTVSPropertyOp23
 70
     1
102
RTVSPropertyOp24
 70
     1
102
RTVSPropertyOp25
 70
     1
102
RTVSPropertyOp26
 70
     1
102
RTVSPropertyOp27
 70
     1
102
RTVSPropertyOp28
 70
     1
102
RTVSPropertyOp29
 70
     1
102
RTVSPropertyOp30
 70
     1
102
RTVSPropertyOp31
 70
     1
102
RTVSPropertyOp32
 70
     1
102
RTVSPropertyOp33
 70
     1
102
RTVSPropertyOp34
 70
     1
102
RTVSPropertyOp35
 70
     1
102
RTVSPropertyOp36
 70
     1
102
RTVSPropertyOp37
 70
     1
102
RTVSPropertyOp38
 70
     1
102
RTVSPropertyOp39
 70
     1
102
RTVSPropertyOp40
 70
     1
102
RTVSPropertyOp41
 70
     1
102
RTVSPropertyOp42
 70
     1
102
RTVSPropertyOp43
 70
     1
102
RTVSPropertyOp44
 70
     1
102
RTVSPropertyOp45
 70
     1
102
RTVSPropertyOp46
 70
     1
102
RTVSPropertyOp47
 70
     1
102
RTVSPropertyOp48
 70
     1
102
RTVSPropertyOp49
 70
     1
102
RTVSPropertyOp50
 70
     1
102
RTVSPropertyOp51
 70
     0
102
RTVSPropertyOp52
 70
     0
102
RTVSPropertyOp53
 70
     1
102
RTVSPropertyOp54
 70
     1
102
RTVSPropertyOp55
 70
     1
102
RTVSPropertyOp56
 70
     1
102
RTVSPropertyOp57
 70
     1
102
RTVSPost2010Prop28
280
     0
102
RTVSPost2010PropOp28
 70
     1
102
RTVSPost2010Prop29
280
     1
102
RTVSPost2010PropOp29
 70
     1
102
RTVSPost2010Prop30
280
     1
102
RTVSPost2010PropOp30
 70
     1
102
RTVSPost2010Prop31
280
     0
102
RTVSPost2010PropOp31
 70
     1
102
RTVSPost2010Prop32
280
     0
102
RTVSPost2010PropOp32
 70
     1
102
RTVSPost2010Prop33
280
     0
102
RTVSPost2010PropOp33
 70
     1
102
RTVSPost2010Prop34
280
     0
102
RTVSPost2010PropOp34
 70
     1
102
RTVSPost2010Prop35
280
     0
102
RTVSPost2010PropOp35
 70
     1
102
RTVSPost2010Prop36
280
     0
102
RTVSPost2010PropOp36
 70
     1
102
RTVSPost2010Prop37
 90
       50
102
RTVSPost2010PropOp37
 70
     1
102
RTVSPost2010Prop38
140
0.0
102
RTVSPost2010PropOp38
 70
     1
102
RTVSPost2010Prop39
140
1.0
102
RTVSPost2010PropOp39
 70
     1
102
RTVSPost2010Prop40
 90
        0
102
RTVSPost2010PropOp40
 70
     1
102
RTVSPost2010Prop41ColorIndex
 90
       18
102
RTVSPost2010Prop41ColorRGB
 90
        0
102
RTVSPost2010PropOp41
 70
     1
102
RTVSPost2010Prop42
 90
       50
102
RTVSPost2010PropOp42
 70
     1
102
RTVSPost2010Prop43
 90
        3
102
RTVSPost2010PropOp43
 70
     1
102
RTVSPost2010Prop44ColorIndex
 90
        5
102
RTVSPost2010Prop44ColorRGB
 90
      255
102
RTVSPost2010PropOp44
 70
     1
102
RTVSPost2010Prop45
280
     0
102
RTVSPost2010PropOp45
 70
     1
102
RTVSPost2010Prop46
 90
       50
102
RTVSPost2010PropOp46
 70
     1
102
RTVSPost2010Prop47
 90
       50
102
RTVSPost2010PropOp47
 70
     1
102
RTVSPost2010Prop48
 90
       50
102
RTVSPost2010PropOp48
 70
     1
102
RTVSPost2010Prop49
280
     0
102
RTVSPost2010PropOp49
 70
     1
102
RTVSPost2010Prop50
 90
       50
102
RTVSPost2010PropOp50
 70
     1
102
RTVSPost2010Prop51ColorIndex
 90
      256
102
RTVSPost2010Prop51ColorRGB
 90
-16777216
102
RTVSPost2010PropOp51
 70
     0
102
RTVSPost2010Prop52
140
1.0
102
RTVSPost2010PropOp52
 70
     0
102
RTVSPost2010Prop53
 90
        2
102
RTVSPost2010PropOp53
 70
     1
102
RTVSPost2010Prop54
  1
strokes_ogs.tif
102
RTVSPost2010PropOp54
 70
     1
102
RTVSPost2010Prop55
280
     0
102
RTVSPost2010PropOp55
 70
     1
102
RTVSPost2010Prop56
140
1.0
102
RTVSPost2010PropOp56
 70
     1
102
RTVSPost2010Prop57
140
1.0
102
RTVSPost2010PropOp57
 70
     1
  0
XRECORD
  5
230
102
{ACAD_REACTORS
330
22F
102
}
330
22F
100
AcDbXrecord
280
     1
102
RTVSPropertyOp0
 70
     1
102
RTVSPropertyOp1
 70
     1
102
RTVSPropertyOp2
 70
     1
102
RTVSPropertyOp3
 70
     1
102
RTVSPropertyOp4
 70
     1
102
RTVSPropertyOp5
 70
     1
102
RTVSPropertyOp6
 70
     1
102
RTVSPropertyOp7
 70
     1
102
RTVSPropertyOp8
 70
     1
102
RTVSPropertyOp9
 70
     1
102
RTVSPropertyOp10
 70
     1
102
RTVSPropertyOp11
 70
     1
102
RTVSPropertyOp12
 70
     1
102
RTVSPropertyOp13
 70
     1
102
RTVSPropertyOp14
 70
     1
102
RTVSPropertyOp15
 70
     1
102
RTVSPropertyOp16
 70
     1
102
RTVSPropertyOp17
 70
     1
102
RTVSPropertyOp18
 70
     1
102
RTVSPropertyOp19
 70
     1
102
RTVSPropertyOp20
 70
     1
102
RTVSPropertyOp21
 70
     1
102
RTVSPropertyOp22
 70
     1
102
RTVSPropertyOp23
 70
     1
102
RTVSPropertyOp24
 70
     1
102
RTVSPropertyOp25
 70
     1
102
RTVSPropertyOp26
 70
     1
102
RTVSPropertyOp27
 70
     1
102
RTVSPropertyOp28
 70
     1
102
RTVSPropertyOp29
 70
     1
102
RTVSPropertyOp30
 70
     1
102
RTVSPropertyOp31
 70
     1
102
RTVSPropertyOp32
 70
     1
102
RTVSPropertyOp33
 70
     1
102
RTVSPropertyOp34
 70
     1
102
RTVSPropertyOp35
 70
     1
102
RTVSPropertyOp36
 70
     1
102
RTVSPropertyOp37
 70
     1
102
RTVSPropertyOp38
 70
     1
102
RTVSPropertyOp39
 70
     1
102
RTVSPropertyOp40
 70
     1
102
RTVSPropertyOp41
 70
     1
102
RTVSPropertyOp42
 70
     1
102
RTVSPropertyOp43
 70
     1
102
RTVSPropertyOp44
 70
     1
102
RTVSPropertyOp45
 70
     1
102
RTVSPropertyOp46
 70
     1
102
RTVSPropertyOp47
 70
     1
102
RTVSPropertyOp48
 70
     1
102
RTVSPropertyOp49
 70
     1
102
RTVSPropertyOp50
 70
     1
102
RTVSPropertyOp51
 70
     0
102
RTVSPropertyOp52
 70
     0
102
RTVSPropertyOp53
 70
     1
102
RTVSPropertyOp54
 70
     1
102
RTVSPropertyOp55
 70
     1
102
RTVSPropertyOp56
 70
     1
102
RTVSPropertyOp57
 70
     1
102
RTVSPost2010Prop28
280
     0
102
RTVSPost2010PropOp28
 70
     1
102
RTVSPost2010Prop29
280
     1
102
RTVSPost2010PropOp29
 70
     1
102
RTVSPost2010Prop30
280
     1
102
RTVSPost2010PropOp30
 70
     1
102
RTVSPost2010Prop31
280
     0
102
RTVSPost2010PropOp31
 70
     1
102
RTVSPost2010Prop32
280
     0
102
RTVSPost2010PropOp32
 70
     1
102
RTVSPost2010Prop33
280
     0
102
RTVSPost2010PropOp33
 70
     1
102
RTVSPost2010Prop34
280
     0
102
RTVSPost2010PropOp34
 70
     1
102
RTVSPost2010Prop35
280
     0
102
RTVSPost2010PropOp35
 70
     1
102
RTVSPost2010Prop36
280
     0
102
RTVSPost2010PropOp36
 70
     1
102
RTVSPost2010Prop37
 90
       50
102
RTVSPost2010PropOp37
 70
     1
102
RTVSPost2010Prop38
140
0.0
102
RTVSPost2010PropOp38
 70
     1
102
RTVSPost2010Prop39
140
1.0
102
RTVSPost2010PropOp39
 70
     1
102
RTVSPost2010Prop40
 90
        0
102
RTVSPost2010PropOp40
 70
     1
102
RTVSPost2010Prop41ColorIndex
 90
       18
102
RTVSPost2010Prop41ColorRGB
 90
        0
102
RTVSPost2010PropOp41
 70
     1
102
RTVSPost2010Prop42
 90
       50
102
RTVSPost2010PropOp42
 70
     1
102
RTVSPost2010Prop43
 90
        3
102
RTVSPost2010PropOp43
 70
     1
102
RTVSPost2010Prop44ColorIndex
 90
        5
102
RTVSPost2010Prop44ColorRGB
 90
      255
102
RTVSPost2010PropOp44
 70
     1
102
RTVSPost2010Prop45
280
     0
102
RTVSPost2010PropOp45
 70
     1
102
RTVSPost2010Prop46
 90
       50
102
RTVSPost2010PropOp46
 70
     1
102
RTVSPost2010Prop47
 90
       50
102
RTVSPost2010PropOp47
 70
     1
102
RTVSPost2010Prop48
 90
       50
102
RTVSPost2010PropOp48
 70
     1
102
RTVSPost2010Prop49
280
     0
102
RTVSPost2010PropOp49
 70
     1
102
RTVSPost2010Prop50
 90
       50
102
RTVSPost2010PropOp50
 70
     1
102
RTVSPost2010Prop51ColorIndex
 90
      256
102
RTVSPost2010Prop51ColorRGB
 90
-16777216
102
RTVSPost2010PropOp51
 70
     0
102
RTVSPost2010Prop52
140
1.0
102
RTVSPost2010PropOp52
 70
     0
102
RTVSPost2010Prop53
 90
        2
102
RTVSPost2010PropOp53
 70
     1
102
RTVSPost2010Prop54
  1
strokes_ogs.tif
102
RTVSPost2010PropOp54
 70
     1
102
RTVSPost2010Prop55
280
     0
102
RTVSPost2010PropOp55
 70
     1
102
RTVSPost2010Prop56
140
1.0
102
RTVSPost2010PropOp56
 70
     1
102
RTVSPost2010Prop57
140
1.0
102
RTVSPost2010PropOp57
 70
     1
  0
XRECORD
  5
232
102
{ACAD_REACTORS
330
231
102
}
330
231
100
AcDbXrecord
280
     1
102
RTVSPropertyOp0
 70
     1
102
RTVSPropertyOp1
 70
     1
102
RTVSPropertyOp2
 70
     1
102
RTVSPropertyOp3
 70
     1
102
RTVSPropertyOp4
 70
     1
102
RTVSPropertyOp5
 70
     1
102
RTVSPropertyOp6
 70
     1
102
RTVSPropertyOp7
 70
     1
102
RTVSPropertyOp8
 70
     1
102
RTVSPropertyOp9
 70
     1
102
RTVSPropertyOp10
 70
     1
102
RTVSPropertyOp11
 70
     1
102
RTVSPropertyOp12
 70
     1
102
RTVSPropertyOp13
 70
     1
102
RTVSPropertyOp14
 70
     1
102
RTVSPropertyOp15
 70
     1
102
RTVSPropertyOp16
 70
     1
102
RTVSPropertyOp17
 70
     1
102
RTVSPropertyOp18
 70
     1
102
RTVSPropertyOp19
 70
     1
102
RTVSPropertyOp20
 70
     1
102
RTVSPropertyOp21
 70
     1
102
RTVSPropertyOp22
 70
     1
102
RTVSPropertyOp23
 70
     1
102
RTVSPropertyOp24
 70
     1
102
RTVSPropertyOp25
 70
     1
102
RTVSPropertyOp26
 70
     1
102
RTVSPropertyOp27
 70
     1
102
RTVSPropertyOp28
 70
     1
102
RTVSPropertyOp29
 70
     1
102
RTVSPropertyOp30
 70
     1
102
RTVSPropertyOp31
 70
     1
102
RTVSPropertyOp32
 70
     1
102
RTVSPropertyOp33
 70
     1
102
RTVSPropertyOp34
 70
     1
102
RTVSPropertyOp35
 70
     1
102
RTVSPropertyOp36
 70
     1
102
RTVSPropertyOp37
 70
     1
102
RTVSPropertyOp38
 70
     1
102
RTVSPropertyOp39
 70
     1
102
RTVSPropertyOp40
 70
     1
102
RTVSPropertyOp41
 70
     1
102
RTVSPropertyOp42
 70
     1
102
RTVSPropertyOp43
 70
     1
102
RTVSPropertyOp44
 70
     1
102
RTVSPropertyOp45
 70
     1
102
RTVSPropertyOp46
 70
     1
102
RTVSPropertyOp47
 70
     1
102
RTVSPropertyOp48
 70
     1
102
RTVSPropertyOp49
 70
     1
102
RTVSPropertyOp50
 70
     1
102
RTVSPropertyOp51
 70
     0
102
RTVSPropertyOp52
 70
     0
102
RTVSPropertyOp53
 70
     1
102
RTVSPropertyOp54
 70
     1
102
RTVSPropertyOp55
 70
     1
102
RTVSPropertyOp56
 70
     1
102
RTVSPropertyOp57
 70
     1
102
RTVSPost2010Prop28
280
     0
102
RTVSPost2010PropOp28
 70
     1
102
RTVSPost2010Prop29
280
     1
102
RTVSPost2010PropOp29
 70
     1
102
RTVSPost2010Prop30
280
     1
102
RTVSPost2010PropOp30
 70
     1
102
RTVSPost2010Prop31
280
     0
102
RTVSPost2010PropOp31
 70
     1
102
RTVSPost2010Prop32
280
     0
102
RTVSPost2010PropOp32
 70
     1
102
RTVSPost2010Prop33
280
     0
102
RTVSPost2010PropOp33
 70
     1
102
RTVSPost2010Prop34
280
     0
102
RTVSPost2010PropOp34
 70
     1
102
RTVSPost2010Prop35
280
     0
102
RTVSPost2010PropOp35
 70
     1
102
RTVSPost2010Prop36
280
     0
102
RTVSPost2010PropOp36
 70
     1
102
RTVSPost2010Prop37
 90
       50
102
RTVSPost2010PropOp37
 70
     1
102
RTVSPost2010Prop38
140
0.0
102
RTVSPost2010PropOp38
 70
     1
102
RTVSPost2010Prop39
140
1.0
102
RTVSPost2010PropOp39
 70
     1
102
RTVSPost2010Prop40
 90
        0
102
RTVSPost2010PropOp40
 70
     1
102
RTVSPost2010Prop41ColorIndex
 90
       18
102
RTVSPost2010Prop41ColorRGB
 90
        0
102
RTVSPost2010PropOp41
 70
     1
102
RTVSPost2010Prop42
 90
       50
102
RTVSPost2010PropOp42
 70
     1
102
RTVSPost2010Prop43
 90
        3
102
RTVSPost2010PropOp43
 70
     1
102
RTVSPost2010Prop44ColorIndex
 90
        5
102
RTVSPost2010Prop44ColorRGB
 90
      255
102
RTVSPost2010PropOp44
 70
     1
102
RTVSPost2010Prop45
280
     0
102
RTVSPost2010PropOp45
 70
     1
102
RTVSPost2010Prop46
 90
       50
102
RTVSPost2010PropOp46
 70
     1
102
RTVSPost2010Prop47
 90
       50
102
RTVSPost2010PropOp47
 70
     1
102
RTVSPost2010Prop48
 90
       50
102
RTVSPost2010PropOp48
 70
     1
102
RTVSPost2010Prop49
280
     0
102
RTVSPost2010PropOp49
 70
     1
102
RTVSPost2010Prop50
 90
       50
102
RTVSPost2010PropOp50
 70
     1
102
RTVSPost2010Prop51ColorIndex
 90
      256
102
RTVSPost2010Prop51ColorRGB
 90
-16777216
102
RTVSPost2010PropOp51
 70
     0
102
RTVSPost2010Prop52
140
1.0
102
RTVSPost2010PropOp52
 70
     0
102
RTVSPost2010Prop53
 90
        2
102
RTVSPost2010PropOp53
 70
     1
102
RTVSPost2010Prop54
  1
strokes_ogs.tif
102
RTVSPost2010PropOp54
 70
     1
102
RTVSPost2010Prop55
280
     0
102
RTVSPost2010PropOp55
 70
     1
102
RTVSPost2010Prop56
140
1.0
102
RTVSPost2010PropOp56
 70
     1
102
RTVSPost2010Prop57
140
1.0
102
RTVSPost2010PropOp57
 70
     1
  0
XRECORD
  5
234
102
{ACAD_REACTORS
330
233
102
}
330
233
100
AcDbXrecord
280
     1
102
RTVSPropertyOp0
 70
     1
102
RTVSPropertyOp1
 70
     1
102
RTVSPropertyOp2
 70
     1
102
RTVSPropertyOp3
 70
     1
102
RTVSPropertyOp4
 70
     1
102
RTVSPropertyOp5
 70
     1
102
RTVSPropertyOp6
 70
     1
102
RTVSPropertyOp7
 70
     1
102
RTVSPropertyOp8
 70
     1
102
RTVSPropertyOp9
 70
     1
102
RTVSPropertyOp10
 70
     1
102
RTVSPropertyOp11
 70
     1
102
RTVSPropertyOp12
 70
     1
102
RTVSPropertyOp13
 70
     1
102
RTVSPropertyOp14
 70
     1
102
RTVSPropertyOp15
 70
     1
102
RTVSPropertyOp16
 70
     1
102
RTVSPropertyOp17
 70
     1
102
RTVSPropertyOp18
 70
     1
102
RTVSPropertyOp19
 70
     1
102
RTVSPropertyOp20
 70
     1
102
RTVSPropertyOp21
 70
     1
102
RTVSPropertyOp22
 70
     1
102
RTVSPropertyOp23
 70
     1
102
RTVSPropertyOp24
 70
     1
102
RTVSPropertyOp25
 70
     1
102
RTVSPropertyOp26
 70
     1
102
RTVSPropertyOp27
 70
     1
102
RTVSPropertyOp28
 70
     1
102
RTVSPropertyOp29
 70
     1
102
RTVSPropertyOp30
 70
     1
102
RTVSPropertyOp31
 70
     1
102
RTVSPropertyOp32
 70
     1
102
RTVSPropertyOp33
 70
     1
102
RTVSPropertyOp34
 70
     1
102
RTVSPropertyOp35
 70
     1
102
RTVSPropertyOp36
 70
     1
102
RTVSPropertyOp37
 70
     1
102
RTVSPropertyOp38
 70
     1
102
RTVSPropertyOp39
 70
     1
102
RTVSPropertyOp40
 70
     1
102
RTVSPropertyOp41
 70
     1
102
RTVSPropertyOp42
 70
     1
102
RTVSPropertyOp43
 70
     1
102
RTVSPropertyOp44
 70
     1
102
RTVSPropertyOp45
 70
     1
102
RTVSPropertyOp46
 70
     1
102
RTVSPropertyOp47
 70
     1
102
RTVSPropertyOp48
 70
     1
102
RTVSPropertyOp49
 70
     1
102
RTVSPropertyOp50
 70
     1
102
RTVSPropertyOp51
 70
     0
102
RTVSPropertyOp52
 70
     0
102
RTVSPropertyOp53
 70
     1
102
RTVSPropertyOp54
 70
     1
102
RTVSPropertyOp55
 70
     1
102
RTVSPropertyOp56
 70
     1
102
RTVSPropertyOp57
 70
     1
102
RTVSPost2010Prop28
280
     0
102
RTVSPost2010PropOp28
 70
     1
102
RTVSPost2010Prop29
280
     1
102
RTVSPost2010PropOp29
 70
     1
102
RTVSPost2010Prop30
280
     1
102
RTVSPost2010PropOp30
 70
     1
102
RTVSPost2010Prop31
280
     0
102
RTVSPost2010PropOp31
 70
     1
102
RTVSPost2010Prop32
280
     0
102
RTVSPost2010PropOp32
 70
     1
102
RTVSPost2010Prop33
280
     0
102
RTVSPost2010PropOp33
 70
     1
102
RTVSPost2010Prop34
280
     0
102
RTVSPost2010PropOp34
 70
     1
102
RTVSPost2010Prop35
280
     0
102
RTVSPost2010PropOp35
 70
     1
102
RTVSPost2010Prop36
280
     0
102
RTVSPost2010PropOp36
 70
     1
102
RTVSPost2010Prop37
 90
       50
102
RTVSPost2010PropOp37
 70
     1
102
RTVSPost2010Prop38
140
0.0
102
RTVSPost2010PropOp38
 70
     1
102
RTVSPost2010Prop39
140
1.0
102
RTVSPost2010PropOp39
 70
     1
102
RTVSPost2010Prop40
 90
        0
102
RTVSPost2010PropOp40
 70
     1
102
RTVSPost2010Prop41ColorIndex
 90
       18
102
RTVSPost2010Prop41ColorRGB
 90
        0
102
RTVSPost2010PropOp41
 70
     1
102
RTVSPost2010Prop42
 90
       50
102
RTVSPost2010PropOp42
 70
     1
102
RTVSPost2010Prop43
 90
        3
102
RTVSPost2010PropOp43
 70
     1
102
RTVSPost2010Prop44ColorIndex
 90
        5
102
RTVSPost2010Prop44ColorRGB
 90
      255
102
RTVSPost2010PropOp44
 70
     1
102
RTVSPost2010Prop45
280
     0
102
RTVSPost2010PropOp45
 70
     1
102
RTVSPost2010Prop46
 90
       50
102
RTVSPost2010PropOp46
 70
     1
102
RTVSPost2010Prop47
 90
       50
102
RTVSPost2010PropOp47
 70
     1
102
RTVSPost2010Prop48
 90
       50
102
RTVSPost2010PropOp48
 70
     1
102
RTVSPost2010Prop49
280
     0
102
RTVSPost2010PropOp49
 70
     1
102
RTVSPost2010Prop50
 90
       50
102
RTVSPost2010PropOp50
 70
     1
102
RTVSPost2010Prop51ColorIndex
 90
      256
102
RTVSPost2010Prop51ColorRGB
 90
-16777216
102
RTVSPost2010PropOp51
 70
     0
102
RTVSPost2010Prop52
140
1.0
102
RTVSPost2010PropOp52
 70
     0
102
RTVSPost2010Prop53
 90
        2
102
RTVSPost2010PropOp53
 70
     1
102
RTVSPost2010Prop54
  1
strokes_ogs.tif
102
RTVSPost2010PropOp54
 70
     1
102
RTVSPost2010Prop55
280
     0
102
RTVSPost2010PropOp55
 70
     1
102
RTVSPost2010Prop56
140
1.0
102
RTVSPost2010PropOp56
 70
     1
102
RTVSPost2010Prop57
140
1.0
102
RTVSPost2010PropOp57
 70
     1
  0
XRECORD
  5
23A
102
{ACAD_REACTORS
330
239
102
}
330
239
100
AcDbXrecord
280
     1
102
RTVSPropertyOp0
 70
     1
102
RTVSPropertyOp1
 70
     1
102
RTVSPropertyOp2
 70
     1
102
RTVSPropertyOp3
 70
     1
102
RTVSPropertyOp4
 70
     1
102
RTVSPropertyOp5
 70
     1
102
RTVSPropertyOp6
 70
     1
102
RTVSPropertyOp7
 70
     1
102
RTVSPropertyOp8
 70
     1
102
RTVSPropertyOp9
 70
     1
102
RTVSPropertyOp10
 70
     1
102
RTVSPropertyOp11
 70
     1
102
RTVSPropertyOp12
 70
     1
102
RTVSPropertyOp13
 70
     1
102
RTVSPropertyOp14
 70
     1
102
RTVSPropertyOp15
 70
     1
102
RTVSPropertyOp16
 70
     1
102
RTVSPropertyOp17
 70
     1
102
RTVSPropertyOp18
 70
     1
102
RTVSPropertyOp19
 70
     1
102
RTVSPropertyOp20
 70
     1
102
RTVSPropertyOp21
 70
     1
102
RTVSPropertyOp22
 70
     1
102
RTVSPropertyOp23
 70
     1
102
RTVSPropertyOp24
 70
     1
102
RTVSPropertyOp25
 70
     1
102
RTVSPropertyOp26
 70
     1
102
RTVSPropertyOp27
 70
     1
102
RTVSPropertyOp28
 70
     1
102
RTVSPropertyOp29
 70
     1
102
RTVSPropertyOp30
 70
     1
102
RTVSPropertyOp31
 70
     1
102
RTVSPropertyOp32
 70
     1
102
RTVSPropertyOp33
 70
     1
102
RTVSPropertyOp34
 70
     1
102
RTVSPropertyOp35
 70
     1
102
RTVSPropertyOp36
 70
     1
102
RTVSPropertyOp37
 70
     1
102
RTVSPropertyOp38
 70
     1
102
RTVSPropertyOp39
 70
     1
102
RTVSPropertyOp40
 70
     1
102
RTVSPropertyOp41
 70
     1
102
RTVSPropertyOp42
 70
     1
102
RTVSPropertyOp43
 70
     1
102
RTVSPropertyOp44
 70
     1
102
RTVSPropertyOp45
 70
     1
102
RTVSPropertyOp46
 70
     1
102
RTVSPropertyOp47
 70
     1
102
RTVSPropertyOp48
 70
     1
102
RTVSPropertyOp49
 70
     1
102
RTVSPropertyOp50
 70
     1
102
RTVSPropertyOp51
 70
     0
102
RTVSPropertyOp52
 70
     0
102
RTVSPropertyOp53
 70
     1
102
RTVSPropertyOp54
 70
     1
102
RTVSPropertyOp55
 70
     1
102
RTVSPropertyOp56
 70
     1
102
RTVSPropertyOp57
 70
     1
102
RTVSPost2010Prop28
280
     0
102
RTVSPost2010PropOp28
 70
     1
102
RTVSPost2010Prop29
280
     1
102
RTVSPost2010PropOp29
 70
     1
102
RTVSPost2010Prop30
280
     1
102
RTVSPost2010PropOp30
 70
     1
102
RTVSPost2010Prop31
280
     0
102
RTVSPost2010PropOp31
 70
     1
102
RTVSPost2010Prop32
280
     0
102
RTVSPost2010PropOp32
 70
     1
102
RTVSPost2010Prop33
280
     0
102
RTVSPost2010PropOp33
 70
     1
102
RTVSPost2010Prop34
280
     0
102
RTVSPost2010PropOp34
 70
     1
102
RTVSPost2010Prop35
280
     0
102
RTVSPost2010PropOp35
 70
     1
102
RTVSPost2010Prop36
280
     0
102
RTVSPost2010PropOp36
 70
     1
102
RTVSPost2010Prop37
 90
       50
102
RTVSPost2010PropOp37
 70
     1
102
RTVSPost2010Prop38
140
0.0
102
RTVSPost2010PropOp38
 70
     1
102
RTVSPost2010Prop39
140
1.0
102
RTVSPost2010PropOp39
 70
     1
102
RTVSPost2010Prop40
 90
        0
102
RTVSPost2010PropOp40
 70
     1
102
RTVSPost2010Prop41ColorIndex
 90
       18
102
RTVSPost2010Prop41ColorRGB
 90
        0
102
RTVSPost2010PropOp41
 70
     1
102
RTVSPost2010Prop42
 90
       50
102
RTVSPost2010PropOp42
 70
     1
102
RTVSPost2010Prop43
 90
        3
102
RTVSPost2010PropOp43
 70
     1
102
RTVSPost2010Prop44ColorIndex
 90
        5
102
RTVSPost2010Prop44ColorRGB
 90
      255
102
RTVSPost2010PropOp44
 70
     1
102
RTVSPost2010Prop45
280
     0
102
RTVSPost2010PropOp45
 70
     1
102
RTVSPost2010Prop46
 90
       50
102
RTVSPost2010PropOp46
 70
     1
102
RTVSPost2010Prop47
 90
       50
102
RTVSPost2010PropOp47
 70
     1
102
RTVSPost2010Prop48
 90
       50
102
RTVSPost2010PropOp48
 70
     1
102
RTVSPost2010Prop49
280
     0
102
RTVSPost2010PropOp49
 70
     1
102
RTVSPost2010Prop50
 90
       50
102
RTVSPost2010PropOp50
 70
     1
102
RTVSPost2010Prop51ColorIndex
 90
      256
102
RTVSPost2010Prop51ColorRGB
 90
-16777216
102
RTVSPost2010PropOp51
 70
     0
102
RTVSPost2010Prop52
140
1.0
102
RTVSPost2010PropOp52
 70
     0
102
RTVSPost2010Prop53
 90
        2
102
RTVSPost2010PropOp53
 70
     1
102
RTVSPost2010Prop54
  1
strokes_ogs.tif
102
RTVSPost2010PropOp54
 70
     1
102
RTVSPost2010Prop55
280
     0
102
RTVSPost2010PropOp55
 70
     1
102
RTVSPost2010Prop56
140
1.0
102
RTVSPost2010PropOp56
 70
     1
102
RTVSPost2010Prop57
140
1.0
102
RTVSPost2010PropOp57
 70
     1
  0
XRECORD
  5
24E
102
{ACAD_REACTORS
330
24D
102
}
330
24D
100
AcDbXrecord
280
     1
102
RTVSPropertyOp0
 70
     0
102
RTVSPropertyOp1
 70
     0
102
RTVSPropertyOp2
 70
     0
102
RTVSPropertyOp3
 70
     0
102
RTVSPropertyOp4
 70
     0
102
RTVSPropertyOp5
 70
     0
102
RTVSPropertyOp6
 70
     0
102
RTVSPropertyOp7
 70
     0
102
RTVSPropertyOp8
 70
     0
102
RTVSPropertyOp9
 70
     0
102
RTVSPropertyOp10
 70
     0
102
RTVSPropertyOp11
 70
     0
102
RTVSPropertyOp12
 70
     0
102
RTVSPropertyOp13
 70
     0
102
RTVSPropertyOp14
 70
     2
102
RTVSPropertyOp15
 70
     0
102
RTVSPropertyOp16
 70
     0
102
RTVSPropertyOp17
 70
     0
102
RTVSPropertyOp18
 70
     0
102
RTVSPropertyOp19
 70
     0
102
RTVSPropertyOp20
 70
     0
102
RTVSPropertyOp21
 70
     0
102
RTVSPropertyOp22
 70
     0
102
RTVSPropertyOp23
 70
     0
102
RTVSPropertyOp24
 70
     0
102
RTVSPropertyOp25
 70
     0
102
RTVSPropertyOp26
 70
     0
102
RTVSPropertyOp27
 70
     0
102
RTVSPropertyOp28
 70
     0
102
RTVSPropertyOp29
 70
     0
102
RTVSPropertyOp30
 70
     0
102
RTVSPropertyOp31
 70
     0
102
RTVSPropertyOp32
 70
     0
102
RTVSPropertyOp33
 70
     0
102
RTVSPropertyOp34
 70
     0
102
RTVSPropertyOp35
 70
     0
102
RTVSPropertyOp36
 70
     0
102
RTVSPropertyOp37
 70
     0
102
RTVSPropertyOp38
 70
     0
102
RTVSPropertyOp39
 70
     0
102
RTVSPropertyOp40
 70
     0
102
RTVSPropertyOp41
 70
     0
102
RTVSPropertyOp42
 70
     0
102
RTVSPropertyOp43
 70
     0
102
RTVSPropertyOp44
 70
     0
102
RTVSPropertyOp45
 70
     0
102
RTVSPropertyOp46
 70
     0
102
RTVSPropertyOp47
 70
     0
102
RTVSPropertyOp48
 70
     0
102
RTVSPropertyOp49
 70
     0
102
RTVSPropertyOp50
 70
     0
102
RTVSPropertyOp51
 70
     0
102
RTVSPropertyOp52
 70
     0
102
RTVSPropertyOp53
 70
     0
102
RTVSPropertyOp54
 70
     0
102
RTVSPropertyOp55
 70
     0
102
RTVSPropertyOp56
 70
     0
102
RTVSPropertyOp57
 70
     0
102
RTVSPost2010Prop28
280
     0
102
RTVSPost2010PropOp28
 70
     0
102
RTVSPost2010Prop29
280
     1
102
RTVSPost2010PropOp29
 70
     0
102
RTVSPost2010Prop30
280
     1
102
RTVSPost2010PropOp30
 70
     0
102
RTVSPost2010Prop31
280
     0
102
RTVSPost2010PropOp31
 70
     0
102
RTVSPost2010Prop32
280
     0
102
RTVSPost2010PropOp32
 70
     0
102
RTVSPost2010Prop33
280
     0
102
RTVSPost2010PropOp33
 70
     0
102
RTVSPost2010Prop34
280
     0
102
RTVSPost2010PropOp34
 70
     0
102
RTVSPost2010Prop35
280
     0
102
RTVSPost2010PropOp35
 70
     0
102
RTVSPost2010Prop36
280
     0
102
RTVSPost2010PropOp36
 70
     0
102
RTVSPost2010Prop37
 90
       50
102
RTVSPost2010PropOp37
 70
     0
102
RTVSPost2010Prop38
140
0.0
102
RTVSPost2010PropOp38
 70
     0
102
RTVSPost2010Prop39
140
1.0
102
RTVSPost2010PropOp39
 70
     0
102
RTVSPost2010Prop40
 90
        0
102
RTVSPost2010PropOp40
 70
     0
102
RTVSPost2010Prop41ColorIndex
 90
       18
102
RTVSPost2010Prop41ColorRGB
 90
        0
102
RTVSPost2010PropOp41
 70
     0
102
RTVSPost2010Prop42
 90
       50
102
RTVSPost2010PropOp42
 70
     0
102
RTVSPost2010Prop43
 90
        3
102
RTVSPost2010PropOp43
 70
     0
102
RTVSPost2010Prop44ColorIndex
 90
        5
102
RTVSPost2010Prop44ColorRGB
 90
      255
102
RTVSPost2010PropOp44
 70
     0
102
RTVSPost2010Prop45
280
     0
102
RTVSPost2010PropOp45
 70
     0
102
RTVSPost2010Prop46
 90
       50
102
RTVSPost2010PropOp46
 70
     0
102
RTVSPost2010Prop47
 90
       50
102
RTVSPost2010PropOp47
 70
     0
102
RTVSPost2010Prop48
 90
       50
102
RTVSPost2010PropOp48
 70
     0
102
RTVSPost2010Prop49
280
     0
102
RTVSPost2010PropOp49
 70
     0
102
RTVSPost2010Prop50
 90
       50
102
RTVSPost2010PropOp50
 70
     0
102
RTVSPost2010Prop51ColorIndex
 90
      256
102
RTVSPost2010Prop51ColorRGB
 90
-16777216
102
RTVSPost2010PropOp51
 70
     0
102
RTVSPost2010Prop52
140
1.0
102
RTVSPost2010PropOp52
 70
     0
102
RTVSPost2010Prop53
 90
        2
102
RTVSPost2010PropOp53
 70
     0
102
RTVSPost2010Prop54
  1
strokes_ogs.tif
102
RTVSPost2010PropOp54
 70
     0
102
RTVSPost2010Prop55
280
     0
102
RTVSPost2010PropOp55
 70
     0
102
RTVSPost2010Prop56
140
1.0
102
RTVSPost2010PropOp56
 70
     0
102
RTVSPost2010Prop57
140
1.0
102
RTVSPost2010PropOp57
 70
     0
  0
XRECORD
  5
248
102
{ACAD_REACTORS
330
247
102
}
330
247
100
AcDbXrecord
280
     1
102
RTVSPropertyOp0
 70
     1
102
RTVSPropertyOp1
 70
     1
102
RTVSPropertyOp2
 70
     1
102
RTVSPropertyOp3
 70
     1
102
RTVSPropertyOp4
 70
     1
102
RTVSPropertyOp5
 70
     1
102
RTVSPropertyOp6
 70
     1
102
RTVSPropertyOp7
 70
     1
102
RTVSPropertyOp8
 70
     1
102
RTVSPropertyOp9
 70
     1
102
RTVSPropertyOp10
 70
     1
102
RTVSPropertyOp11
 70
     1
102
RTVSPropertyOp12
 70
     1
102
RTVSPropertyOp13
 70
     1
102
RTVSPropertyOp14
 70
     1
102
RTVSPropertyOp15
 70
     1
102
RTVSPropertyOp16
 70
     1
102
RTVSPropertyOp17
 70
     1
102
RTVSPropertyOp18
 70
     1
102
RTVSPropertyOp19
 70
     1
102
RTVSPropertyOp20
 70
     1
102
RTVSPropertyOp21
 70
     1
102
RTVSPropertyOp22
 70
     1
102
RTVSPropertyOp23
 70
     1
102
RTVSPropertyOp24
 70
     1
102
RTVSPropertyOp25
 70
     1
102
RTVSPropertyOp26
 70
     1
102
RTVSPropertyOp27
 70
     1
102
RTVSPropertyOp28
 70
     1
102
RTVSPropertyOp29
 70
     1
102
RTVSPropertyOp30
 70
     1
102
RTVSPropertyOp31
 70
     1
102
RTVSPropertyOp32
 70
     1
102
RTVSPropertyOp33
 70
     1
102
RTVSPropertyOp34
 70
     1
102
RTVSPropertyOp35
 70
     1
102
RTVSPropertyOp36
 70
     1
102
RTVSPropertyOp37
 70
     1
102
RTVSPropertyOp38
 70
     1
102
RTVSPropertyOp39
 70
     1
102
RTVSPropertyOp40
 70
     1
102
RTVSPropertyOp41
 70
     1
102
RTVSPropertyOp42
 70
     1
102
RTVSPropertyOp43
 70
     1
102
RTVSPropertyOp44
 70
     1
102
RTVSPropertyOp45
 70
     1
102
RTVSPropertyOp46
 70
     1
102
RTVSPropertyOp47
 70
     1
102
RTVSPropertyOp48
 70
     1
102
RTVSPropertyOp49
 70
     1
102
RTVSPropertyOp50
 70
     1
102
RTVSPropertyOp51
 70
     0
102
RTVSPropertyOp52
 70
     0
102
RTVSPropertyOp53
 70
     1
102
RTVSPropertyOp54
 70
     1
102
RTVSPropertyOp55
 70
     1
102
RTVSPropertyOp56
 70
     1
102
RTVSPropertyOp57
 70
     1
102
RTVSPost2010Prop28
280
     0
102
RTVSPost2010PropOp28
 70
     1
102
RTVSPost2010Prop29
280
     1
102
RTVSPost2010PropOp29
 70
     1
102
RTVSPost2010Prop30
280
     1
102
RTVSPost2010PropOp30
 70
     1
102
RTVSPost2010Prop31
280
     0
102
RTVSPost2010PropOp31
 70
     1
102
RTVSPost2010Prop32
280
     0
102
RTVSPost2010PropOp32
 70
     1
102
RTVSPost2010Prop33
280
     0
102
RTVSPost2010PropOp33
 70
     1
102
RTVSPost2010Prop34
280
     0
102
RTVSPost2010PropOp34
 70
     1
102
RTVSPost2010Prop35
280
     0
102
RTVSPost2010PropOp35
 70
     1
102
RTVSPost2010Prop36
280
     0
102
RTVSPost2010PropOp36
 70
     1
102
RTVSPost2010Prop37
 90
       50
102
RTVSPost2010PropOp37
 70
     1
102
RTVSPost2010Prop38
140
0.0
102
RTVSPost2010PropOp38
 70
     1
102
RTVSPost2010Prop39
140
1.0
102
RTVSPost2010PropOp39
 70
     1
102
RTVSPost2010Prop40
 90
        0
102
RTVSPost2010PropOp40
 70
     1
102
RTVSPost2010Prop41ColorIndex
 90
       18
102
RTVSPost2010Prop41ColorRGB
 90
        0
102
RTVSPost2010PropOp41
 70
     1
102
RTVSPost2010Prop42
 90
       50
102
RTVSPost2010PropOp42
 70
     1
102
RTVSPost2010Prop43
 90
        3
102
RTVSPost2010PropOp43
 70
     1
102
RTVSPost2010Prop44ColorIndex
 90
        5
102
RTVSPost2010Prop44ColorRGB
 90
      255
102
RTVSPost2010PropOp44
 70
     1
102
RTVSPost2010Prop45
280
     0
102
RTVSPost2010PropOp45
 70
     1
102
RTVSPost2010Prop46
 90
       50
102
RTVSPost2010PropOp46
 70
     1
102
RTVSPost2010Prop47
 90
       50
102
RTVSPost2010PropOp47
 70
     1
102
RTVSPost2010Prop48
 90
       50
102
RTVSPost2010PropOp48
 70
     1
102
RTVSPost2010Prop49
280
     0
102
RTVSPost2010PropOp49
 70
     1
102
RTVSPost2010Prop50
 90
       50
102
RTVSPost2010PropOp50
 70
     1
102
RTVSPost2010Prop51ColorIndex
 90
      256
102
RTVSPost2010Prop51ColorRGB
 90
-16777216
102
RTVSPost2010PropOp51
 70
     0
102
RTVSPost2010Prop52
140
1.0
102
RTVSPost2010PropOp52
 70
     0
102
RTVSPost2010Prop53
 90
        2
102
RTVSPost2010PropOp53
 70
     1
102
RTVSPost2010Prop54
  1
strokes_ogs.tif
102
RTVSPost2010PropOp54
 70
     1
102
RTVSPost2010Prop55
280
     0
102
RTVSPost2010PropOp55
 70
     1
102
RTVSPost2010Prop56
140
1.0
102
RTVSPost2010PropOp56
 70
     1
102
RTVSPost2010Prop57
140
1.0
102
RTVSPost2010PropOp57
 70
     1
  0
XRECORD
  5
250
102
{ACAD_REACTORS
330
24F
102
}
330
24F
100
AcDbXrecord
280
     1
102
RTVSPropertyOp0
 70
     0
102
RTVSPropertyOp1
 70
     0
102
RTVSPropertyOp2
 70
     0
102
RTVSPropertyOp3
 70
     0
102
RTVSPropertyOp4
 70
     0
102
RTVSPropertyOp5
 70
     0
102
RTVSPropertyOp6
 70
     0
102
RTVSPropertyOp7
 70
     0
102
RTVSPropertyOp8
 70
     0
102
RTVSPropertyOp9
 70
     0
102
RTVSPropertyOp10
 70
     0
102
RTVSPropertyOp11
 70
     0
102
RTVSPropertyOp12
 70
     0
102
RTVSPropertyOp13
 70
     0
102
RTVSPropertyOp14
 70
     2
102
RTVSPropertyOp15
 70
     0
102
RTVSPropertyOp16
 70
     0
102
RTVSPropertyOp17
 70
     0
102
RTVSPropertyOp18
 70
     0
102
RTVSPropertyOp19
 70
     0
102
RTVSPropertyOp20
 70
     0
102
RTVSPropertyOp21
 70
     0
102
RTVSPropertyOp22
 70
     0
102
RTVSPropertyOp23
 70
     0
102
RTVSPropertyOp24
 70
     0
102
RTVSPropertyOp25
 70
     0
102
RTVSPropertyOp26
 70
     0
102
RTVSPropertyOp27
 70
     0
102
RTVSPropertyOp28
 70
     0
102
RTVSPropertyOp29
 70
     0
102
RTVSPropertyOp30
 70
     0
102
RTVSPropertyOp31
 70
     0
102
RTVSPropertyOp32
 70
     0
102
RTVSPropertyOp33
 70
     0
102
RTVSPropertyOp34
 70
     0
102
RTVSPropertyOp35
 70
     0
102
RTVSPropertyOp36
 70
     0
102
RTVSPropertyOp37
 70
     0
102
RTVSPropertyOp38
 70
     0
102
RTVSPropertyOp39
 70
     0
102
RTVSPropertyOp40
 70
     0
102
RTVSPropertyOp41
 70
     0
102
RTVSPropertyOp42
 70
     0
102
RTVSPropertyOp43
 70
     0
102
RTVSPropertyOp44
 70
     0
102
RTVSPropertyOp45
 70
     0
102
RTVSPropertyOp46
 70
     0
102
RTVSPropertyOp47
 70
     0
102
RTVSPropertyOp48
 70
     0
102
RTVSPropertyOp49
 70
     0
102
RTVSPropertyOp50
 70
     0
102
RTVSPropertyOp51
 70
     0
102
RTVSPropertyOp52
 70
     0
102
RTVSPropertyOp53
 70
     0
102
RTVSPropertyOp54
 70
     0
102
RTVSPropertyOp55
 70
     0
102
RTVSPropertyOp56
 70
     0
102
RTVSPropertyOp57
 70
     0
102
RTVSPost2010Prop28
280
     0
102
RTVSPost2010PropOp28
 70
     0
102
RTVSPost2010Prop29
280
     1
102
RTVSPost2010PropOp29
 70
     0
102
RTVSPost2010Prop30
280
     1
102
RTVSPost2010PropOp30
 70
     0
102
RTVSPost2010Prop31
280
     0
102
RTVSPost2010PropOp31
 70
     0
102
RTVSPost2010Prop32
280
     0
102
RTVSPost2010PropOp32
 70
     0
102
RTVSPost2010Prop33
280
     0
102
RTVSPost2010PropOp33
 70
     0
102
RTVSPost2010Prop34
280
     0
102
RTVSPost2010PropOp34
 70
     0
102
RTVSPost2010Prop35
280
     0
102
RTVSPost2010PropOp35
 70
     0
102
RTVSPost2010Prop36
280
     0
102
RTVSPost2010PropOp36
 70
     0
102
RTVSPost2010Prop37
 90
       50
102
RTVSPost2010PropOp37
 70
     0
102
RTVSPost2010Prop38
140
0.0
102
RTVSPost2010PropOp38
 70
     0
102
RTVSPost2010Prop39
140
1.0
102
RTVSPost2010PropOp39
 70
     0
102
RTVSPost2010Prop40
 90
        0
102
RTVSPost2010PropOp40
 70
     0
102
RTVSPost2010Prop41ColorIndex
 90
       18
102
RTVSPost2010Prop41ColorRGB
 90
        0
102
RTVSPost2010PropOp41
 70
     0
102
RTVSPost2010Prop42
 90
       50
102
RTVSPost2010PropOp42
 70
     0
102
RTVSPost2010Prop43
 90
        3
102
RTVSPost2010PropOp43
 70
     0
102
RTVSPost2010Prop44ColorIndex
 90
        5
102
RTVSPost2010Prop44ColorRGB
 90
      255
102
RTVSPost2010PropOp44
 70
     0
102
RTVSPost2010Prop45
280
     0
102
RTVSPost2010PropOp45
 70
     0
102
RTVSPost2010Prop46
 90
       50
102
RTVSPost2010PropOp46
 70
     0
102
RTVSPost2010Prop47
 90
       50
102
RTVSPost2010PropOp47
 70
     0
102
RTVSPost2010Prop48
 90
       50
102
RTVSPost2010PropOp48
 70
     0
102
RTVSPost2010Prop49
280
     0
102
RTVSPost2010PropOp49
 70
     0
102
RTVSPost2010Prop50
 90
       50
102
RTVSPost2010PropOp50
 70
     0
102
RTVSPost2010Prop51ColorIndex
 90
      256
102
RTVSPost2010Prop51ColorRGB
 90
-16777216
102
RTVSPost2010PropOp51
 70
     0
102
RTVSPost2010Prop52
140
1.0
102
RTVSPost2010PropOp52
 70
     0
102
RTVSPost2010Prop53
 90
        2
102
RTVSPost2010PropOp53
 70
     0
102
RTVSPost2010Prop54
  1
strokes_ogs.tif
102
RTVSPost2010PropOp54
 70
     0
102
RTVSPost2010Prop55
280
     0
102
RTVSPost2010PropOp55
 70
     0
102
RTVSPost2010Prop56
140
1.0
102
RTVSPost2010PropOp56
 70
     0
102
RTVSPost2010Prop57
140
1.0
102
RTVSPost2010PropOp57
 70
     0
  0
XRECORD
  5
23E
102
{ACAD_REACTORS
330
23D
102
}
330
23D
100
AcDbXrecord
280
     1
102
RTVSPropertyOp0
 70
     1
102
RTVSPropertyOp1
 70
     1
102
RTVSPropertyOp2
 70
     1
102
RTVSPropertyOp3
 70
     1
102
RTVSPropertyOp4
 70
     1
102
RTVSPropertyOp5
 70
     1
102
RTVSPropertyOp6
 70
     1
102
RTVSPropertyOp7
 70
     1
102
RTVSPropertyOp8
 70
     1
102
RTVSPropertyOp9
 70
     1
102
RTVSPropertyOp10
 70
     1
102
RTVSPropertyOp11
 70
     1
102
RTVSPropertyOp12
 70
     1
102
RTVSPropertyOp13
 70
     1
102
RTVSPropertyOp14
 70
     1
102
RTVSPropertyOp15
 70
     1
102
RTVSPropertyOp16
 70
     1
102
RTVSPropertyOp17
 70
     1
102
RTVSPropertyOp18
 70
     1
102
RTVSPropertyOp19
 70
     1
102
RTVSPropertyOp20
 70
     1
102
RTVSPropertyOp21
 70
     1
102
RTVSPropertyOp22
 70
     1
102
RTVSPropertyOp23
 70
     1
102
RTVSPropertyOp24
 70
     1
102
RTVSPropertyOp25
 70
     1
102
RTVSPropertyOp26
 70
     1
102
RTVSPropertyOp27
 70
     1
102
RTVSPropertyOp28
 70
     1
102
RTVSPropertyOp29
 70
     1
102
RTVSPropertyOp30
 70
     1
102
RTVSPropertyOp31
 70
     1
102
RTVSPropertyOp32
 70
     1
102
RTVSPropertyOp33
 70
     1
102
RTVSPropertyOp34
 70
     1
102
RTVSPropertyOp35
 70
     1
102
RTVSPropertyOp36
 70
     1
102
RTVSPropertyOp37
 70
     1
102
RTVSPropertyOp38
 70
     1
102
RTVSPropertyOp39
 70
     1
102
RTVSPropertyOp40
 70
     1
102
RTVSPropertyOp41
 70
     1
102
RTVSPropertyOp42
 70
     1
102
RTVSPropertyOp43
 70
     1
102
RTVSPropertyOp44
 70
     1
102
RTVSPropertyOp45
 70
     1
102
RTVSPropertyOp46
 70
     1
102
RTVSPropertyOp47
 70
     1
102
RTVSPropertyOp48
 70
     1
102
RTVSPropertyOp49
 70
     1
102
RTVSPropertyOp50
 70
     1
102
RTVSPropertyOp51
 70
     0
102
RTVSPropertyOp52
 70
     0
102
RTVSPropertyOp53
 70
     1
102
RTVSPropertyOp54
 70
     1
102
RTVSPropertyOp55
 70
     1
102
RTVSPropertyOp56
 70
     1
102
RTVSPropertyOp57
 70
     1
102
RTVSPost2010Prop28
280
     0
102
RTVSPost2010PropOp28
 70
     1
102
RTVSPost2010Prop29
280
     1
102
RTVSPost2010PropOp29
 70
     1
102
RTVSPost2010Prop30
280
     1
102
RTVSPost2010PropOp30
 70
     1
102
RTVSPost2010Prop31
280
     0
102
RTVSPost2010PropOp31
 70
     1
102
RTVSPost2010Prop32
280
     0
102
RTVSPost2010PropOp32
 70
     1
102
RTVSPost2010Prop33
280
     0
102
RTVSPost2010PropOp33
 70
     1
102
RTVSPost2010Prop34
280
     0
102
RTVSPost2010PropOp34
 70
     1
102
RTVSPost2010Prop35
280
     0
102
RTVSPost2010PropOp35
 70
     1
102
RTVSPost2010Prop36
280
     0
102
RTVSPost2010PropOp36
 70
     1
102
RTVSPost2010Prop37
 90
       50
102
RTVSPost2010PropOp37
 70
     1
102
RTVSPost2010Prop38
140
0.0
102
RTVSPost2010PropOp38
 70
     1
102
RTVSPost2010Prop39
140
1.0
102
RTVSPost2010PropOp39
 70
     1
102
RTVSPost2010Prop40
 90
        0
102
RTVSPost2010PropOp40
 70
     1
102
RTVSPost2010Prop41ColorIndex
 90
       18
102
RTVSPost2010Prop41ColorRGB
 90
        0
102
RTVSPost2010PropOp41
 70
     1
102
RTVSPost2010Prop42
 90
       50
102
RTVSPost2010PropOp42
 70
     1
102
RTVSPost2010Prop43
 90
        3
102
RTVSPost2010PropOp43
 70
     1
102
RTVSPost2010Prop44ColorIndex
 90
        5
102
RTVSPost2010Prop44ColorRGB
 90
      255
102
RTVSPost2010PropOp44
 70
     1
102
RTVSPost2010Prop45
280
     0
102
RTVSPost2010PropOp45
 70
     1
102
RTVSPost2010Prop46
 90
       50
102
RTVSPost2010PropOp46
 70
     1
102
RTVSPost2010Prop47
 90
       50
102
RTVSPost2010PropOp47
 70
     1
102
RTVSPost2010Prop48
 90
       50
102
RTVSPost2010PropOp48
 70
     1
102
RTVSPost2010Prop49
280
     0
102
RTVSPost2010PropOp49
 70
     1
102
RTVSPost2010Prop50
 90
       50
102
RTVSPost2010PropOp50
 70
     1
102
RTVSPost2010Prop51ColorIndex
 90
      256
102
RTVSPost2010Prop51ColorRGB
 90
-16777216
102
RTVSPost2010PropOp51
 70
     0
102
RTVSPost2010Prop52
140
1.0
102
RTVSPost2010PropOp52
 70
     0
102
RTVSPost2010Prop53
 90
        2
102
RTVSPost2010PropOp53
 70
     1
102
RTVSPost2010Prop54
  1
strokes_ogs.tif
102
RTVSPost2010PropOp54
 70
     1
102
RTVSPost2010Prop55
280
     0
102
RTVSPost2010PropOp55
 70
     1
102
RTVSPost2010Prop56
140
1.0
102
RTVSPost2010PropOp56
 70
     1
102
RTVSPost2010Prop57
140
1.0
102
RTVSPost2010PropOp57
 70
     1
  0
XRECORD
  5
25C
102
{ACAD_REACTORS
330
25B
102
}
330
25B
100
AcDbXrecord
280
     1
102
RTVSPropertyOp0
 70
     1
102
RTVSPropertyOp1
 70
     1
102
RTVSPropertyOp2
 70
     1
102
RTVSPropertyOp3
 70
     1
102
RTVSPropertyOp4
 70
     1
102
RTVSPropertyOp5
 70
     1
102
RTVSPropertyOp6
 70
     1
102
RTVSPropertyOp7
 70
     1
102
RTVSPropertyOp8
 70
     1
102
RTVSPropertyOp9
 70
     1
102
RTVSPropertyOp10
 70
     1
102
RTVSPropertyOp11
 70
     1
102
RTVSPropertyOp12
 70
     1
102
RTVSPropertyOp13
 70
     1
102
RTVSPropertyOp14
 70
     1
102
RTVSPropertyOp15
 70
     1
102
RTVSPropertyOp16
 70
     1
102
RTVSPropertyOp17
 70
     1
102
RTVSPropertyOp18
 70
     1
102
RTVSPropertyOp19
 70
     1
102
RTVSPropertyOp20
 70
     1
102
RTVSPropertyOp21
 70
     1
102
RTVSPropertyOp22
 70
     1
102
RTVSPropertyOp23
 70
     1
102
RTVSPropertyOp24
 70
     1
102
RTVSPropertyOp25
 70
     1
102
RTVSPropertyOp26
 70
     1
102
RTVSPropertyOp27
 70
     1
102
RTVSPropertyOp28
 70
     1
102
RTVSPropertyOp29
 70
     1
102
RTVSPropertyOp30
 70
     1
102
RTVSPropertyOp31
 70
     1
102
RTVSPropertyOp32
 70
     1
102
RTVSPropertyOp33
 70
     1
102
RTVSPropertyOp34
 70
     1
102
RTVSPropertyOp35
 70
     1
102
RTVSPropertyOp36
 70
     1
102
RTVSPropertyOp37
 70
     1
102
RTVSPropertyOp38
 70
     1
102
RTVSPropertyOp39
 70
     1
102
RTVSPropertyOp40
 70
     1
102
RTVSPropertyOp41
 70
     1
102
RTVSPropertyOp42
 70
     1
102
RTVSPropertyOp43
 70
     1
102
RTVSPropertyOp44
 70
     1
102
RTVSPropertyOp45
 70
     1
102
RTVSPropertyOp46
 70
     1
102
RTVSPropertyOp47
 70
     1
102
RTVSPropertyOp48
 70
     1
102
RTVSPropertyOp49
 70
     1
102
RTVSPropertyOp50
 70
     1
102
RTVSPropertyOp51
 70
     0
102
RTVSPropertyOp52
 70
     0
102
RTVSPropertyOp53
 70
     1
102
RTVSPropertyOp54
 70
     1
102
RTVSPropertyOp55
 70
     1
102
RTVSPropertyOp56
 70
     1
102
RTVSPropertyOp57
 70
     1
102
RTVSPost2010Prop28
280
     0
102
RTVSPost2010PropOp28
 70
     1
102
RTVSPost2010Prop29
280
     1
102
RTVSPost2010PropOp29
 70
     1
102
RTVSPost2010Prop30
280
     1
102
RTVSPost2010PropOp30
 70
     1
102
RTVSPost2010Prop31
280
     0
102
RTVSPost2010PropOp31
 70
     1
102
RTVSPost2010Prop32
280
     0
102
RTVSPost2010PropOp32
 70
     1
102
RTVSPost2010Prop33
280
     0
102
RTVSPost2010PropOp33
 70
     1
102
RTVSPost2010Prop34
280
     0
102
RTVSPost2010PropOp34
 70
     1
102
RTVSPost2010Prop35
280
     0
102
RTVSPost2010PropOp35
 70
     1
102
RTVSPost2010Prop36
280
     0
102
RTVSPost2010PropOp36
 70
     1
102
RTVSPost2010Prop37
 90
       50
102
RTVSPost2010PropOp37
 70
     1
102
RTVSPost2010Prop38
140
0.0
102
RTVSPost2010PropOp38
 70
     1
102
RTVSPost2010Prop39
140
1.0
102
RTVSPost2010PropOp39
 70
     1
102
RTVSPost2010Prop40
 90
        0
102
RTVSPost2010PropOp40
 70
     1
102
RTVSPost2010Prop41ColorIndex
 90
       18
102
RTVSPost2010Prop41ColorRGB
 90
        0
102
RTVSPost2010PropOp41
 70
     1
102
RTVSPost2010Prop42
 90
       50
102
RTVSPost2010PropOp42
 70
     1
102
RTVSPost2010Prop43
 90
        3
102
RTVSPost2010PropOp43
 70
     1
102
RTVSPost2010Prop44ColorIndex
 90
        5
102
RTVSPost2010Prop44ColorRGB
 90
      255
102
RTVSPost2010PropOp44
 70
     1
102
RTVSPost2010Prop45
280
     0
102
RTVSPost2010PropOp45
 70
     1
102
RTVSPost2010Prop46
 90
       50
102
RTVSPost2010PropOp46
 70
     1
102
RTVSPost2010Prop47
 90
       50
102
RTVSPost2010PropOp47
 70
     1
102
RTVSPost2010Prop48
 90
       50
102
RTVSPost2010PropOp48
 70
     1
102
RTVSPost2010Prop49
280
     0
102
RTVSPost2010PropOp49
 70
     1
102
RTVSPost2010Prop50
 90
       50
102
RTVSPost2010PropOp50
 70
     1
102
RTVSPost2010Prop51ColorIndex
 90
      256
102
RTVSPost2010Prop51ColorRGB
 90
-16777216
102
RTVSPost2010PropOp51
 70
     0
102
RTVSPost2010Prop52
140
1.0
102
RTVSPost2010PropOp52
 70
     0
102
RTVSPost2010Prop53
 90
        2
102
RTVSPost2010PropOp53
 70
     1
102
RTVSPost2010Prop54
  1
strokes_ogs.tif
102
RTVSPost2010PropOp54
 70
     1
102
RTVSPost2010Prop55
280
     0
102
RTVSPost2010PropOp55
 70
     1
102
RTVSPost2010Prop56
140
1.0
102
RTVSPost2010PropOp56
 70
     1
102
RTVSPost2010Prop57
140
1.0
102
RTVSPost2010PropOp57
 70
     1
  0
XRECORD
  5
25A
102
{ACAD_REACTORS
330
259
102
}
330
259
100
AcDbXrecord
280
     1
102
RTVSPropertyOp0
 70
     1
102
RTVSPropertyOp1
 70
     1
102
RTVSPropertyOp2
 70
     1
102
RTVSPropertyOp3
 70
     1
102
RTVSPropertyOp4
 70
     1
102
RTVSPropertyOp5
 70
     1
102
RTVSPropertyOp6
 70
     1
102
RTVSPropertyOp7
 70
     1
102
RTVSPropertyOp8
 70
     1
102
RTVSPropertyOp9
 70
     1
102
RTVSPropertyOp10
 70
     1
102
RTVSPropertyOp11
 70
     1
102
RTVSPropertyOp12
 70
     1
102
RTVSPropertyOp13
 70
     1
102
RTVSPropertyOp14
 70
     1
102
RTVSPropertyOp15
 70
     1
102
RTVSPropertyOp16
 70
     1
102
RTVSPropertyOp17
 70
     1
102
RTVSPropertyOp18
 70
     1
102
RTVSPropertyOp19
 70
     1
102
RTVSPropertyOp20
 70
     1
102
RTVSPropertyOp21
 70
     1
102
RTVSPropertyOp22
 70
     1
102
RTVSPropertyOp23
 70
     1
102
RTVSPropertyOp24
 70
     1
102
RTVSPropertyOp25
 70
     1
102
RTVSPropertyOp26
 70
     1
102
RTVSPropertyOp27
 70
     1
102
RTVSPropertyOp28
 70
     1
102
RTVSPropertyOp29
 70
     1
102
RTVSPropertyOp30
 70
     1
102
RTVSPropertyOp31
 70
     1
102
RTVSPropertyOp32
 70
     1
102
RTVSPropertyOp33
 70
     1
102
RTVSPropertyOp34
 70
     1
102
RTVSPropertyOp35
 70
     1
102
RTVSPropertyOp36
 70
     1
102
RTVSPropertyOp37
 70
     1
102
RTVSPropertyOp38
 70
     1
102
RTVSPropertyOp39
 70
     1
102
RTVSPropertyOp40
 70
     1
102
RTVSPropertyOp41
 70
     1
102
RTVSPropertyOp42
 70
     1
102
RTVSPropertyOp43
 70
     1
102
RTVSPropertyOp44
 70
     1
102
RTVSPropertyOp45
 70
     1
102
RTVSPropertyOp46
 70
     1
102
RTVSPropertyOp47
 70
     1
102
RTVSPropertyOp48
 70
     1
102
RTVSPropertyOp49
 70
     1
102
RTVSPropertyOp50
 70
     1
102
RTVSPropertyOp51
 70
     0
102
RTVSPropertyOp52
 70
     0
102
RTVSPropertyOp53
 70
     1
102
RTVSPropertyOp54
 70
     1
102
RTVSPropertyOp55
 70
     1
102
RTVSPropertyOp56
 70
     1
102
RTVSPropertyOp57
 70
     1
102
RTVSPost2010Prop28
280
     0
102
RTVSPost2010PropOp28
 70
     1
102
RTVSPost2010Prop29
280
     1
102
RTVSPost2010PropOp29
 70
     1
102
RTVSPost2010Prop30
280
     1
102
RTVSPost2010PropOp30
 70
     1
102
RTVSPost2010Prop31
280
     0
102
RTVSPost2010PropOp31
 70
     1
102
RTVSPost2010Prop32
280
     0
102
RTVSPost2010PropOp32
 70
     1
102
RTVSPost2010Prop33
280
     0
102
RTVSPost2010PropOp33
 70
     1
102
RTVSPost2010Prop34
280
     0
102
RTVSPost2010PropOp34
 70
     1
102
RTVSPost2010Prop35
280
     0
102
RTVSPost2010PropOp35
 70
     1
102
RTVSPost2010Prop36
280
     0
102
RTVSPost2010PropOp36
 70
     1
102
RTVSPost2010Prop37
 90
       50
102
RTVSPost2010PropOp37
 70
     1
102
RTVSPost2010Prop38
140
0.0
102
RTVSPost2010PropOp38
 70
     1
102
RTVSPost2010Prop39
140
1.0
102
RTVSPost2010PropOp39
 70
     1
102
RTVSPost2010Prop40
 90
        0
102
RTVSPost2010PropOp40
 70
     1
102
RTVSPost2010Prop41ColorIndex
 90
       18
102
RTVSPost2010Prop41ColorRGB
 90
        0
102
RTVSPost2010PropOp41
 70
     1
102
RTVSPost2010Prop42
 90
       50
102
RTVSPost2010PropOp42
 70
     1
102
RTVSPost2010Prop43
 90
        3
102
RTVSPost2010PropOp43
 70
     1
102
RTVSPost2010Prop44ColorIndex
 90
        5
102
RTVSPost2010Prop44ColorRGB
 90
      255
102
RTVSPost2010PropOp44
 70
     1
102
RTVSPost2010Prop45
280
     0
102
RTVSPost2010PropOp45
 70
     1
102
RTVSPost2010Prop46
 90
       50
102
RTVSPost2010PropOp46
 70
     1
102
RTVSPost2010Prop47
 90
       50
102
RTVSPost2010PropOp47
 70
     1
102
RTVSPost2010Prop48
 90
       50
102
RTVSPost2010PropOp48
 70
     1
102
RTVSPost2010Prop49
280
     0
102
RTVSPost2010PropOp49
 70
     1
102
RTVSPost2010Prop50
 90
       50
102
RTVSPost2010PropOp50
 70
     1
102
RTVSPost2010Prop51ColorIndex
 90
      256
102
RTVSPost2010Prop51ColorRGB
 90
-16777216
102
RTVSPost2010PropOp51
 70
     0
102
RTVSPost2010Prop52
140
1.0
102
RTVSPost2010PropOp52
 70
     0
102
RTVSPost2010Prop53
 90
        2
102
RTVSPost2010PropOp53
 70
     1
102
RTVSPost2010Prop54
  1
strokes_ogs.tif
102
RTVSPost2010PropOp54
 70
     1
102
RTVSPost2010Prop55
280
     0
102
RTVSPost2010PropOp55
 70
     1
102
RTVSPost2010Prop56
140
1.0
102
RTVSPost2010PropOp56
 70
     1
102
RTVSPost2010Prop57
140
1.0
102
RTVSPost2010PropOp57
 70
     1
  0
XRECORD
  5
254
102
{ACAD_REACTORS
330
253
102
}
330
253
100
AcDbXrecord
280
     1
102
RTVSPropertyOp0
 70
     1
102
RTVSPropertyOp1
 70
     1
102
RTVSPropertyOp2
 70
     1
102
RTVSPropertyOp3
 70
     1
102
RTVSPropertyOp4
 70
     1
102
RTVSPropertyOp5
 70
     1
102
RTVSPropertyOp6
 70
     1
102
RTVSPropertyOp7
 70
     1
102
RTVSPropertyOp8
 70
     1
102
RTVSPropertyOp9
 70
     1
102
RTVSPropertyOp10
 70
     1
102
RTVSPropertyOp11
 70
     1
102
RTVSPropertyOp12
 70
     1
102
RTVSPropertyOp13
 70
     1
102
RTVSPropertyOp14
 70
     1
102
RTVSPropertyOp15
 70
     1
102
RTVSPropertyOp16
 70
     1
102
RTVSPropertyOp17
 70
     1
102
RTVSPropertyOp18
 70
     1
102
RTVSPropertyOp19
 70
     1
102
RTVSPropertyOp20
 70
     1
102
RTVSPropertyOp21
 70
     1
102
RTVSPropertyOp22
 70
     1
102
RTVSPropertyOp23
 70
     1
102
RTVSPropertyOp24
 70
     1
102
RTVSPropertyOp25
 70
     1
102
RTVSPropertyOp26
 70
     1
102
RTVSPropertyOp27
 70
     1
102
RTVSPropertyOp28
 70
     1
102
RTVSPropertyOp29
 70
     1
102
RTVSPropertyOp30
 70
     1
102
RTVSPropertyOp31
 70
     1
102
RTVSPropertyOp32
 70
     1
102
RTVSPropertyOp33
 70
     1
102
RTVSPropertyOp34
 70
     1
102
RTVSPropertyOp35
 70
     1
102
RTVSPropertyOp36
 70
     1
102
RTVSPropertyOp37
 70
     1
102
RTVSPropertyOp38
 70
     1
102
RTVSPropertyOp39
 70
     1
102
RTVSPropertyOp40
 70
     1
102
RTVSPropertyOp41
 70
     1
102
RTVSPropertyOp42
 70
     1
102
RTVSPropertyOp43
 70
     1
102
RTVSPropertyOp44
 70
     1
102
RTVSPropertyOp45
 70
     1
102
RTVSPropertyOp46
 70
     1
102
RTVSPropertyOp47
 70
     1
102
RTVSPropertyOp48
 70
     1
102
RTVSPropertyOp49
 70
     1
102
RTVSPropertyOp50
 70
     1
102
RTVSPropertyOp51
 70
     0
102
RTVSPropertyOp52
 70
     0
102
RTVSPropertyOp53
 70
     1
102
RTVSPropertyOp54
 70
     1
102
RTVSPropertyOp55
 70
     1
102
RTVSPropertyOp56
 70
     1
102
RTVSPropertyOp57
 70
     1
102
RTVSPost2010Prop28
280
     0
102
RTVSPost2010PropOp28
 70
     1
102
RTVSPost2010Prop29
280
     1
102
RTVSPost2010PropOp29
 70
     1
102
RTVSPost2010Prop30
280
     1
102
RTVSPost2010PropOp30
 70
     1
102
RTVSPost2010Prop31
280
     0
102
RTVSPost2010PropOp31
 70
     1
102
RTVSPost2010Prop32
280
     0
102
RTVSPost2010PropOp32
 70
     1
102
RTVSPost2010Prop33
280
     0
102
RTVSPost2010PropOp33
 70
     1
102
RTVSPost2010Prop34
280
     0
102
RTVSPost2010PropOp34
 70
     1
102
RTVSPost2010Prop35
280
     0
102
RTVSPost2010PropOp35
 70
     1
102
RTVSPost2010Prop36
280
     0
102
RTVSPost2010PropOp36
 70
     1
102
RTVSPost2010Prop37
 90
       50
102
RTVSPost2010PropOp37
 70
     1
102
RTVSPost2010Prop38
140
0.0
102
RTVSPost2010PropOp38
 70
     1
102
RTVSPost2010Prop39
140
1.0
102
RTVSPost2010PropOp39
 70
     1
102
RTVSPost2010Prop40
 90
        0
102
RTVSPost2010PropOp40
 70
     1
102
RTVSPost2010Prop41ColorIndex
 90
       18
102
RTVSPost2010Prop41ColorRGB
 90
        0
102
RTVSPost2010PropOp41
 70
     1
102
RTVSPost2010Prop42
 90
       50
102
RTVSPost2010PropOp42
 70
     1
102
RTVSPost2010Prop43
 90
        3
102
RTVSPost2010PropOp43
 70
     1
102
RTVSPost2010Prop44ColorIndex
 90
        5
102
RTVSPost2010Prop44ColorRGB
 90
      255
102
RTVSPost2010PropOp44
 70
     1
102
RTVSPost2010Prop45
280
     0
102
RTVSPost2010PropOp45
 70
     1
102
RTVSPost2010Prop46
 90
       50
102
RTVSPost2010PropOp46
 70
     1
102
RTVSPost2010Prop47
 90
       50
102
RTVSPost2010PropOp47
 70
     1
102
RTVSPost2010Prop48
 90
       50
102
RTVSPost2010PropOp48
 70
     1
102
RTVSPost2010Prop49
280
     0
102
RTVSPost2010PropOp49
 70
     1
102
RTVSPost2010Prop50
 90
       50
102
RTVSPost2010PropOp50
 70
     1
102
RTVSPost2010Prop51ColorIndex
 90
      256
102
RTVSPost2010Prop51ColorRGB
 90
-16777216
102
RTVSPost2010PropOp51
 70
     0
102
RTVSPost2010Prop52
140
1.0
102
RTVSPost2010PropOp52
 70
     0
102
RTVSPost2010Prop53
 90
        2
102
RTVSPost2010PropOp53
 70
     1
102
RTVSPost2010Prop54
  1
strokes_ogs.tif
102
RTVSPost2010PropOp54
 70
     1
102
RTVSPost2010Prop55
280
     0
102
RTVSPost2010PropOp55
 70
     1
102
RTVSPost2010Prop56
140
1.0
102
RTVSPost2010PropOp56
 70
     1
102
RTVSPost2010Prop57
140
1.0
102
RTVSPost2010PropOp57
 70
     1
  0
XRECORD
  5
256
102
{ACAD_REACTORS
330
255
102
}
330
255
100
AcDbXrecord
280
     1
102
RTVSPropertyOp0
 70
     1
102
RTVSPropertyOp1
 70
     1
102
RTVSPropertyOp2
 70
     1
102
RTVSPropertyOp3
 70
     1
102
RTVSPropertyOp4
 70
     1
102
RTVSPropertyOp5
 70
     1
102
RTVSPropertyOp6
 70
     1
102
RTVSPropertyOp7
 70
     1
102
RTVSPropertyOp8
 70
     1
102
RTVSPropertyOp9
 70
     1
102
RTVSPropertyOp10
 70
     1
102
RTVSPropertyOp11
 70
     1
102
RTVSPropertyOp12
 70
     1
102
RTVSPropertyOp13
 70
     1
102
RTVSPropertyOp14
 70
     1
102
RTVSPropertyOp15
 70
     1
102
RTVSPropertyOp16
 70
     1
102
RTVSPropertyOp17
 70
     1
102
RTVSPropertyOp18
 70
     1
102
RTVSPropertyOp19
 70
     1
102
RTVSPropertyOp20
 70
     1
102
RTVSPropertyOp21
 70
     1
102
RTVSPropertyOp22
 70
     1
102
RTVSPropertyOp23
 70
     1
102
RTVSPropertyOp24
 70
     1
102
RTVSPropertyOp25
 70
     1
102
RTVSPropertyOp26
 70
     1
102
RTVSPropertyOp27
 70
     1
102
RTVSPropertyOp28
 70
     1
102
RTVSPropertyOp29
 70
     1
102
RTVSPropertyOp30
 70
     1
102
RTVSPropertyOp31
 70
     1
102
RTVSPropertyOp32
 70
     1
102
RTVSPropertyOp33
 70
     1
102
RTVSPropertyOp34
 70
     1
102
RTVSPropertyOp35
 70
     1
102
RTVSPropertyOp36
 70
     1
102
RTVSPropertyOp37
 70
     1
102
RTVSPropertyOp38
 70
     1
102
RTVSPropertyOp39
 70
     1
102
RTVSPropertyOp40
 70
     1
102
RTVSPropertyOp41
 70
     1
102
RTVSPropertyOp42
 70
     1
102
RTVSPropertyOp43
 70
     1
102
RTVSPropertyOp44
 70
     1
102
RTVSPropertyOp45
 70
     1
102
RTVSPropertyOp46
 70
     1
102
RTVSPropertyOp47
 70
     1
102
RTVSPropertyOp48
 70
     1
102
RTVSPropertyOp49
 70
     1
102
RTVSPropertyOp50
 70
     1
102
RTVSPropertyOp51
 70
     0
102
RTVSPropertyOp52
 70
     0
102
RTVSPropertyOp53
 70
     1
102
RTVSPropertyOp54
 70
     1
102
RTVSPropertyOp55
 70
     1
102
RTVSPropertyOp56
 70
     1
102
RTVSPropertyOp57
 70
     1
102
RTVSPost2010Prop28
280
     0
102
RTVSPost2010PropOp28
 70
     1
102
RTVSPost2010Prop29
280
     1
102
RTVSPost2010PropOp29
 70
     1
102
RTVSPost2010Prop30
280
     1
102
RTVSPost2010PropOp30
 70
     1
102
RTVSPost2010Prop31
280
     0
102
RTVSPost2010PropOp31
 70
     1
102
RTVSPost2010Prop32
280
     0
102
RTVSPost2010PropOp32
 70
     1
102
RTVSPost2010Prop33
280
     0
102
RTVSPost2010PropOp33
 70
     1
102
RTVSPost2010Prop34
280
     0
102
RTVSPost2010PropOp34
 70
     1
102
RTVSPost2010Prop35
280
     0
102
RTVSPost2010PropOp35
 70
     1
102
RTVSPost2010Prop36
280
     0
102
RTVSPost2010PropOp36
 70
     1
102
RTVSPost2010Prop37
 90
       50
102
RTVSPost2010PropOp37
 70
     1
102
RTVSPost2010Prop38
140
0.0
102
RTVSPost2010PropOp38
 70
     1
102
RTVSPost2010Prop39
140
1.0
102
RTVSPost2010PropOp39
 70
     1
102
RTVSPost2010Prop40
 90
        0
102
RTVSPost2010PropOp40
 70
     1
102
RTVSPost2010Prop41ColorIndex
 90
       18
102
RTVSPost2010Prop41ColorRGB
 90
        0
102
RTVSPost2010PropOp41
 70
     1
102
RTVSPost2010Prop42
 90
       50
102
RTVSPost2010PropOp42
 70
     1
102
RTVSPost2010Prop43
 90
        3
102
RTVSPost2010PropOp43
 70
     1
102
RTVSPost2010Prop44ColorIndex
 90
        5
102
RTVSPost2010Prop44ColorRGB
 90
      255
102
RTVSPost2010PropOp44
 70
     1
102
RTVSPost2010Prop45
280
     0
102
RTVSPost2010PropOp45
 70
     1
102
RTVSPost2010Prop46
 90
       50
102
RTVSPost2010PropOp46
 70
     1
102
RTVSPost2010Prop47
 90
       50
102
RTVSPost2010PropOp47
 70
     1
102
RTVSPost2010Prop48
 90
       50
102
RTVSPost2010PropOp48
 70
     1
102
RTVSPost2010Prop49
280
     0
102
RTVSPost2010PropOp49
 70
     1
102
RTVSPost2010Prop50
 90
       50
102
RTVSPost2010PropOp50
 70
     1
102
RTVSPost2010Prop51ColorIndex
 90
      256
102
RTVSPost2010Prop51ColorRGB
 90
-16777216
102
RTVSPost2010PropOp51
 70
     0
102
RTVSPost2010Prop52
140
1.0
102
RTVSPost2010PropOp52
 70
     0
102
RTVSPost2010Prop53
 90
        2
102
RTVSPost2010PropOp53
 70
     1
102
RTVSPost2010Prop54
  1
strokes_ogs.tif
102
RTVSPost2010PropOp54
 70
     1
102
RTVSPost2010Prop55
280
     0
102
RTVSPost2010PropOp55
 70
     1
102
RTVSPost2010Prop56
140
1.0
102
RTVSPost2010PropOp56
 70
     1
102
RTVSPost2010Prop57
140
1.0
102
RTVSPost2010PropOp57
 70
     1
  0
XRECORD
  5
246
102
{ACAD_REACTORS
330
245
102
}
330
245
100
AcDbXrecord
280
     1
102
RTVSPropertyOp0
 70
     1
102
RTVSPropertyOp1
 70
     1
102
RTVSPropertyOp2
 70
     1
102
RTVSPropertyOp3
 70
     1
102
RTVSPropertyOp4
 70
     1
102
RTVSPropertyOp5
 70
     1
102
RTVSPropertyOp6
 70
     1
102
RTVSPropertyOp7
 70
     1
102
RTVSPropertyOp8
 70
     1
102
RTVSPropertyOp9
 70
     1
102
RTVSPropertyOp10
 70
     1
102
RTVSPropertyOp11
 70
     1
102
RTVSPropertyOp12
 70
     1
102
RTVSPropertyOp13
 70
     1
102
RTVSPropertyOp14
 70
     1
102
RTVSPropertyOp15
 70
     1
102
RTVSPropertyOp16
 70
     1
102
RTVSPropertyOp17
 70
     1
102
RTVSPropertyOp18
 70
     1
102
RTVSPropertyOp19
 70
     1
102
RTVSPropertyOp20
 70
     1
102
RTVSPropertyOp21
 70
     1
102
RTVSPropertyOp22
 70
     1
102
RTVSPropertyOp23
 70
     1
102
RTVSPropertyOp24
 70
     1
102
RTVSPropertyOp25
 70
     1
102
RTVSPropertyOp26
 70
     1
102
RTVSPropertyOp27
 70
     1
102
RTVSPropertyOp28
 70
     1
102
RTVSPropertyOp29
 70
     1
102
RTVSPropertyOp30
 70
     1
102
RTVSPropertyOp31
 70
     1
102
RTVSPropertyOp32
 70
     1
102
RTVSPropertyOp33
 70
     1
102
RTVSPropertyOp34
 70
     1
102
RTVSPropertyOp35
 70
     1
102
RTVSPropertyOp36
 70
     1
102
RTVSPropertyOp37
 70
     1
102
RTVSPropertyOp38
 70
     1
102
RTVSPropertyOp39
 70
     1
102
RTVSPropertyOp40
 70
     1
102
RTVSPropertyOp41
 70
     1
102
RTVSPropertyOp42
 70
     1
102
RTVSPropertyOp43
 70
     1
102
RTVSPropertyOp44
 70
     1
102
RTVSPropertyOp45
 70
     1
102
RTVSPropertyOp46
 70
     1
102
RTVSPropertyOp47
 70
     1
102
RTVSPropertyOp48
 70
     1
102
RTVSPropertyOp49
 70
     1
102
RTVSPropertyOp50
 70
     1
102
RTVSPropertyOp51
 70
     0
102
RTVSPropertyOp52
 70
     0
102
RTVSPropertyOp53
 70
     1
102
RTVSPropertyOp54
 70
     1
102
RTVSPropertyOp55
 70
     1
102
RTVSPropertyOp56
 70
     1
102
RTVSPropertyOp57
 70
     1
102
RTVSPost2010Prop28
280
     0
102
RTVSPost2010PropOp28
 70
     1
102
RTVSPost2010Prop29
280
     1
102
RTVSPost2010PropOp29
 70
     1
102
RTVSPost2010Prop30
280
     1
102
RTVSPost2010PropOp30
 70
     1
102
RTVSPost2010Prop31
280
     0
102
RTVSPost2010PropOp31
 70
     1
102
RTVSPost2010Prop32
280
     0
102
RTVSPost2010PropOp32
 70
     1
102
RTVSPost2010Prop33
280
     0
102
RTVSPost2010PropOp33
 70
     1
102
RTVSPost2010Prop34
280
     0
102
RTVSPost2010PropOp34
 70
     1
102
RTVSPost2010Prop35
280
     0
102
RTVSPost2010PropOp35
 70
     1
102
RTVSPost2010Prop36
280
     0
102
RTVSPost2010PropOp36
 70
     1
102
RTVSPost2010Prop37
 90
       50
102
RTVSPost2010PropOp37
 70
     1
102
RTVSPost2010Prop38
140
0.0
102
RTVSPost2010PropOp38
 70
     1
102
RTVSPost2010Prop39
140
1.0
102
RTVSPost2010PropOp39
 70
     1
102
RTVSPost2010Prop40
 90
        0
102
RTVSPost2010PropOp40
 70
     1
102
RTVSPost2010Prop41ColorIndex
 90
       18
102
RTVSPost2010Prop41ColorRGB
 90
        0
102
RTVSPost2010PropOp41
 70
     1
102
RTVSPost2010Prop42
 90
       50
102
RTVSPost2010PropOp42
 70
     1
102
RTVSPost2010Prop43
 90
        3
102
RTVSPost2010PropOp43
 70
     1
102
RTVSPost2010Prop44ColorIndex
 90
        5
102
RTVSPost2010Prop44ColorRGB
 90
      255
102
RTVSPost2010PropOp44
 70
     1
102
RTVSPost2010Prop45
280
     0
102
RTVSPost2010PropOp45
 70
     1
102
RTVSPost2010Prop46
 90
       50
102
RTVSPost2010PropOp46
 70
     1
102
RTVSPost2010Prop47
 90
       50
102
RTVSPost2010PropOp47
 70
     1
102
RTVSPost2010Prop48
 90
       50
102
RTVSPost2010PropOp48
 70
     1
102
RTVSPost2010Prop49
280
     0
102
RTVSPost2010PropOp49
 70
     1
102
RTVSPost2010Prop50
 90
       50
102
RTVSPost2010PropOp50
 70
     1
102
RTVSPost2010Prop51ColorIndex
 90
      256
102
RTVSPost2010Prop51ColorRGB
 90
-16777216
102
RTVSPost2010PropOp51
 70
     0
102
RTVSPost2010Prop52
140
1.0
102
RTVSPost2010PropOp52
 70
     0
102
RTVSPost2010Prop53
 90
        2
102
RTVSPost2010PropOp53
 70
     1
102
RTVSPost2010Prop54
  1
strokes_ogs.tif
102
RTVSPost2010PropOp54
 70
     1
102
RTVSPost2010Prop55
280
     0
102
RTVSPost2010PropOp55
 70
     1
102
RTVSPost2010Prop56
140
1.0
102
RTVSPost2010PropOp56
 70
     1
102
RTVSPost2010Prop57
140
1.0
102
RTVSPost2010PropOp57
 70
     1
  0
XRECORD
  5
238
102
{ACAD_REACTORS
330
237
102
}
330
237
100
AcDbXrecord
280
     1
102
RTVSPropertyOp0
 70
     1
102
RTVSPropertyOp1
 70
     1
102
RTVSPropertyOp2
 70
     1
102
RTVSPropertyOp3
 70
     1
102
RTVSPropertyOp4
 70
     1
102
RTVSPropertyOp5
 70
     1
102
RTVSPropertyOp6
 70
     1
102
RTVSPropertyOp7
 70
     1
102
RTVSPropertyOp8
 70
     1
102
RTVSPropertyOp9
 70
     1
102
RTVSPropertyOp10
 70
     1
102
RTVSPropertyOp11
 70
     1
102
RTVSPropertyOp12
 70
     1
102
RTVSPropertyOp13
 70
     1
102
RTVSPropertyOp14
 70
     1
102
RTVSPropertyOp15
 70
     1
102
RTVSPropertyOp16
 70
     1
102
RTVSPropertyOp17
 70
     1
102
RTVSPropertyOp18
 70
     1
102
RTVSPropertyOp19
 70
     1
102
RTVSPropertyOp20
 70
     1
102
RTVSPropertyOp21
 70
     1
102
RTVSPropertyOp22
 70
     1
102
RTVSPropertyOp23
 70
     1
102
RTVSPropertyOp24
 70
     1
102
RTVSPropertyOp25
 70
     1
102
RTVSPropertyOp26
 70
     1
102
RTVSPropertyOp27
 70
     1
102
RTVSPropertyOp28
 70
     1
102
RTVSPropertyOp29
 70
     1
102
RTVSPropertyOp30
 70
     1
102
RTVSPropertyOp31
 70
     1
102
RTVSPropertyOp32
 70
     1
102
RTVSPropertyOp33
 70
     1
102
RTVSPropertyOp34
 70
     1
102
RTVSPropertyOp35
 70
     1
102
RTVSPropertyOp36
 70
     1
102
RTVSPropertyOp37
 70
     1
102
RTVSPropertyOp38
 70
     1
102
RTVSPropertyOp39
 70
     1
102
RTVSPropertyOp40
 70
     1
102
RTVSPropertyOp41
 70
     1
102
RTVSPropertyOp42
 70
     1
102
RTVSPropertyOp43
 70
     1
102
RTVSPropertyOp44
 70
     1
102
RTVSPropertyOp45
 70
     1
102
RTVSPropertyOp46
 70
     1
102
RTVSPropertyOp47
 70
     1
102
RTVSPropertyOp48
 70
     1
102
RTVSPropertyOp49
 70
     1
102
RTVSPropertyOp50
 70
     1
102
RTVSPropertyOp51
 70
     0
102
RTVSPropertyOp52
 70
     0
102
RTVSPropertyOp53
 70
     1
102
RTVSPropertyOp54
 70
     1
102
RTVSPropertyOp55
 70
     1
102
RTVSPropertyOp56
 70
     1
102
RTVSPropertyOp57
 70
     1
102
RTVSPost2010Prop28
280
     0
102
RTVSPost2010PropOp28
 70
     1
102
RTVSPost2010Prop29
280
     1
102
RTVSPost2010PropOp29
 70
     1
102
RTVSPost2010Prop30
280
     1
102
RTVSPost2010PropOp30
 70
     1
102
RTVSPost2010Prop31
280
     0
102
RTVSPost2010PropOp31
 70
     1
102
RTVSPost2010Prop32
280
     0
102
RTVSPost2010PropOp32
 70
     1
102
RTVSPost2010Prop33
280
     0
102
RTVSPost2010PropOp33
 70
     1
102
RTVSPost2010Prop34
280
     0
102
RTVSPost2010PropOp34
 70
     1
102
RTVSPost2010Prop35
280
     0
102
RTVSPost2010PropOp35
 70
     1
102
RTVSPost2010Prop36
280
     0
102
RTVSPost2010PropOp36
 70
     1
102
RTVSPost2010Prop37
 90
       50
102
RTVSPost2010PropOp37
 70
     1
102
RTVSPost2010Prop38
140
0.0
102
RTVSPost2010PropOp38
 70
     1
102
RTVSPost2010Prop39
140
1.0
102
RTVSPost2010PropOp39
 70
     1
102
RTVSPost2010Prop40
 90
        0
102
RTVSPost2010PropOp40
 70
     1
102
RTVSPost2010Prop41ColorIndex
 90
       18
102
RTVSPost2010Prop41ColorRGB
 90
        0
102
RTVSPost2010PropOp41
 70
     1
102
RTVSPost2010Prop42
 90
       50
102
RTVSPost2010PropOp42
 70
     1
102
RTVSPost2010Prop43
 90
        3
102
RTVSPost2010PropOp43
 70
     1
102
RTVSPost2010Prop44ColorIndex
 90
        5
102
RTVSPost2010Prop44ColorRGB
 90
      255
102
RTVSPost2010PropOp44
 70
     1
102
RTVSPost2010Prop45
280
     0
102
RTVSPost2010PropOp45
 70
     1
102
RTVSPost2010Prop46
 90
       50
102
RTVSPost2010PropOp46
 70
     1
102
RTVSPost2010Prop47
 90
       50
102
RTVSPost2010PropOp47
 70
     1
102
RTVSPost2010Prop48
 90
       50
102
RTVSPost2010PropOp48
 70
     1
102
RTVSPost2010Prop49
280
     0
102
RTVSPost2010PropOp49
 70
     1
102
RTVSPost2010Prop50
 90
       50
102
RTVSPost2010PropOp50
 70
     1
102
RTVSPost2010Prop51ColorIndex
 90
      256
102
RTVSPost2010Prop51ColorRGB
 90
-16777216
102
RTVSPost2010PropOp51
 70
     0
102
RTVSPost2010Prop52
140
1.0
102
RTVSPost2010PropOp52
 70
     0
102
RTVSPost2010Prop53
 90
        2
102
RTVSPost2010PropOp53
 70
     1
102
RTVSPost2010Prop54
  1
strokes_ogs.tif
102
RTVSPost2010PropOp54
 70
     1
102
RTVSPost2010Prop55
280
     0
102
RTVSPost2010PropOp55
 70
     1
102
RTVSPost2010Prop56
140
1.0
102
RTVSPost2010PropOp56
 70
     1
102
RTVSPost2010Prop57
140
1.0
102
RTVSPost2010PropOp57
 70
     1
  0
XRECORD
  5
258
102
{ACAD_REACTORS
330
257
102
}
330
257
100
AcDbXrecord
280
     1
102
RTVSPropertyOp0
 70
     1
102
RTVSPropertyOp1
 70
     1
102
RTVSPropertyOp2
 70
     1
102
RTVSPropertyOp3
 70
     1
102
RTVSPropertyOp4
 70
     1
102
RTVSPropertyOp5
 70
     1
102
RTVSPropertyOp6
 70
     1
102
RTVSPropertyOp7
 70
     1
102
RTVSPropertyOp8
 70
     1
102
RTVSPropertyOp9
 70
     1
102
RTVSPropertyOp10
 70
     1
102
RTVSPropertyOp11
 70
     1
102
RTVSPropertyOp12
 70
     1
102
RTVSPropertyOp13
 70
     1
102
RTVSPropertyOp14
 70
     1
102
RTVSPropertyOp15
 70
     1
102
RTVSPropertyOp16
 70
     1
102
RTVSPropertyOp17
 70
     1
102
RTVSPropertyOp18
 70
     1
102
RTVSPropertyOp19
 70
     1
102
RTVSPropertyOp20
 70
     1
102
RTVSPropertyOp21
 70
     1
102
RTVSPropertyOp22
 70
     1
102
RTVSPropertyOp23
 70
     1
102
RTVSPropertyOp24
 70
     1
102
RTVSPropertyOp25
 70
     1
102
RTVSPropertyOp26
 70
     1
102
RTVSPropertyOp27
 70
     1
102
RTVSPropertyOp28
 70
     1
102
RTVSPropertyOp29
 70
     1
102
RTVSPropertyOp30
 70
     1
102
RTVSPropertyOp31
 70
     1
102
RTVSPropertyOp32
 70
     1
102
RTVSPropertyOp33
 70
     1
102
RTVSPropertyOp34
 70
     1
102
RTVSPropertyOp35
 70
     1
102
RTVSPropertyOp36
 70
     1
102
RTVSPropertyOp37
 70
     1
102
RTVSPropertyOp38
 70
     1
102
RTVSPropertyOp39
 70
     1
102
RTVSPropertyOp40
 70
     1
102
RTVSPropertyOp41
 70
     1
102
RTVSPropertyOp42
 70
     1
102
RTVSPropertyOp43
 70
     1
102
RTVSPropertyOp44
 70
     1
102
RTVSPropertyOp45
 70
     1
102
RTVSPropertyOp46
 70
     1
102
RTVSPropertyOp47
 70
     1
102
RTVSPropertyOp48
 70
     1
102
RTVSPropertyOp49
 70
     1
102
RTVSPropertyOp50
 70
     1
102
RTVSPropertyOp51
 70
     0
102
RTVSPropertyOp52
 70
     0
102
RTVSPropertyOp53
 70
     1
102
RTVSPropertyOp54
 70
     1
102
RTVSPropertyOp55
 70
     1
102
RTVSPropertyOp56
 70
     1
102
RTVSPropertyOp57
 70
     1
102
RTVSPost2010Prop28
280
     0
102
RTVSPost2010PropOp28
 70
     1
102
RTVSPost2010Prop29
280
     1
102
RTVSPost2010PropOp29
 70
     1
102
RTVSPost2010Prop30
280
     1
102
RTVSPost2010PropOp30
 70
     1
102
RTVSPost2010Prop31
280
     0
102
RTVSPost2010PropOp31
 70
     1
102
RTVSPost2010Prop32
280
     0
102
RTVSPost2010PropOp32
 70
     1
102
RTVSPost2010Prop33
280
     0
102
RTVSPost2010PropOp33
 70
     1
102
RTVSPost2010Prop34
280
     0
102
RTVSPost2010PropOp34
 70
     1
102
RTVSPost2010Prop35
280
     0
102
RTVSPost2010PropOp35
 70
     1
102
RTVSPost2010Prop36
280
     0
102
RTVSPost2010PropOp36
 70
     1
102
RTVSPost2010Prop37
 90
       50
102
RTVSPost2010PropOp37
 70
     1
102
RTVSPost2010Prop38
140
0.0
102
RTVSPost2010PropOp38
 70
     1
102
RTVSPost2010Prop39
140
1.0
102
RTVSPost2010PropOp39
 70
     1
102
RTVSPost2010Prop40
 90
        0
102
RTVSPost2010PropOp40
 70
     1
102
RTVSPost2010Prop41ColorIndex
 90
       18
102
RTVSPost2010Prop41ColorRGB
 90
        0
102
RTVSPost2010PropOp41
 70
     1
102
RTVSPost2010Prop42
 90
       50
102
RTVSPost2010PropOp42
 70
     1
102
RTVSPost2010Prop43
 90
        3
102
RTVSPost2010PropOp43
 70
     1
102
RTVSPost2010Prop44ColorIndex
 90
        5
102
RTVSPost2010Prop44ColorRGB
 90
      255
102
RTVSPost2010PropOp44
 70
     1
102
RTVSPost2010Prop45
280
     0
102
RTVSPost2010PropOp45
 70
     1
102
RTVSPost2010Prop46
 90
       50
102
RTVSPost2010PropOp46
 70
     1
102
RTVSPost2010Prop47
 90
       50
102
RTVSPost2010PropOp47
 70
     1
102
RTVSPost2010Prop48
 90
       50
102
RTVSPost2010PropOp48
 70
     1
102
RTVSPost2010Prop49
280
     0
102
RTVSPost2010PropOp49
 70
     1
102
RTVSPost2010Prop50
 90
       50
102
RTVSPost2010PropOp50
 70
     1
102
RTVSPost2010Prop51ColorIndex
 90
      256
102
RTVSPost2010Prop51ColorRGB
 90
-16777216
102
RTVSPost2010PropOp51
 70
     0
102
RTVSPost2010Prop52
140
1.0
102
RTVSPost2010PropOp52
 70
     0
102
RTVSPost2010Prop53
 90
        2
102
RTVSPost2010PropOp53
 70
     1
102
RTVSPost2010Prop54
  1
strokes_ogs.tif
102
RTVSPost2010PropOp54
 70
     1
102
RTVSPost2010Prop55
280
     0
102
RTVSPost2010PropOp55
 70
     1
102
RTVSPost2010Prop56
140
1.0
102
RTVSPost2010PropOp56
 70
     1
102
RTVSPost2010Prop57
140
1.0
102
RTVSPost2010PropOp57
 70
     1
  0
ENDSEC
  0
EOF
